osu file format v14

[General]
AudioFilename: audio.mp3
AudioLeadIn: 0
PreviewTime: 137761
Countdown: 0
SampleSet: Soft
StackLeniency: 0.4
Mode: 0
LetterboxInBreaks: 0
WidescreenStoryboard: 1

[Editor]
Bookmarks: 32075,52721,75946,96592,117237,137882,163688,184334,199817
DistanceSpacing: 1.2
BeatDivisor: 4
GridSize: 32
TimelineZoom: 1.7

[Metadata]
Title:ReI
TitleUnicode:ReI
Artist:THE ORAL CIGARETTES
ArtistUnicode:THE ORAL CIGARETTES
Creator:Nevo
Version:Uniform's Expert ft. dog food
Source:
Tags:toc rel turquoisee Shirahane Suou torriru toybot sajinn dog food uniform japanese rock
BeatmapID:3104528
BeatmapSetID:1465638

[Difficulty]
HPDrainRate:6
CircleSize:4
OverallDifficulty:8.4
ApproachRate:9.2
SliderMultiplier:1.74
SliderTickRate:1

[Events]
//Background and Video events
0,0,"65735974_p0_master1200.jpg",0,0
//Break Periods
//Storyboard Layer 0 (Background)
//Storyboard Layer 1 (Fail)
//Storyboard Layer 2 (Pass)
//Storyboard Layer 3 (Foreground)
//Storyboard Layer 4 (Overlay)
//Storyboard Sound Samples

[TimingPoints]
32076,322.58064516129,4,2,1,80,1,0
32076,-100,4,2,1,80,0,0
41430,-76.9230769230769,4,2,1,80,0,0
41753,-100,4,2,1,80,0,0
42398,-111.111111111111,4,2,1,70,0,0
42639,-111.111111111111,4,2,1,80,0,0
42721,-125,4,2,1,70,0,0
42882,-125,4,2,1,80,0,0
43043,-125,4,2,1,70,0,0
43527,-125,4,2,1,80,0,0
43688,-111.111111111111,4,2,1,70,0,0
43929,-111.111111111111,4,2,1,80,0,0
44011,-125,4,2,1,70,0,0
44172,-125,4,2,1,80,0,0
44334,-125,4,2,1,70,0,0
44817,-125,4,2,1,80,0,0
44979,-111.111111111111,4,2,1,70,0,0
45220,-111.111111111111,4,2,1,80,0,0
45302,-125,4,2,1,70,0,0
45462,-125,4,2,1,80,0,0
45624,-125,4,2,1,70,0,0
46269,-111.111111111111,4,2,1,70,0,0
46510,-111.111111111111,4,2,1,80,0,0
46592,-125,4,2,1,70,0,0
46753,-125,4,2,1,80,0,0
46914,-111.111111111111,4,2,1,70,0,0
47155,-111.111111111111,4,2,1,80,0,0
47237,-125,4,2,1,70,0,0
47559,-111.111111111111,4,2,1,70,0,0
47800,-111.111111111111,4,2,1,80,0,0
47882,-125,4,2,1,70,0,0
48680,-125,4,2,1,80,0,0
48850,-111.111111111111,4,2,1,70,0,0
49091,-111.111111111111,4,2,1,80,0,0
49173,-125,4,2,1,70,0,0
49324,-125,4,2,1,80,0,0
49495,-125,4,2,1,70,0,0
49978,-125,4,2,1,80,0,0
50140,-111.111111111111,4,2,1,70,0,0
50381,-111.111111111111,4,2,1,80,0,0
50463,-125,4,2,1,70,0,0
51269,-125,4,2,1,80,0,0
51430,-111.111111111111,4,2,1,70,0,0
51672,-111.111111111111,4,2,1,80,0,0
51753,-125,4,2,1,70,0,0
52236,-125,4,2,1,80,0,0
52398,-125,4,2,1,70,0,0
52721,-100,4,2,1,70,0,0
52962,-100,4,2,1,80,0,0
53043,-111.111111111111,4,2,1,70,0,0
53204,-111.111111111111,4,2,1,80,0,0
53366,-111.111111111111,4,2,1,70,0,0
53849,-111.111111111111,4,2,1,80,0,0
54011,-100,4,2,1,70,0,0
54252,-100,4,2,1,80,0,0
54333,-111.111111111111,4,2,1,70,0,0
54495,-111.111111111111,4,2,1,80,0,0
54657,-111.111111111111,4,2,1,70,0,0
55140,-111.111111111111,4,2,1,80,0,0
55301,-100,4,2,1,70,0,0
55543,-100,4,2,1,80,0,0
55623,-111.111111111111,4,2,1,70,0,0
55785,-111.111111111111,4,2,1,80,0,0
55947,-111.111111111111,4,2,1,70,0,0
56592,-100,4,2,1,70,0,0
56833,-100,4,2,1,80,0,0
56914,-111.111111111111,4,2,1,70,0,0
57076,-111.111111111111,4,2,1,80,0,0
57237,-100,4,2,1,70,0,0
57478,-100,4,2,1,80,0,0
57559,-111.111111111111,4,2,1,70,0,0
57882,-100,4,2,1,70,0,0
58123,-100,4,2,1,80,0,0
58204,-111.111111111111,4,2,1,70,0,0
58366,-111.111111111111,4,2,1,80,0,0
58528,-111.111111111111,4,2,1,70,0,0
59172,-100,4,2,1,70,0,0
59414,-100,4,2,1,80,0,0
59494,-111.111111111111,4,2,1,70,0,0
60301,-111.111111111111,4,2,1,80,0,0
60463,-100,4,2,1,70,0,0
60704,-100,4,2,1,80,0,0
60785,-111.111111111111,4,2,1,70,0,0
61592,-111.111111111111,4,2,1,80,0,0
61753,-100,4,2,1,70,0,0
63043,-111.111111111111,4,2,1,75,0,0
70785,-100,4,2,1,75,0,0
73043,-83.3333333333333,4,2,1,75,0,0
73284,-83.3333333333333,4,2,1,80,0,0
73366,-83.3333333333333,4,2,1,75,0,0
74979,-71.4285714285714,4,2,1,75,0,0
75220,-71.4285714285714,4,2,1,80,0,0
75301,-71.4285714285714,4,2,1,75,0,0
75946,-71.4285714285714,4,2,1,90,0,0
76187,-71.4285714285714,4,2,1,80,0,0
76269,-71.4285714285714,4,2,1,90,0,0
76430,-71.4285714285714,4,2,1,80,0,0
76510,-71.4285714285714,4,2,1,90,0,0
77075,-71.4285714285714,4,2,1,80,0,0
77237,-71.4285714285714,4,2,1,90,0,0
77720,-71.4285714285714,4,2,1,80,0,0
77801,-71.4285714285714,4,2,1,90,0,0
78123,-71.4285714285714,4,2,1,80,0,0
78205,-66.6666666666667,4,2,1,90,0,0
78280,-66.6666666666667,4,2,1,80,0,0
78366,-71.4285714285714,4,2,1,90,0,0
79011,-71.4285714285714,4,2,1,80,0,0
79172,-71.4285714285714,4,2,1,90,0,0
79656,-71.4285714285714,4,2,1,80,0,0
79737,-71.4285714285714,4,2,1,90,0,0
80381,-71.4285714285714,4,2,1,80,0,0
80463,-71.4285714285714,4,2,1,90,0,0
81349,-71.4285714285714,4,2,1,80,0,0
81430,-71.4285714285714,4,2,1,90,0,0
82237,-71.4285714285714,4,2,1,80,0,0
82317,-71.4285714285714,4,2,1,90,0,0
82882,-71.4285714285714,4,2,1,80,0,0
82963,-71.4285714285714,4,2,1,90,0,0
83284,-71.4285714285714,4,2,1,80,0,0
83366,-66.6666666666667,4,2,1,90,0,0
83441,-66.6666666666667,4,2,1,80,0,0
83527,-71.4285714285714,4,2,1,90,0,0
85301,-66.6666666666667,4,2,1,90,0,0
85462,-71.4285714285714,4,2,1,80,0,0
85624,-71.4285714285714,4,2,1,90,0,0
88043,-71.4285714285714,4,2,1,80,0,0
88124,-71.4285714285714,4,2,1,90,0,0
88446,-71.4285714285714,4,2,1,80,0,0
88527,-66.6666666666667,4,2,1,90,0,0
88607,-66.6666666666667,4,2,1,80,0,0
88688,-71.4285714285714,4,2,1,90,0,0
89334,-71.4285714285714,4,2,1,80,0,0
89414,-71.4285714285714,4,2,1,90,0,0
89979,-71.4285714285714,4,2,1,80,0,0
90060,-71.4285714285714,4,2,1,90,0,0
90624,-71.4285714285714,4,2,1,80,0,0
90705,-71.4285714285714,4,2,1,90,0,0
91671,-71.4285714285714,4,2,1,80,0,0
91753,-71.4285714285714,4,2,1,90,0,0
92316,-71.4285714285714,4,2,1,80,0,0
92398,-71.4285714285714,4,2,1,90,0,0
92962,-71.4285714285714,4,2,1,80,0,0
93043,-71.4285714285714,4,2,1,90,0,0
94495,-71.4285714285714,4,2,1,80,0,0
94656,-71.4285714285714,4,2,1,90,0,0
94897,-71.4285714285714,4,2,1,80,0,0
94979,-71.4285714285714,4,2,1,90,0,0
95220,-71.4285714285714,4,2,1,80,0,0
95301,-71.4285714285714,4,2,1,90,0,0
96592,-100,4,2,1,80,0,0
106914,-111.111111111111,4,2,1,70,0,0
107075,-111.111111111111,4,2,1,80,0,0
107237,-111.111111111111,4,2,1,70,0,0
107398,-111.111111111111,4,2,1,80,0,0
107559,-111.111111111111,4,2,1,70,0,0
108043,-111.111111111111,4,2,1,80,0,0
108205,-111.111111111111,4,2,1,70,0,0
108366,-111.111111111111,4,2,1,80,0,0
108527,-111.111111111111,4,2,1,70,0,0
108688,-111.111111111111,4,2,1,80,0,0
108850,-111.111111111111,4,2,1,70,0,0
109656,-111.111111111111,4,2,1,80,0,0
109817,-111.111111111111,4,2,1,70,0,0
109978,-111.111111111111,4,2,1,80,0,0
110140,-111.111111111111,4,2,1,70,0,0
110946,-111.111111111111,4,2,1,80,0,0
111108,-111.111111111111,4,2,1,70,0,0
111269,-111.111111111111,4,2,1,80,0,0
111430,-111.111111111111,4,2,1,70,0,0
112236,-111.111111111111,4,2,1,80,0,0
112398,-111.111111111111,4,2,1,70,0,0
112559,-111.111111111111,4,2,1,80,0,0
112721,-111.111111111111,4,2,1,70,0,0
113205,-111.111111111111,4,2,1,80,0,0
113366,-111.111111111111,4,2,1,70,0,0
113527,-111.111111111111,4,2,1,80,0,0
113688,-111.111111111111,4,2,1,70,0,0
113850,-111.111111111111,4,2,1,80,0,0
114011,-111.111111111111,4,2,1,70,0,0
114817,-111.111111111111,4,2,1,80,0,0
114979,-111.111111111111,4,2,1,70,0,0
115462,-111.111111111111,4,2,1,80,0,0
115624,-111.111111111111,4,2,1,70,0,0
116592,-499.999999999997,4,2,1,70,0,0
117156,-499.999999999997,4,2,1,80,0,0
117237,-100,4,2,1,75,0,0
117478,-100,4,2,1,80,0,0
117559,-100,4,2,1,75,0,0
117721,-100,4,2,1,80,0,0
117882,-100,4,2,1,75,0,0
117962,-100,4,2,1,80,0,0
118205,-100,4,2,1,75,0,0
118366,-100,4,2,1,80,0,0
118527,-100,4,2,1,75,0,0
118688,-100,4,2,1,80,0,0
118850,-100,4,2,1,75,0,0
119092,-100,4,2,1,80,0,0
119173,-100,4,2,1,75,0,0
119334,-100,4,2,1,80,0,0
119817,-100,4,2,1,75,0,0
120058,-100,4,2,1,80,0,0
120140,-100,4,2,1,75,0,0
120301,-100,4,2,1,80,0,0
120463,-100,4,2,1,75,0,0
120543,-100,4,2,1,80,0,0
120785,-100,4,2,1,75,0,0
121592,-100,4,2,1,80,0,0
121753,-100,4,2,1,75,0,0
121914,-100,4,2,1,80,0,0
122075,-100,4,2,1,75,0,0
122316,-100,4,2,1,80,0,0
122398,-100,4,2,1,75,0,0
122639,-100,4,2,1,80,0,0
122720,-100,4,2,1,75,0,0
123124,-100,4,2,1,80,0,0
123366,-100,4,2,1,75,0,0
123850,-100,4,2,1,80,0,0
124011,-100,4,2,1,75,0,0
124253,-100,4,2,1,80,0,0
124334,-100,4,2,1,75,0,0
124414,-100,4,2,1,80,0,0
124495,-100,4,2,1,75,0,0
124897,-100,4,2,1,80,0,0
124978,-100,4,2,1,75,0,0
125140,-100,4,2,1,80,0,0
125301,-100,4,2,1,75,0,0
125704,-100,4,2,1,80,0,0
125946,-83.3333333333333,4,2,1,75,0,0
126269,-90.9090909090909,4,2,1,75,0,0
126510,-90.9090909090909,4,2,1,80,0,0
126592,-90.9090909090909,4,2,1,75,0,0
127559,-90.9090909090909,4,2,1,80,0,0
129334,-50,4,2,1,80,0,0
129817,-90.9090909090909,4,2,1,80,0,0
131914,-50,4,2,1,80,0,0
132237,-90.9090909090909,4,2,1,80,0,0
134495,-50,4,2,1,80,0,0
134979,-66.6666666666667,4,2,1,80,0,0
136269,-71.4285714285714,4,2,1,80,0,0
137882,-71.4285714285714,4,2,1,90,0,0
138366,-71.4285714285714,4,2,1,80,0,0
138446,-71.4285714285714,4,2,1,90,0,0
139011,-71.4285714285714,4,2,1,80,0,0
139092,-71.4285714285714,4,2,1,90,0,0
139656,-71.4285714285714,4,2,1,80,0,0
139737,-71.4285714285714,4,2,1,90,0,0
140059,-71.4285714285714,4,2,1,80,0,0
140140,-66.6666666666667,4,2,1,90,0,0
140221,-66.6666666666667,4,2,1,80,0,0
140301,-71.4285714285714,4,2,1,90,0,0
140947,-71.4285714285714,4,2,1,80,0,0
141108,-71.4285714285714,4,2,1,90,0,0
141592,-71.4285714285714,4,2,1,80,0,0
141673,-71.4285714285714,4,2,1,90,0,0
142317,-71.4285714285714,4,2,1,80,0,0
142398,-71.4285714285714,4,2,1,90,0,0
143285,-71.4285714285714,4,2,1,80,0,0
143366,-71.4285714285714,4,2,1,90,0,0
144172,-71.4285714285714,4,2,1,80,0,0
144253,-71.4285714285714,4,2,1,90,0,0
144818,-71.4285714285714,4,2,1,80,0,0
144899,-71.4285714285714,4,2,1,90,0,0
145220,-71.4285714285714,4,2,1,80,0,0
145301,-66.6666666666667,4,2,1,90,0,0
145382,-66.6666666666667,4,2,1,80,0,0
145462,-71.4285714285714,4,2,1,90,0,0
147236,-66.6666666666667,4,2,1,90,0,0
147397,-71.4285714285714,4,2,1,80,0,0
147559,-71.4285714285714,4,2,1,90,0,0
149334,-71.4285714285714,4,2,1,80,0,0
149495,-71.4285714285714,4,2,1,90,0,0
150382,-71.4285714285714,4,2,1,80,0,0
150462,-66.6666666666667,4,2,1,90,0,0
150543,-66.6666666666667,4,2,1,80,0,0
150623,-71.4285714285714,4,2,1,90,0,0
151269,-71.4285714285714,4,2,1,80,0,0
151350,-71.4285714285714,4,2,1,90,0,0
151915,-71.4285714285714,4,2,1,80,0,0
151996,-71.4285714285714,4,2,1,90,0,0
153607,-71.4285714285714,4,2,1,80,0,0
153689,-71.4285714285714,4,2,1,90,0,0
154252,-71.4285714285714,4,2,1,80,0,0
154334,-71.4285714285714,4,2,1,90,0,0
154898,-71.4285714285714,4,2,1,80,0,0
154979,-71.4285714285714,4,2,1,90,0,0
156431,-71.4285714285714,4,2,1,80,0,0
156511,-71.4285714285714,4,2,1,90,0,0
157721,-71.4285714285714,4,2,1,80,0,0
157801,-71.4285714285714,4,2,1,90,0,0
158527,-83.3333333333333,4,2,1,90,0,0
158688,-83.3333333333333,4,2,1,80,0,0
158850,-83.3333333333333,4,2,1,90,0,0
161592,-71.4285714285714,4,2,1,90,0,0
162075,-62.5,4,2,1,90,0,0
163688,-90.9090909090909,4,2,1,70,0,0
181430,-66.6666666666667,4,2,1,70,0,0
182075,-90.9090909090909,4,2,1,75,0,0
182316,-90.9090909090909,4,2,1,5,0,0
182398,-83.3333333333333,4,2,1,75,0,0
182639,-83.3333333333333,4,2,1,5,0,0
182721,-76.9230769230769,4,2,1,75,0,0
182962,-76.9230769230769,4,2,1,5,0,0
183043,-71.4285714285714,4,2,1,75,0,0
183284,-71.4285714285714,4,2,1,5,0,0
183366,-62.5,4,2,1,75,0,0
183607,-62.5,4,2,1,5,0,0
183688,-100,4,2,1,75,0,0
184334,-90.9090909090909,4,2,1,75,0,0
185220,-90.9090909090909,4,2,1,80,0,0
185301,-90.9090909090909,4,2,1,75,0,0
187075,-90.9090909090909,4,2,1,80,0,0
187237,-90.9090909090909,4,2,1,75,0,0
190301,-90.9090909090909,4,2,1,80,0,0
190463,-90.9090909090909,4,2,1,75,0,0
192882,-90.9090909090909,4,2,1,80,0,0
193043,-90.9090909090909,4,2,1,75,0,0
194172,-90.9090909090909,4,2,1,80,0,0
194334,-90.9090909090909,4,2,1,75,0,0
199817,-133.333333333333,4,2,1,75,0,0
200058,-133.333333333333,4,2,1,5,0,0
200140,-133.333333333333,4,2,1,75,0,0
200381,-133.333333333333,4,2,1,5,0,0
200463,-133.333333333333,4,2,1,75,0,0
200704,-133.333333333333,4,2,1,5,0,0
200785,-133.333333333333,4,2,1,75,0,0
201026,-133.333333333333,4,2,1,5,0,0
201108,-133.333333333333,4,2,1,75,0,0
201349,-133.333333333333,4,2,1,5,0,0
201430,-133.333333333333,4,2,1,75,0,0
201671,-133.333333333333,4,2,1,5,0,0
201753,-133.333333333333,4,2,1,75,0,0
201994,-133.333333333333,4,2,1,5,0,0
202075,-133.333333333333,4,2,1,75,0,0
202316,-111.111111111111,4,2,1,5,0,0
202398,-111.111111111111,4,2,1,75,0,0
202639,-111.111111111111,4,2,1,5,0,0
202721,-111.111111111111,4,2,1,75,0,0
202962,-111.111111111111,4,2,1,5,0,0
203043,-111.111111111111,4,2,1,75,0,0
203284,-111.111111111111,4,2,1,5,0,0
203366,-111.111111111111,4,2,1,75,0,0
203607,-111.111111111111,4,2,1,5,0,0
203688,-111.111111111111,4,2,1,75,0,0
203929,-111.111111111111,4,2,1,5,0,0
204011,-111.111111111111,4,2,1,75,0,0
204252,-111.111111111111,4,2,1,5,0,0
204334,-90.9090909090909,4,2,1,75,0,0
204575,-90.9090909090909,4,2,1,5,0,0
204656,-66.6666666666667,4,2,1,75,0,0
205140,-83.3333333333333,4,2,1,75,0,0
205463,-200,4,2,1,75,0,0
205624,-83.3333333333333,4,2,1,75,0,0
205947,-200,4,2,1,75,0,0
206108,-66.6666666666667,4,2,1,75,0,0
206349,-66.6666666666667,4,2,1,80,0,0
206430,-66.6666666666667,4,2,1,75,0,0
206914,-57.1428571428571,4,2,1,75,0,0
209495,-57.1428571428571,4,2,1,70,0,0
210140,-57.1428571428571,4,2,1,80,0,0
211430,-100,4,2,1,75,0,0
211671,-100,4,2,1,80,0,0
211753,-153.846153846153,4,2,1,75,0,0
212721,-90.9090909090909,4,2,1,75,0,0
212962,-90.9090909090909,4,2,1,80,0,0
213043,-133.333333333333,4,2,1,75,0,0
214011,-100,4,2,1,75,0,0
214252,-100,4,2,1,80,0,0
214334,-133.333333333333,4,2,1,75,0,0
214575,-133.333333333333,4,2,1,80,0,0
214656,-111.111111111111,4,2,1,75,0,0
214897,-111.111111111111,4,2,1,80,0,0
214979,-153.846153846153,4,2,1,75,0,0
215220,-153.846153846153,4,2,1,80,0,0
215301,-125,4,2,1,75,0,0
215462,-125,4,2,1,80,0,0
215624,-181.818181818182,4,2,1,75,0,0
215865,-181.818181818182,4,2,1,80,0,0
215946,-222.222222222222,4,2,1,75,0,0
216592,-83.3333333333333,4,2,1,75,0,0
216833,-83.3333333333333,4,2,1,80,0,0
216914,-83.3333333333333,4,2,1,75,0,0
217882,-76.9230769230769,4,2,1,75,0,0
218123,-76.9230769230769,4,2,1,80,0,0
218204,-76.9230769230769,4,2,1,75,0,0
219172,-71.4285714285714,4,2,1,75,0,0
220381,-71.4285714285714,4,2,1,80,0,0
220463,-71.4285714285714,4,2,1,75,0,0
221753,-71.4285714285714,4,2,1,90,0,0
227075,-71.4285714285714,4,2,1,80,0,0
227237,-71.4285714285714,4,2,1,90,0,0
227720,-71.4285714285714,4,2,1,80,0,0
227882,-71.4285714285714,4,2,1,90,0,0
228366,-71.4285714285714,4,2,1,80,0,0
228527,-71.4285714285714,4,2,1,90,0,0
229011,-71.4285714285714,4,2,1,80,0,0
229172,-71.4285714285714,4,2,1,90,0,0
229495,-200,4,2,1,90,0,0
229736,-200,4,2,1,80,0,0
229817,-71.4285714285714,4,2,1,90,0,0
232316,-71.4285714285714,4,2,1,80,0,0
232398,-71.4285714285714,4,2,1,90,0,0
233205,-71.4285714285714,4,2,1,80,0,0
233366,-166.666666666667,4,2,1,90,0,0
233607,-166.666666666667,4,2,1,80,0,0
233688,-181.818181818182,4,2,1,90,0,0
233929,-181.818181818182,4,2,1,80,0,0
234011,-200,4,2,1,90,0,0
234252,-200,4,2,1,80,0,0
234334,-222.222222222222,4,2,1,90,0,0
234575,-222.222222222222,4,2,1,80,0,0
234656,-83.3333333333333,4,2,1,90,0,0
234817,-83.3333333333333,4,2,1,80,0,0
234979,-83.3333333333333,4,2,1,90,0,0
237237,-76.9230769230769,4,2,1,90,0,0
239495,-66.6666666666667,4,2,1,90,0,0
239736,-66.6666666666667,4,2,1,80,0,0
239817,-83.3333333333333,4,2,1,80,0,0

[Colours]
Combo1 : 192,192,192
Combo2 : 255,128,64
Combo3 : 0,159,236

[HitObjects]
332,78,32075,6,0,P|351:118|364:159,1,87,6|0,3:2|3:2,0:0:0:0:
450,284,32398,2,0,P|436:325|418:364,1,87,8|0,0:2|3:2,0:0:0:0:
345,244,32721,1,8,0:2:0:0:
444,86,32882,1,0,3:2:0:0:
440,204,33043,5,12,0:2:0:0:
232,239,33205,2,0,P|168:226|107:202,1,130.5,12|0,0:2|0:0,0:0:0:0:
101,181,33527,5,12,0:2:0:0:
272,325,33688,1,12,0:2:0:0:
397,124,33850,2,0,P|351:120|325:137,1,43.5,2|2,3:2|3:2,0:0:0:0:
290,167,34011,1,8,0:2:0:0:
432,239,34172,1,2,3:2:0:0:
432,225,34253,1,2,3:2:0:0:
436,212,34334,1,8,0:2:0:0:
365,384,34495,2,0,P|345:342|317:328,1,43.5,2|2,3:2|3:2,0:0:0:0:
506,295,34656,6,0,P|474:322|432:320,1,87,6|0,3:2|3:2,0:0:0:0:
215,192,34979,2,0,P|246:164|289:166,1,87,8|0,0:2|3:2,0:0:0:0:
152,339,35301,1,8,0:2:0:0:
231,375,35463,1,0,3:2:0:0:
344,238,35624,5,12,0:2:0:0:
205,83,35785,2,0,P|141:75|78:59,1,130.5,12|0,0:2|0:0,0:0:0:0:
73,46,36108,5,12,0:2:0:0:
0,182,36269,1,12,0:2:0:0:
105,313,36430,2,0,P|124:321|146:322,2,43.5,2|2|8,3:2|3:2|0:2,0:0:0:0:
108,168,36753,1,2,3:2:0:0:
108,154,36834,1,2,3:2:0:0:
104,141,36915,1,8,0:2:0:0:
0,272,37075,2,0,P|19:263|41:262,1,43.5,2|2,3:2|3:2,0:0:0:0:
200,255,37237,6,0,L|205:168,1,87,8|0,0:2|3:2,0:0:0:0:
265,105,37559,1,8,0:2:0:0:
341,147,37721,1,0,3:2:0:0:
467,107,37882,2,0,L|472:20,1,87,8|0,0:2|3:2,0:0:0:0:
512,171,38205,5,12,0:2:0:0:
348,227,38366,2,0,P|413:235|476:251,1,130.5,12|0,0:2|0:0,0:0:0:0:
481,264,38688,5,12,0:2:0:0:
255,232,38850,1,12,0:2:0:0:
355,136,39011,1,2,3:2:0:0:
356,122,39092,1,2,3:2:0:0:
360,109,39173,1,8,0:2:0:0:
209,11,39334,2,0,L|211:54,1,43.5,2|2,3:2|3:2,0:0:0:0:
263,113,39495,1,8,0:2:0:0:
88,205,39656,1,2,3:2:0:0:
99,210,39737,1,2,3:2:0:0:
111,210,39817,6,0,P|113:167|85:135,1,87,8|0,0:2|3:2,0:0:0:0:
0,286,40140,1,8,0:2:0:0:
174,339,40301,1,0,3:2:0:0:
278,222,40462,2,0,P|239:240|198:253,1,87,8|0,0:2|3:2,0:0:0:0:
421,150,40785,5,12,0:2:0:0:
285,8,40946,2,0,P|293:73|309:136,1,130.5,12|2,0:2|3:2,0:0:0:0:
320,142,41269,6,0,P|337:128|349:111,1,43.5,14|0,0:2|0:0,0:0:0:0:
212,160,41430,2,0,B|281:158|321:213|321:213|299:213|278:221,1,169.64999223404,14|0,0:2|3:2,0:0:0:0:
198,253,41753,5,10,0:2:0:0:
241,258,41833,1,8,0:2:0:0:
284,263,41914,1,8,0:2:0:0:
327,268,41994,1,8,0:2:0:0:
302,304,42075,5,2,3:0:0:0:
280,307,42155,1,2,3:0:0:0:
259,309,42236,1,2,3:0:0:0:
237,312,42316,1,2,3:0:0:0:
216,314,42398,6,0,P|171:277|113:271,1,117.449996415711,6|0,3:2|0:0,0:0:0:0:
61,325,42721,2,0,P|87:346|121:349,1,69.6,8|0,0:2|0:0,0:0:0:0:
0,217,43043,1,2,3:2:0:0:
59,157,43205,1,0,3:2:0:0:
6,48,43366,2,0,L|87:58,1,69.6,8|0,0:2|0:0,0:0:0:0:
265,50,43688,6,0,B|207:43|214:89|156:84,1,117.449996415711,2|0,3:2|0:0,0:0:0:0:
141,158,44011,2,0,L|222:168,1,69.6,8|0,0:2|0:0,0:0:0:0:
255,237,44334,1,2,3:2:0:0:
200,300,44495,1,0,3:2:0:0:
323,370,44656,2,0,L|254:362,1,69.6,8|0,0:2|0:0,0:0:0:0:
429,331,44979,6,0,P|374:316|354:263,1,117.449996415711,2|0,3:2|0:0,0:0:0:0:
466,257,45301,2,0,P|461:294|429:316,1,78.2999976104737,8|0,0:2|0:0,0:0:0:0:
386,173,45624,2,0,L|377:103,1,69.6,0|2,3:2|3:2,0:0:0:0:
433,42,45946,1,10,0:2:0:0:
499,92,46108,1,2,0:0:0:0:
278,39,46269,6,0,B|203:10|203:10|166:17,1,117.449996415711,2|0,3:2|0:0,0:0:0:0:
132,84,46592,1,8,0:2:0:0:
58,44,46753,1,0,0:0:0:0:
3,207,46914,6,0,P|47:170|105:164,1,117.449996415711,2|0,3:2|0:0,0:0:0:0:
164,213,47237,2,0,P|137:234|103:237,1,69.6,10|0,0:2|0:2,0:0:0:0:
226,313,47559,6,0,L|342:327,1,117.449996415711,6|0,3:2|0:0,0:0:0:0:
385,266,47882,2,0,L|454:257,1,69.6,8|2,0:2|0:0,0:0:0:0:
505,323,48205,1,2,3:2:0:0:
445,381,48366,1,0,3:2:0:0:
380,254,48527,2,0,P|384:216|416:194,1,69.6,8|0,0:2|0:0,0:0:0:0:
496,106,48850,6,0,B|438:112|445:66|387:71,1,117.449996415711,2|0,3:2|0:0,0:0:0:0:
328,24,49173,2,0,P|296:45|291:83,1,69.6,8|0,0:2|0:0,0:0:0:0:
186,11,49495,1,2,3:2:0:0:
114,53,49656,1,0,3:2:0:0:
0,10,49817,2,0,L|8:79,1,69.6,10|0,0:2|0:0,0:0:0:0:
145,177,50140,6,0,P|104:137|48:146,1,117.449996415711,2|0,3:2|0:0,0:0:0:0:
81,233,50462,2,0,P|117:222|133:187,1,78.2999976104737,8|2,0:2|0:0,0:0:0:0:
192,282,50785,1,0,3:2:0:0:
204,364,50946,1,0,3:2:0:0:
307,242,51108,1,10,0:2:0:0:
297,325,51269,1,0,0:0:0:0:
233,193,51430,6,0,P|239:174|252:159,1,39.1499988052369,2|2,3:2|0:2,0:0:0:0:
318,113,51592,2,0,P|337:108|356:111,1,39.1499988052369,2|0,0:2|0:0,0:0:0:0:
429,145,51753,1,0,3:2:0:0:
490,334,51914,5,8,0:2:0:0:
419,378,52075,2,0,L|349:369,1,69.6,2|0,3:2|0:0,0:0:0:0:
299,293,52398,1,2,3:2:0:0:
145,355,52559,1,8,0:2:0:0:
88,291,52721,6,0,P|77:225|86:160,1,130.5,6|0,3:2|0:0,0:0:0:0:
78,67,53043,2,0,L|-7:81,1,78.2999976104737,8|0,0:2|0:0,0:0:0:0:
175,7,53366,1,2,3:2:0:0:
175,7,53527,1,0,3:2:0:0:
163,149,53688,2,0,L|85:161,1,78.2999976104737,8|0,0:2|0:0,0:0:0:0:
255,202,54011,6,0,P|280:139|253:81,1,130.5,2|0,3:2|0:0,0:0:0:0:
300,10,54334,2,0,P|337:18|376:26,1,78.2999976104737,8|0,0:2|0:0,0:0:0:0:
410,244,54657,1,2,3:2:0:0:
482,181,54818,1,0,3:2:0:0:
357,109,54979,2,0,P|328:146|331:184,1,78.2999976104737,8|0,0:2|0:0,0:0:0:0:
405,338,55302,6,0,P|338:343|275:360,1,130.5,2|0,3:2|0:0,0:0:0:0:
189,351,55624,2,0,P|194:312|226:292,1,78.2999976104737,8|0,0:2|0:0,0:0:0:0:
77,319,55947,2,0,L|-1:305,1,78.2999976104737,0|2,3:2|3:2,0:0:0:0:
106,163,56269,1,10,0:2:0:0:
152,236,56431,1,2,0:0:0:0:
276,32,56592,6,0,P|217:27|196:93,1,130.5,2|0,3:2|0:0,0:0:0:0:
276,32,56915,1,8,0:2:0:0:
323,104,57076,1,0,0:0:0:0:
477,8,57237,6,0,P|465:72|455:136,1,130.5,2|0,3:2|0:0,0:0:0:0:
487,209,57559,1,10,0:2:0:0:
342,356,57721,5,2,0:2:0:0:
342,356,57801,1,2,0:2:0:0:
342,356,57882,2,0,P|370:300|432:294,1,130.5,2|0,3:2|0:0,0:0:0:0:
510,331,58205,2,0,P|491:364|454:371,1,78.2999976104737,8|0,0:2|0:0,0:0:0:0:
346,215,58528,1,2,3:2:0:0:
346,215,58689,1,0,3:2:0:0:
420,154,58850,2,0,L|436:66,1,78.2999976104737,8|2,0:2|0:0,0:0:0:0:
247,150,59173,6,0,B|180:146|193:195|118:184,1,130.5,2|0,3:2|0:0,0:0:0:0:
52,132,59496,2,0,P|45:93|37:55,1,78.2999976104737,8|2,0:2|0:0,0:0:0:0:
181,5,59818,1,2,3:2:0:0:
236,65,59979,1,2,3:2:0:0:
380,18,60140,2,0,P|417:24|456:31,1,78.2999976104737,10|0,0:2|0:0,0:0:0:0:
306,162,60463,6,0,P|372:174|440:186,1,130.5,2|0,3:2|0:0,0:0:0:0:
496,239,60785,2,0,P|512:210|508:159,1,78.2999976104737,8|2,0:2|0:0,0:0:0:0:
260,261,61108,5,2,3:2:0:0:
381,175,61270,1,0,3:2:0:0:
296,53,61431,1,14,0:2:0:0:
174,139,61592,1,0,0:0:0:0:
228,194,61753,5,8,0:2:0:0:
123,48,61914,1,8,0:2:0:0:
123,48,61995,1,8,0:2:0:0:
123,48,62076,1,8,0:2:0:0:
46,129,62237,1,8,0:2:0:0:
286,20,62398,5,2,3:0:0:0:
329,15,62479,1,2,3:0:0:0:
366,45,62559,1,2,3:0:0:0:
386,79,62640,1,2,3:0:0:0:
420,91,62721,1,2,3:0:0:0:
449,83,62801,1,2,3:0:0:0:
452,61,62882,1,2,3:0:0:0:
435,56,62963,1,2,3:0:0:0:
424,60,63043,2,0,L|338:76,1,78.2999976104737,6|0,3:2|3:2,0:0:0:0:
279,214,63366,5,8,0:2:0:0:
202,151,63527,1,0,3:2:0:0:
202,151,63608,1,0,3:2:0:0:
202,151,63688,1,2,3:2:0:0:
351,258,63850,2,0,P|362:217|352:165,1,78.2999976104737,2|8,3:2|0:2,0:0:0:0:
179,384,64172,2,0,P|172:306|193:231,1,156.599995220947,2|2,0:0|3:2,0:0:0:0:
270,290,64656,1,8,0:2:0:0:
358,247,64817,5,2,3:2:0:0:
358,247,64898,1,0,3:2:0:0:
358,247,64979,1,0,3:2:0:0:
334,86,65140,1,2,3:2:0:0:
396,153,65301,1,10,0:2:0:0:
250,24,65624,6,0,L|238:115,1,78.2999976104737,6|0,3:2|3:2,0:0:0:0:
425,0,65946,2,0,L|413:91,1,78.2999976104737,8|0,0:2|3:2,0:0:0:0:
414,77,66188,1,0,3:2:0:0:
414,77,66269,1,0,3:2:0:0:
466,164,66430,1,0,3:2:0:0:
333,232,66592,1,8,0:2:0:0:
502,355,66753,6,0,P|453:298|376:306,1,156.599995220947,2|0,0:2|3:2,0:0:0:0:
291,367,67237,1,10,0:2:0:0:
194,264,67398,1,2,3:2:0:0:
194,264,67479,1,0,3:2:0:0:
194,264,67559,2,0,L|116:275,1,78.2999976104737,0|0,3:2|3:2,0:0:0:0:
3,130,67882,5,8,0:2:0:0:
34,94,67963,1,8,0:2:0:0:
80,99,68043,1,8,0:2:0:0:
118,126,68124,1,8,0:2:0:0:
120,173,68205,1,6,3:2:0:0:
21,282,68366,1,0,3:2:0:0:
194,264,68527,6,0,L|209:181,1,78.2999976104737,8|2,0:2|3:2,0:0:0:0:
207,186,68769,1,0,3:2:0:0:
207,186,68850,1,2,3:2:0:0:
294,258,69011,1,2,3:2:0:0:
423,194,69172,1,8,0:2:0:0:
317,33,69334,6,0,P|293:63|302:101,1,78.2999976104737,2|0,0:2|3:2,0:0:0:0:
407,262,69656,2,0,P|430:231|421:193,1,78.2999976104737,2|8,3:2|0:0,0:0:0:0:
278,273,69979,1,2,3:2:0:0:
266,273,70059,1,0,3:0:0:0:
254,275,70140,1,0,3:0:0:0:
170,353,70301,1,2,3:2:0:0:
72,211,70463,1,10,0:2:0:0:
192,53,70705,5,0,3:0:0:0:
192,53,70785,2,0,B|239:34|292:51|303:93|303:93|274:82|270:58,1,174,6|10,3:2|0:2,0:0:0:0:
396,17,71269,1,2,3:2:0:0:
396,17,71350,1,0,3:2:0:0:
396,17,71430,2,0,P|437:11|469:39,1,87,0|0,3:2|3:2,0:0:0:0:
376,215,71753,1,10,0:2:0:0:
449,269,71914,1,2,3:2:0:0:
257,186,72075,6,0,P|208:199|157:206,1,87,0|0,3:2|3:2,0:0:0:0:
16,370,72398,2,0,P|65:357|116:350,1,87,8|0,0:2|3:2,0:0:0:0:
264,372,72721,5,8,0:2:0:0:
283,323,72801,1,8,0:2:0:0:
252,280,72882,1,0,3:2:0:0:
91,121,73043,2,0,P|39:175|62:246,1,156.599995220947,8|0,0:2|0:0,0:0:0:0:
149,281,73366,5,14,0:2:0:0:
211,85,73527,1,0,3:2:0:0:
300,173,73688,1,0,3:2:0:0:
114,29,73850,5,10,0:2:0:0:
231,237,74011,1,0,3:2:0:0:
385,131,74172,1,2,3:2:0:0:
309,74,74334,5,10,0:2:0:0:
458,358,74495,1,10,0:2:0:0:
369,320,74656,2,0,L|381:269,1,52.1999984069825,0|0,3:2|3:2,0:0:0:0:
243,363,74817,5,8,0:2:0:0:
235,105,74979,2,0,B|249:155|308:159|308:159|342:125|391:132,1,182.699994424439,10|0,0:2|0:0,0:0:0:0:
466,161,75301,5,10,0:2:0:0:
478,157,75382,1,8,0:2:0:0:
489,141,75463,1,10,0:2:0:0:
495,115,75543,1,8,0:2:0:0:
480,78,75624,1,8,0:2:0:0:
434,54,75705,1,8,0:2:0:0:
374,69,75785,1,8,0:2:0:0:
342,135,75866,1,8,0:2:0:0:
384,212,75946,6,0,P|376:298|297:334,1,182.699994424439,6|0,3:2|0:0,0:0:0:0:
227,307,76269,1,8,0:2:0:0:
15,353,76430,2,0,L|116:365,1,60.8999981414796,0|8,0:0|0:2,0:0:0:0:
148,372,76592,2,0,P|150:318|99:273,1,121.799996282959,0|0,3:2|3:2,0:0:0:0:
220,64,76914,1,8,0:2:0:0:
126,124,77075,1,0,0:0:0:0:
283,195,77237,6,0,L|403:180,1,121.799996282959,2|0,3:2|3:2,0:0:0:0:
292,320,77559,2,0,L|171:334,1,121.799996282959,10|0,0:2|0:0,0:0:0:0:
110,374,77801,1,8,0:2:0:0:
109,374,77882,2,0,P|66:296|89:210,1,182.699994424439,2|0,3:2|0:0,0:0:0:0:
159,185,78205,2,0,P|177:210|181:247,1,65.2500024890901,14|0,0:2|0:0,0:0:0:0:
0,150,78366,1,8,0:2:0:0:
0,150,78446,1,8,0:2:0:0:
0,149,78527,6,0,P|119:160|225:104,1,243.599992565918,6|8,3:2|0:2,0:0:0:0:
182,36,79011,1,0,0:0:0:0:
368,142,79172,2,0,P|314:140|269:191,1,121.799996282959,2|0,3:2|3:2,0:0:0:0:
426,15,79495,1,8,0:2:0:0:
493,84,79656,1,0,0:0:0:0:
493,84,79737,1,8,0:0:0:0:
493,84,79817,6,0,P|473:141|468:202,1,121.799996282959,2|0,3:2|3:2,0:0:0:0:
511,363,80140,2,0,P|457:365|411:242,1,182.699994424439,10|0,0:2|0:0,0:0:0:0:
426,281,80463,5,8,0:0:0:0:
380,320,80543,1,8,0:0:0:0:
325,323,80624,1,8,0:0:0:0:
279,307,80704,1,8,0:0:0:0:
269,277,80785,5,2,3:0:0:0:
247,265,80866,1,2,3:0:0:0:
228,263,80946,1,2,3:0:0:0:
216,267,81027,1,2,3:0:0:0:
194,310,81108,6,0,L|216:128,1,182.699994424439,6|0,3:2|0:0,0:0:0:0:
170,71,81430,1,10,0:2:0:0:
357,0,81592,2,0,L|369:101,1,60.8999981414796,2|8,0:2|0:2,0:0:0:0:
297,104,81754,2,0,P|351:102|396:153,1,121.799996282959,6|0,3:2|3:2,0:0:0:0:
495,295,82075,1,10,0:2:0:0:
416,344,82237,1,0,0:0:0:0:
416,344,82317,1,8,0:2:0:0:
416,344,82398,6,0,L|295:328,1,121.799996282959,2|0,3:2|3:2,0:0:0:0:
358,214,82721,1,10,0:2:0:0:
173,363,82882,1,0,0:0:0:0:
173,363,82963,1,8,0:2:0:0:
172,363,83043,2,0,P|158:276|76:245,1,182.699994424439,2|0,3:2|0:0,0:0:0:0:
34,308,83366,2,0,L|42:373,1,65.2500024890901,10|0,0:2|0:0,0:0:0:0:
19,133,83527,1,8,0:2:0:0:
19,133,83608,1,8,0:2:0:0:
19,133,83688,6,0,L|139:117,1,121.799996282959,6|0,3:2|3:2,0:0:0:0:
179,49,84011,1,8,0:2:0:0:
335,229,84172,1,2,0:2:0:0:
335,229,84253,1,8,0:2:0:0:
335,229,84334,2,0,P|278:123|289:3,1,243.599992565918,2|8,3:2|0:2,0:0:0:0:
433,196,84818,1,2,0:2:0:0:
433,196,84899,1,8,0:2:0:0:
433,196,84979,6,0,L|417:316,1,121.799996282959,2|0,3:2|3:0,0:0:0:0:
477,114,85301,2,0,P|392:161|296:155,1,195.75000746727,14|0,0:0|0:0,0:0:0:0:
305,185,85624,5,8,0:0:0:0:
321,132,85705,1,8,0:0:0:0:
309,84,85785,1,8,0:0:0:0:
275,57,85866,1,8,0:0:0:0:
249,72,85946,5,8,0:0:0:0:
239,94,86027,1,8,0:0:0:0:
227,108,86108,1,8,0:0:0:0:
217,115,86188,1,8,0:0:0:0:
178,85,86269,6,0,P|198:142|203:202,1,121.799996282959,6|0,3:2|3:2,0:0:0:0:
298,297,86592,2,0,P|225:245|139:264,1,182.699994424439,8|8,0:2|0:2,0:0:0:0:
96,324,86914,2,0,L|80:203,1,121.799996282959,0|0,3:2|3:2,0:0:0:0:
275,57,87237,1,8,0:2:0:0:
140,0,87398,1,2,0:0:0:0:
19,75,87559,6,0,P|84:122|146:91,1,121.799996282959,2|0,3:2|3:2,0:0:0:0:
281,235,87882,1,10,0:2:0:0:
351,191,88043,1,2,0:0:0:0:
351,191,88124,1,8,0:2:0:0:
351,191,88205,2,0,P|371:105|452:71,1,182.699994424439,2|0,3:2|0:0,0:0:0:0:
496,135,88527,2,0,P|497:168|510:198,1,65.2500024890901,14|0,0:2|0:0,0:0:0:0:
445,378,88688,1,8,0:2:0:0:
445,378,88769,1,8,0:2:0:0:
445,378,88850,6,0,L|429:257,1,121.799996282959,6|0,3:2|3:2,0:0:0:0:
331,351,89172,1,8,0:2:0:0:
182,295,89334,2,0,L|81:283,1,60.8999981414796,0|8,0:0|0:2,0:0:0:0:
47,268,89494,2,0,P|91:306|91:365,1,121.799996282959,0|0,3:2|3:2,0:0:0:0:
210,138,89817,1,8,0:2:0:0:
145,61,89979,1,2,0:0:0:0:
145,61,90060,1,8,0:0:0:0:
145,61,90140,6,0,P|88:81|27:86,1,121.799996282959,2|0,3:2|3:2,0:0:0:0:
206,218,90463,2,0,L|326:202,1,121.799996282959,10|0,0:2|0:0,0:0:0:0:
376,149,90705,1,8,0:0:0:0:
376,149,90785,1,0,3:0:0:0:
335,70,90946,1,0,3:0:0:0:
337,321,91108,5,14,3:0:0:0:
294,345,91188,1,8,3:0:0:0:
239,337,91269,1,8,3:0:0:0:
206,286,91350,1,8,3:0:0:0:
226,223,91430,2,0,P|146:265|56:257,1,182.699994424439,6|0,3:2|0:0,0:0:0:0:
75,281,91753,5,10,0:0:0:0:
80,232,91833,1,8,0:0:0:0:
87,176,91914,1,8,0:0:0:0:
95,116,91994,1,8,0:0:0:0:
103,47,92075,2,0,P|142:125|229:126,1,182.699994424439,14|0,0:0|0:0,0:0:0:0:
243,98,92398,5,10,0:0:0:0:
277,63,92479,1,8,0:0:0:0:
329,50,92559,1,8,0:0:0:0:
387,66,92640,1,8,0:0:0:0:
423,120,92721,6,0,L|401:302,1,182.699994424439,14|0,0:0|0:0,0:0:0:0:
425,320,93043,5,10,0:0:0:0:
376,325,93123,1,8,0:0:0:0:
320,332,93204,1,8,0:0:0:0:
260,340,93284,1,8,0:0:0:0:
190,348,93366,6,0,P|209:323|216:294,1,60.8999981414796,6|4,3:0|3:0,0:0:0:0:
243,128,93527,2,0,P|261:152|268:181,1,60.8999981414796,4|4,3:0|3:0,0:0:0:0:
183,339,93688,2,0,P|186:309|178:279,1,60.8999981414796,6|4,3:0|3:0,0:0:0:0:
120,163,93850,2,0,P|147:174|169:196,1,60.8999981414796,4|4,3:0|3:0,0:0:0:0:
101,360,94011,5,6,3:2:0:0:
156,57,94172,1,0,3:0:0:0:
247,117,94334,2,0,P|304:97|365:92,1,121.799996282959,8|8,0:0|0:0,0:0:0:0:
512,259,94656,2,0,L|330:237,1,182.699994424439,0|0,3:0|0:0,0:0:0:0:
267,313,94979,2,0,L|85:291,1,182.699994424439,8|0,0:0|0:0,0:0:0:0:
42,231,95301,5,10,0:0:0:0:
119,0,95463,2,0,L|126:60,1,60.8999981414796,8|8,0:0|0:0,0:0:0:0:
140,207,95624,5,10,0:0:0:0:
183,148,95704,1,8,0:0:0:0:
244,147,95785,1,8,0:0:0:0:
283,174,95865,1,8,0:0:0:0:
296,207,95946,2,0,P|284:235|262:256,1,60.8999981414796,2|2,3:0|3:0,0:0:0:0:
187,269,96108,5,2,3:0:0:0:
355,336,96269,1,2,3:0:0:0:
486,234,96430,1,2,3:0:0:0:
486,234,96511,1,2,3:0:0:0:
486,234,96592,5,6,3:2:0:0:
449,348,96753,1,0,3:2:0:0:
338,193,96914,2,0,L|354:95,1,87,8|0,0:2|3:2,0:0:0:0:
173,255,97237,2,0,L|189:157,1,87,8|0,0:2|3:2,0:0:0:0:
301,290,97559,5,12,0:2:0:0:
130,87,97721,2,0,P|65:92|36:148,1,130.5,12|0,0:2|0:0,0:0:0:0:
42,156,98043,5,12,0:2:0:0:
238,0,98205,1,12,0:2:0:0:
272,97,98366,2,0,L|263:140,2,43.5,2|2|8,3:2|3:2|0:2,0:0:0:0:
456,27,98688,1,2,3:2:0:0:
445,21,98769,1,2,3:2:0:0:
433,22,98850,1,8,0:2:0:0:
475,165,99011,1,2,3:2:0:0:
464,171,99092,1,2,3:2:0:0:
451,172,99172,6,0,P|407:161|362:155,1,87,6|0,3:2|3:2,0:0:0:0:
254,355,99495,1,8,0:2:0:0:
331,267,99656,1,0,3:2:0:0:
179,84,99817,2,0,P|155:121|162:165,1,87,8|0,0:2|3:2,0:0:0:0:
214,233,100059,1,0,3:0:0:0:
214,233,100140,1,12,0:2:0:0:
42,362,100301,2,0,B|119:366|91:324|189:317,1,130.5,12|0,0:2|0:0,0:0:0:0:
178,328,100624,5,12,0:2:0:0:
15,218,100785,1,12,0:2:0:0:
146,127,100946,2,0,L|133:180,1,43.5,2|2,3:2|3:2,0:0:0:0:
93,355,101108,1,8,0:2:0:0:
239,145,101269,1,2,3:2:0:0:
237,157,101350,1,2,3:2:0:0:
233,170,101430,1,8,0:2:0:0:
53,93,101592,2,0,L|63:50,1,43.5,2|2,3:2|3:2,0:0:0:0:
166,6,101753,6,0,P|183:45|170:85,1,87,8|0,0:2|3:2,0:0:0:0:
113,246,102075,2,0,P|69:235|18:228,1,87,8|0,0:2|3:2,0:0:0:0:
191,347,102398,2,0,P|233:356|276:363,1,87,8|0,0:2|3:2,0:0:0:0:
411,330,102721,5,12,0:2:0:0:
307,119,102882,2,0,P|278:179|282:247,1,130.5,12|0,0:2|0:0,0:0:0:0:
292,249,103205,5,12,0:2:0:0:
164,120,103366,2,0,L|64:103,1,87,12|2,0:2|3:2,0:0:0:0:
24,34,103608,1,2,3:2:0:0:
24,34,103688,1,8,0:2:0:0:
95,208,103850,1,2,3:2:0:0:
93,220,103930,1,2,3:2:0:0:
91,231,104011,1,8,0:2:0:0:
237,60,104172,1,2,3:2:0:0:
239,49,104253,1,2,3:2:0:0:
241,37,104333,5,8,0:2:0:0:
321,105,104495,1,0,3:2:0:0:
444,22,104656,1,8,0:2:0:0:
366,216,104817,1,0,3:2:0:0:
485,292,104979,1,8,0:2:0:0:
447,116,105140,2,0,L|432:184,1,43.5,0|0,3:2|0:0,0:0:0:0:
297,322,105301,2,0,L|169:299,1,130.5,12|0,0:2|0:0,0:0:0:0:
77,311,105624,5,0,3:2:0:0:
65,304,105705,1,0,3:2:0:0:
54,284,105785,1,0,3:2:0:0:
49,262,105866,1,0,3:2:0:0:
49,236,105946,1,10,0:2:0:0:
64,213,106027,1,8,0:0:0:0:
96,205,106108,1,0,3:2:0:0:
135,211,106188,1,0,3:2:0:0:
148,221,106269,5,2,3:2:0:0:
182,225,106350,1,2,3:2:0:0:
220,192,106430,1,2,3:2:0:0:
211,146,106511,1,2,3:2:0:0:
197,147,106592,5,8,0:0:0:0:
185,140,106672,1,8,0:0:0:0:
177,129,106753,1,8,0:0:0:0:
176,118,106834,1,8,0:0:0:0:
181,110,106914,6,0,L|198:26,1,78.2999976104737,6|0,3:2|0:0,0:0:0:0:
316,97,107237,2,0,L|333:13,1,78.2999976104737,8|0,0:2|0:0,0:0:0:0:
490,171,107559,2,0,P|425:167|377:256,1,156.599995220947,2|8,3:2|0:2,0:0:0:0:
422,347,108043,5,2,0:0:0:0:
422,347,108124,1,2,0:0:0:0:
422,347,108205,2,0,L|330:336,1,78.2999976104737,2|0,3:2|0:0,0:0:0:0:
195,222,108527,2,0,L|272:231,1,78.2999976104737,8|0,0:2|0:0,0:0:0:0:
143,350,108850,1,2,3:2:0:0:
196,72,109172,1,4,0:0:0:0:
62,174,109495,6,0,P|44:209|53:256,1,78.2999976104737,2|0,3:2|0:0,0:0:0:0:
54,253,109737,1,0,0:0:0:0:
54,253,109817,2,0,L|146:251,1,78.2999976104737,8|0,0:2|0:0,0:0:0:0:
118,74,110140,2,0,L|210:72,1,78.2999976104737,0|2,3:2|0:0,0:0:0:0:
292,26,110463,1,10,0:2:0:0:
413,176,110624,6,0,P|433:110|422:18,1,156.599995220947,2|0,0:0|0:0,0:0:0:0:
300,123,111108,2,0,P|290:156|295:202,1,78.2999976104737,8|0,0:2|0:0,0:0:0:0:
466,340,111430,1,6,3:2:0:0:
294,199,111753,1,6,3:2:0:0:
466,340,112075,6,0,P|417:348|380:361,1,78.2999976104737,6|0,3:2|0:0,0:0:0:0:
205,304,112398,2,0,P|254:296|291:283,1,78.2999976104737,8|0,0:2|0:0,0:0:0:0:
378,200,112721,2,0,P|362:102|336:28,1,156.599995220947,2|8,3:2|0:2,0:0:0:0:
257,122,113205,1,0,0:0:0:0:
257,122,113366,1,2,3:2:0:0:
123,34,113527,6,0,L|42:47,1,78.2999976104737,0|8,0:0|0:2,0:0:0:0:
175,152,113850,1,0,0:0:0:0:
175,152,114011,2,0,L|13:178,1,156.599995220947,2|6,3:2|0:0,0:0:0:0:
234,372,114656,6,0,P|250:336|250:296,1,78.2999976104737,2|0,3:2|0:0,0:0:0:0:
144,317,114979,1,10,0:2:0:0:
38,361,115140,2,0,P|37:283|68:211,1,156.599995220947,2|0,0:0|0:0,0:0:0:0:
218,78,115624,5,8,0:2:0:0:
10,112,115785,1,8,0:2:0:0:
203,213,116108,5,2,0:0:0:0:
203,213,116188,1,2,0:0:0:0:
203,213,116269,1,2,0:0:0:0:
278,227,116430,1,2,0:0:0:0:
355,236,116592,2,0,L|418:243,1,60.9,2|0,0:0|0:0,0:0:0:0:
425,251,117237,6,0,P|420:316|364:345,1,130.5,6|0,3:2|0:0,0:0:0:0:
356,339,117559,1,8,0:2:0:0:
512,143,117721,1,0,0:0:0:0:
415,109,117882,2,0,L|372:118,2,43.5,2|0|0,3:2|0:0|0:0,0:0:0:0:
353,6,118205,1,8,0:2:0:0:
293,59,118366,1,0,0:0:0:0:
159,22,118527,6,0,P|117:9|74:3,1,87,2|0,3:2|0:0,0:0:0:0:
214,87,118850,2,0,P|190:124|197:168,1,87,8|2,0:2|0:0,0:0:0:0:
249,236,119092,1,0,0:0:0:0:
249,236,119173,1,2,3:2:0:0:
77,365,119334,2,0,B|154:369|126:327|224:320,1,130.5
215,334,119656,1,0,0:0:0:0:
84,169,119817,6,0,P|67:228|115:268,1,130.5,6|0,3:2|0:0,0:0:0:0:
84,168,120140,1,8,0:2:0:0:
264,70,120301,1,0,0:0:0:0:
331,147,120463,2,0,L|322:190,2,43.5,0|0|0,3:2|0:0|0:0,0:0:0:0:
164,63,120785,2,0,L|179:153,1,87,10|2,0:2|0:0,0:0:0:0:
303,307,121108,6,0,P|219:332|133:344,1,174,2|8,3:2|0:2,0:0:0:0:
264,240,121592,1,0,0:0:0:0:
322,189,121753,2,0,P|363:176|406:170,1,87,2|0,3:2|0:0,0:0:0:0:
487,304,122075,2,0,P|426:311|399:256,1,130.5,10|0,0:2|0:0,0:0:0:0:
454,73,122398,6,0,P|387:68|324:51,1,130.5,6|0,3:2|0:0,0:0:0:0:
238,59,122720,2,0,P|244:101|281:121,1,87,8|2,0:2|0:0,0:0:0:0:
94,28,123043,1,2,3:2:0:0:
94,28,123124,1,0,0:0:0:0:
94,28,123205,1,0,0:0:0:0:
40,101,123366,2,0,L|55:191,1,87,8|2,0:2|0:0,0:0:0:0:
286,281,123689,5,2,3:2:0:0:
198,204,123850,1,0,0:0:0:0:
15,356,124011,2,0,P|52:380|96:373,1,87,8|2,0:2|0:0,0:0:0:0:
164,321,124253,1,0,0:0:0:0:
164,321,124334,2,0,L|173:278,2,43.5,2|0|2,3:2|0:0|0:0,0:0:0:0:
325,384,124656,2,0,B|329:307|287:335|280:237,1,130.5,10|0,0:2|0:0,0:0:0:0:
294,246,124978,5,6,3:2:0:0:
143,121,125140,1,0,0:0:0:0:
282,0,125301,1,10,0:2:0:0:
295,86,125463,6,0,P|263:31|201:28,1,130.5,14|0,0:2|0:0,0:0:0:0:
195,35,125785,1,0,0:0:0:0:
394,178,125946,6,0,P|401:126|419:77,1,104.399996813965,10|2,0:2|0:0,0:0:0:0:
333,272,126269,6,0,P|367:331|436:335,1,143.550004380798,14|0,0:2|0:0,0:0:0:0:
333,272,126592,5,10,0:2:0:0:
275,238,126672,1,8,0:2:0:0:
212,239,126753,1,8,0:2:0:0:
164,271,126834,1,8,0:2:0:0:
161,323,126914,5,2,3:0:0:0:
196,355,126995,1,2,3:0:0:0:
238,349,127075,1,2,3:0:0:0:
248,311,127156,1,2,3:0:0:0:
224,286,127237,5,2,3:0:0:0:
195,286,127317,1,2,3:0:0:0:
174,298,127398,1,2,3:0:0:0:
154,299,127479,1,2,3:0:0:0:
140,293,127559,5,6,3:2:0:0:
47,318,127721,1,2,3:2:0:0:
71,224,127882,1,10,0:2:0:0:
30,92,128124,5,0,3:0:0:0:
30,92,128205,1,2,3:2:0:0:
115,134,128366,1,2,3:2:0:0:
194,82,128527,1,8,0:2:0:0:
328,202,128769,5,0,3:2:0:0:
328,202,128850,1,2,3:2:0:0:
315,107,129011,1,2,3:2:0:0:
302,12,129172,1,8,0:2:0:0:
413,298,129334,6,0,L|499:306,1,87,6|0,3:2|0:0,0:0:0:0:
499,306,129656,5,2,3:2:0:0:
441,166,129817,2,0,L|445:213,1,47.8500014602662,10|0,0:2|0:0,0:0:0:0:
333,337,129979,2,0,L|328:289,1,47.8500014602662,2|0,0:0|3:2,0:0:0:0:
257,246,130140,5,6,3:2:0:0:
220,334,130301,1,2,3:2:0:0:
162,257,130463,1,8,0:2:0:0:
280,96,130705,5,0,3:0:0:0:
280,96,130786,1,2,3:2:0:0:
365,54,130947,1,2,3:2:0:0:
444,106,131108,1,8,0:2:0:0:
324,187,131350,5,0,3:2:0:0:
324,187,131431,1,2,3:2:0:0:
229,174,131592,1,0,3:2:0:0:
134,161,131753,1,10,0:2:0:0:
413,298,131914,6,0,L|499:290,1,87,2|0,3:2|0:0,0:0:0:0:
413,298,132075,1,8,0:2:0:0:
327,368,132237,5,2,3:2:0:0:
238,289,132398,1,2,3:2:0:0:
164,331,132559,1,2,3:2:0:0:
290,177,132721,5,6,3:2:0:0:
327,265,132882,1,0,3:2:0:0:
385,188,133044,1,10,0:2:0:0:
324,40,133285,5,0,3:2:0:0:
324,40,133366,1,2,3:2:0:0:
245,92,133527,1,2,3:2:0:0:
160,50,133688,1,8,0:2:0:0:
41,190,133930,5,0,3:2:0:0:
41,190,134011,1,2,3:2:0:0:
54,95,134172,1,0,3:2:0:0:
67,0,134333,1,10,0:2:0:0:
296,205,134495,6,0,L|382:213,1,87,6|0,0:0|0:0,0:0:0:0:
382,214,134817,5,2,3:2:0:0:
339,209,134898,1,2,3:2:0:0:
296,205,134979,2,0,B|332:157|405:129|468:145|468:145|429:202,1,261.00000995636,14|0,0:2|0:0,0:0:0:0:
20,318,135463,5,10,0:2:0:0:
160,70,135624,1,10,0:2:0:0:
291,216,135785,1,0,3:2:0:0:
205,284,135947,5,10,0:2:0:0:
258,0,136108,1,10,0:2:0:0:
313,122,136269,5,0,3:2:0:0:
313,122,136350,1,0,3:2:0:0:
313,122,136430,2,0,B|292:41|225:31|225:31|208:52|186:60,1,182.699994424439,14|0,0:2|0:0,0:0:0:0:
313,122,136753,5,10,0:2:0:0:
179,178,136914,1,10,0:2:0:0:
293,331,137075,5,10,0:2:0:0:
378,40,137237,5,8,0:2:0:0:
389,38,137317,1,8,0:2:0:0:
405,45,137398,1,8,0:2:0:0:
420,64,137479,1,8,0:2:0:0:
430,100,137559,1,8,0:2:0:0:
420,150,137640,1,8,0:2:0:0:
385,198,137721,1,8,0:2:0:0:
315,218,137801,1,8,0:2:0:0:
238,171,137882,5,6,3:2:0:0:
105,18,138043,1,0,3:2:0:0:
11,136,138205,1,8,0:2:0:0:
201,339,138366,2,0,P|187:305|151:295,1,60.8999981414796,0|8,0:0|0:2,0:0:0:0:
108,372,138528,2,0,P|110:318|192:310,1,121.799996282959,2|0,3:2|3:2,0:0:0:0:
392,359,138850,1,8,0:2:0:0:
332,271,139011,1,0,0:0:0:0:
332,271,139092,1,8,0:0:0:0:
332,271,139172,6,0,L|452:256,1,121.799996282959,2|0,3:2|3:2,0:0:0:0:
223,13,139495,2,0,L|238:133,1,121.799996282959,10|0,0:2|0:0,0:0:0:0:
175,263,139737,1,8,0:2:0:0:
175,263,139818,2,0,B|117:334|117:334|85:237,1,182.699994424439,2|0,3:2|0:0,0:0:0:0:
145,170,140141,2,0,L|137:105,1,65.2500024890901,14|0,0:2|0:0,0:0:0:0:
250,15,140302,1,8,0:2:0:0:
250,15,140382,1,8,0:2:0:0:
250,15,140463,6,0,P|351:69|481:57,1,243.599992565918,6|8,3:2|0:2,0:0:0:0:
310,215,140947,1,0,0:0:0:0:
502,251,141108,2,0,P|481:184|424:184,1,121.799996282959,2|0,3:2|3:2,0:0:0:0:
320,355,141431,1,8,0:2:0:0:
153,190,141592,1,0,0:0:0:0:
153,190,141673,1,8,0:0:0:0:
153,190,141753,6,0,L|177:67,1,121.799996282959,2|0,3:2|3:2,0:0:0:0:
310,257,142076,2,0,B|415:281|354:333|460:350,1,182.699994424439,10|0,0:2|0:0,0:0:0:0:
461,255,142398,5,8,0:0:0:0:
497,224,142478,1,8,0:0:0:0:
489,177,142559,1,8,0:0:0:0:
445,161,142639,1,8,0:0:0:0:
419,194,142721,5,2,3:0:0:0:
437,208,142802,1,2,3:0:0:0:
459,200,142882,1,2,3:0:0:0:
463,177,142963,1,2,3:0:0:0:
445,161,143043,1,6,3:2:0:0:
196,355,143285,5,0,3:2:0:0:
196,355,143366,2,0,B|164:301|164:301|196:245,1,121.799996282959,10|2,0:2|0:2,0:0:0:0:
269,202,143608,1,8,0:2:0:0:
269,202,143688,2,0,L|284:72,1,121.799996282959,6|0,3:2|3:2,0:0:0:0:
47,179,144011,2,0,L|33:299,1,121.799996282959,10|0,0:2|0:0,0:0:0:0:
90,371,144253,1,8,0:2:0:0:
90,371,144334,5,2,3:2:0:0:
178,206,144495,1,0,3:2:0:0:
353,305,144657,1,10,0:2:0:0:
288,352,144818,1,8,0:0:0:0:
288,352,144899,1,8,0:2:0:0:
288,352,144979,2,0,P|330:275|418:273,1,182.699994424439,2|0,3:2|0:0,0:0:0:0:
489,316,145302,2,0,L|478:381,1,65.2500024890901,10|0,0:2|0:0,0:0:0:0:
420,166,145463,1,8,0:2:0:0:
420,166,145544,1,8,0:2:0:0:
420,166,145624,6,0,L|300:150,1,121.799996282959,6|0,3:2|3:2,0:0:0:0:
92,142,145947,1,8,0:2:0:0:
169,257,146108,1,2,0:2:0:0:
169,257,146189,1,8,0:2:0:0:
169,257,146270,2,0,P|204:147|194:7,1,243.599992565918,2|8,3:2|0:2,0:0:0:0:
20,215,146754,1,2,0:2:0:0:
20,215,146835,1,8,0:2:0:0:
20,215,146914,6,0,P|2:270|7:340,1,121.799996282959,2|0,3:2|3:0,0:0:0:0:
209,196,147237,2,0,L|405:226,1,195.75000746727,14|0,0:0|0:0,0:0:0:0:
439,302,147559,5,8,0:0:0:0:
484,277,147639,1,8,0:0:0:0:
503,230,147720,1,8,0:0:0:0:
488,181,147800,1,8,0:0:0:0:
445,152,147881,5,8,0:0:0:0:
433,160,147963,1,8,0:0:0:0:
421,164,148043,1,8,0:0:0:0:
412,158,148124,1,8,0:0:0:0:
411,148,148205,5,6,3:2:0:0:
308,34,148366,1,0,3:2:0:0:
140,221,148528,2,0,B|210:245|210:245|233:279|233:279|304:299,1,182.699994424439,8|8,0:2|0:2,0:0:0:0:
390,316,148850,2,0,P|417:263|369:236,1,121.799996282959,0|0,3:2|3:2,0:0:0:0:
170,366,149173,1,8,0:2:0:0:
30,247,149334,1,0,0:0:0:0:
30,247,149414,1,0,0:0:0:0:
30,247,149495,6,0,L|155:262,1,121.799996282959,2|0,3:2|3:2,0:0:0:0:
332,166,149818,1,10,0:2:0:0:
272,357,149979,1,2,0:0:0:0:
272,357,150060,1,8,0:2:0:0:
272,357,150141,2,0,P|332:292|419:303,1,182.699994424439,2|0,3:2|0:0,0:0:0:0:
498,330,150463,2,0,P|489:361|463:383,1,65.2500024890901,14|0,0:2|0:0,0:0:0:0:
422,188,150624,1,8,0:2:0:0:
422,188,150705,1,8,0:2:0:0:
422,188,150786,6,0,L|442:67,1,121.799996282959,6|0,3:2|3:2,0:0:0:0:
308,4,151108,1,8,0:2:0:0:
240,234,151269,1,0,0:0:0:0:
240,234,151350,1,8,0:2:0:0:
240,234,151430,2,0,L|119:214,1,121.799996282959,0|0,3:2|3:2,0:0:0:0:
371,313,151753,1,8,0:2:0:0:
32,281,151915,1,0,0:0:0:0:
32,281,151996,1,8,0:0:0:0:
32,281,152076,6,0,P|26:217|42:157,1,121.799996282959,2|0,3:2|3:2,0:0:0:0:
226,25,152398,2,0,P|237:115|222:205,1,182.699994424439,10|8,0:2|0:0,0:0:0:0:
159,272,152721,1,0,3:0:0:0:
384,141,152882,1,0,3:0:0:0:
468,340,153044,5,14,3:0:0:0:
452,358,153124,1,8,3:0:0:0:
413,369,153205,1,8,3:0:0:0:
370,340,153286,1,8,3:0:0:0:
407,274,153366,2,0,P|313:292|207:308,1,182.699994424439,6|0,3:2|0:0,0:0:0:0:
142,321,153689,5,10,0:0:0:0:
126,304,153769,1,8,0:0:0:0:
121,273,153850,1,8,0:0:0:0:
134,232,153930,1,8,0:0:0:0:
206,199,154011,2,0,P|290:200|334:113,1,182.699994424439,14|0,0:0|0:0,0:0:0:0:
280,6,154334,5,10,0:0:0:0:
236,9,154415,1,8,0:0:0:0:
221,46,154495,1,8,0:0:0:0:
243,73,154576,1,8,0:0:0:0:
255,73,154657,6,0,L|59:95,1,182.699994424439,14|0,0:0|0:0,0:0:0:0:
54,295,154979,5,10,0:0:0:0:
81,257,155059,1,8,0:0:0:0:
119,272,155140,1,8,0:0:0:0:
95,313,155220,1,8,0:0:0:0:
89,287,155302,6,0,L|79:214,1,60.8999981414796,6|4,3:0|3:0,0:0:0:0:
209,217,155463,2,0,L|199:144,1,60.8999981414796,4|4,3:0|3:0,0:0:0:0:
69,128,155624,2,0,L|59:55,1,60.8999981414796,6|4,3:0|3:0,0:0:0:0:
256,66,155785,2,0,L|246:-7,1,60.8999981414796,4|4,3:0|3:0,0:0:0:0:
209,217,155947,5,6,3:2:0:0:
374,42,156108,1,0,3:0:0:0:
504,202,156270,2,0,P|441:200|385:182,1,121.799996282959,8|0,0:0|0:0,0:0:0:0:
325,121,156511,1,8,0:0:0:0:
325,121,156592,1,0,3:0:0:0:
406,290,156753,1,0,3:0:0:0:
220,376,156915,2,0,P|196:288|224:200,1,182.699994424439,8|0,0:0|3:0,0:0:0:0:
302,201,157237,5,2,3:2:0:0:
105,327,157398,1,0,3:2:0:0:
36,125,157559,1,8,0:0:0:0:
0,210,157721,1,0,0:0:0:0:
0,210,157801,1,8,0:0:0:0:
0,210,157882,1,2,3:2:0:0:
196,90,158043,5,0,3:2:0:0:
257,211,158205,1,8,0:0:0:0:
299,239,158285,1,8,0:0:0:0:
345,218,158366,1,8,0:0:0:0:
353,172,158447,1,8,0:0:0:0:
343,170,158527,6,0,L|368:51,1,104.399996813965,6|0,3:2|0:0,0:0:0:0:
160,24,158850,1,8,0:0:0:0:
227,101,159011,1,8,0:0:0:0:
271,5,159172,1,8,0:0:0:0:
80,138,159333,1,8,0:0:0:0:
228,219,159494,1,8,0:0:0:0:
149,254,159656,1,8,0:0:0:0:
72,21,159817,5,8,0:0:0:0:
264,112,159979,1,8,0:0:0:0:
414,13,160140,1,8,0:0:0:0:
345,62,160301,1,8,0:0:0:0:
474,262,160463,5,8,0:0:0:0:
150,362,160624,1,8,0:0:0:0:
230,287,160785,1,8,0:0:0:0:
291,359,160946,1,8,0:0:0:0:
354,145,161108,6,0,B|382:90|439:78|489:96|489:96|492:133|466:146,1,208.79999362793,14|0,0:0|3:0,0:0:0:0:
174,75,161592,6,0,B|145:12|67:11|25:47|25:47|37:93|76:100,1,243.599992565918,14|0,0:0|3:0,0:0:0:0:
232,340,162075,6,0,B|251:277|335:242|398:312|398:312|369:357|330:349,1,278.4,14|2,0:0|3:2,0:0:0:0:
277,250,162559,1,0,3:0:0:0:
315,169,162721,1,0,3:0:0:0:
401,195,162882,1,0,3:0:0:0:
279,11,163043,5,0,3:0:0:0:
316,77,163205,1,0,3:0:0:0:
369,77,163366,1,0,3:0:0:0:
395,53,163527,1,0,3:0:0:0:
384,38,163688,6,0,L|401:236,2,191.400005841065,6|0|8,3:2|3:0|0:0,0:0:0:0:
507,63,164656,6,0,L|448:70,1,47.8500014602662,8|8,0:0|0:0,0:0:0:0:
384,38,164817,2,0,L|325:45,1,47.8500014602662,8|8,0:0|0:0,0:0:0:0:
459,68,164979,6,0,L|447:163,1,95.7000029205323,0|0,3:2|3:0,0:0:0:0:
336,43,165301,2,0,L|324:138,1,95.7000029205323,0|0,3:0|3:0,0:0:0:0:
447,163,165624,1,8,0:0:0:0:
324,138,165946,6,0,L|265:145,1,47.8500014602662,8|8,0:0|0:0,0:0:0:0:
201,113,166107,2,0,L|142:120,1,47.8500014602662,8|8,0:0|0:0,0:0:0:0:
276,143,166269,6,0,L|259:341,2,191.400005841065,0|0|8,3:2|3:0|0:0,0:0:0:0:
153,118,167237,6,0,L|105:112,1,47.8500014602662,8|8,0:0|0:0,0:0:0:0:
276,143,167398,2,0,L|228:137,1,47.8500014602662,8|8,0:0|0:0,0:0:0:0:
105,112,167559,6,0,L|116:207,1,95.7000029205323,0|0,3:2|3:0,0:0:0:0:
228,137,167882,2,0,L|239:232,1,95.7000029205323,0|0,3:0|3:0,0:0:0:0:
116,207,168205,1,8,0:0:0:0:
153,295,168527,5,8,0:0:0:0:
191,49,168688,1,8,0:0:0:0:
239,232,168850,6,0,B|253:216|276:215|292:227|303:243|318:254|334:261|356:260|356:260|348:275|335:284|320:282|308:279|302:280,2,191.400005841065,6|0|8,3:2|3:0|0:0,0:0:0:0:
220,352,169817,6,0,P|215:328|218:304,1,47.8500014602662,8|8,0:0|0:0,0:0:0:0:
239,232,169978,2,0,P|243:208|240:184,1,47.8500014602662,8|8,0:0|0:0,0:0:0:0:
218,304,170140,6,0,P|171:312|123:307,1,95.7000029205323,0|0,3:2|3:0,0:0:0:0:
240,184,170463,2,0,P|286:175|334:180,1,95.7000029205323,0|0,3:0|3:0,0:0:0:0:
123,307,170785,1,8,0:0:0:0:
334,180,171108,6,0,P|329:156|332:132,1,47.8500014602662,8|8,0:0|0:0,0:0:0:0:
353,60,171269,2,0,P|357:36|354:12,1,47.8500014602662,8|8,0:0|0:0,0:0:0:0:
332,132,171430,6,0,B|346:116|369:115|385:127|396:143|411:154|427:161|449:160|449:160|441:175|428:184|413:182|401:179|395:180,2,191.400005841065,0|0|8,3:2|3:0|0:0,0:0:0:0:
354,12,172398,6,0,P|377:9|401:13,1,47.8500014602662,8|8,0:0|0:0,0:0:0:0:
332,131,172559,2,0,P|308:134|284:130,1,47.8500014602662,8|8,0:0|0:0,0:0:0:0:
401,13,172721,6,0,P|409:59|404:107,1,95.7000029205323,0|0,3:2|3:0,0:0:0:0:
284,130,173043,2,0,P|275:83|280:35,1,95.7000029205323,0|0,3:0|3:0,0:0:0:0:
404,107,173366,1,8,0:0:0:0:
501,66,173688,5,8,0:0:0:0:
184,77,173849,1,8,0:0:0:0:
143,260,174011,6,0,B|204:293|204:293|165:177,2,191.400005841065,6|0|8,3:2|3:0|0:0,0:0:0:0:
32,215,174979,6,0,B|55:210|55:210|79:213,1,47.8500014602662,8|8,0:0|0:0,0:0:0:0:
143,260,175141,2,0,B|166:262|166:262|190:258,1,47.8500014602662,8|8,0:0|0:0,0:0:0:0:
79,213,175301,6,0,B|70:166|70:166|75:118,1,95.7000029205323,0|0,3:2|3:0,0:0:0:0:
190,258,175624,2,0,B|198:304|198:304|193:352,1,95.7000029205323,0|0,3:0|3:0,0:0:0:0:
75,118,175946,1,8,0:0:0:0:
190,258,176269,6,0,B|213:262|213:262|237:259,1,47.8500014602662,8|8,0:0|0:0,0:0:0:0:
301,213,176431,2,0,B|324:210|324:210|348:214,1,47.8500014602662,8|8,0:0|0:0,0:0:0:0:
237,259,176592,6,0,B|176:226|176:226|214:341,2,191.400005841065,0|0|8,3:2|3:0|0:0,0:0:0:0:
348,214,177559,6,0,B|371:209|371:209|395:212,1,47.8500014602662,8|8,0:0|0:0,0:0:0:0:
284,257,177721,2,0,B|260:261|260:261|237:259,1,47.8500014602662,8|8,0:0|0:0,0:0:0:0:
395,212,177882,6,0,B|403:165|403:165|398:117,1,95.7000029205323,0|0,3:2|3:0,0:0:0:0:
236,258,178205,2,0,B|227:304|227:304|232:352,1,95.7000029205323,0|0,3:0|3:0,0:0:0:0:
398,117,178527,1,8,0:0:0:0:
501,214,178850,5,8,0:0:0:0:
130,256,179012,1,8,0:0:0:0:
227,54,179172,6,0,B|244:44|261:43|261:43|276:53|295:55|295:55|318:47|318:47|338:58|338:58|377:54|377:54|389:61|407:63,2,191.400005841065,0|0|8,3:2|3:0|0:0,0:0:0:0:
227,54,180140,6,0,B|222:51|218:51|218:51|214:53|210:54|210:54|204:52|204:52|199:55|199:55|189:54|189:54|186:55|181:56,1,47.8500014602662,8|8,0:0|0:0,0:0:0:0:
186,132,180301,2,0,B|190:134|194:134|194:134|198:132|203:131|203:131|208:133|208:133|213:131|213:131|223:132|223:132|226:130|231:129,1,47.8500014602662,8|8,0:0|0:0,0:0:0:0:
181,56,180463,6,0,B|171:54|165:51|165:51|146:53|146:53|136:47|136:47|124:51|124:51|115:50|107:45|107:45|99:46|90:51,1,95.7000029205323,0|0,3:2|3:0,0:0:0:0:
231,129,180785,2,0,B|239:134|248:134|248:134|255:129|265:128|265:128|276:132|276:132|286:127|286:127|306:129|306:129|312:125|321:124,1,95.7000029205323,0|0,3:0|3:0,0:0:0:0:
90,51,181108,1,8,0:0:0:0:
480,359,181430,6,0,B|464:171|464:171|430:106,1,261.00000995636,8|0,0:0|3:2,0:0:0:0:
430,106,182075,6,0,P|373:148|302:148,1,143.550004380798,8|0,0:0|0:0,0:0:0:0:
372,262,182398,6,0,P|295:251|240:197,1,156.599995220947,8|0,0:0|0:0,0:0:0:0:
208,345,182721,6,0,P|157:278|156:195,1,169.64999223404,8|0,0:0|0:0,0:0:0:0:
9,289,183043,6,0,P|21:199|83:135,1,182.699994424439,8|0,0:0|0:0,0:0:0:0:
0,15,183366,6,0,B|30:86|110:107|110:107|133:85|162:79,1,208.8,12|0,0:0|0:0,0:0:0:0:
234,116,183688,5,0,3:0:0:0:
276,28,183850,1,0,3:0:0:0:
339,78,184011,1,0,3:0:0:0:
339,78,184172,1,0,3:0:0:0:
509,106,184334,6,0,P|494:37|372:21,1,191.400005841065,6|0,3:2|3:0,0:0:0:0:
269,150,184817,1,0,3:0:0:0:
340,244,184979,2,0,P|402:221|390:156,1,143.550004380798,8|0,0:0|0:0,0:0:0:0:
269,150,185301,1,0,3:0:0:0:
138,240,185463,1,0,3:0:0:0:
229,380,185624,6,0,P|237:334|245:286,1,95.7000029205323,2|0,3:2|3:2,0:0:0:0:
186,161,185946,1,2,3:2:0:0:
186,161,186108,1,0,3:2:0:0:
246,93,186269,2,0,B|380:72|283:34|420:0,1,191.400005841065,10|0,0:2|3:0,0:0:0:0:
465,234,186914,6,0,P|419:240|394:201,1,95.7000029205323,6|0,3:2|0:0,0:0:0:0:
486,80,187237,1,0,3:0:0:0:
486,80,187398,1,0,3:0:0:0:
361,54,187559,2,0,L|170:31,1,191.400005841065,8|0,0:0|3:0,0:0:0:0:
42,106,188043,1,0,3:0:0:0:
137,216,188205,6,0,P|155:171|149:121,1,95.7000029205323,2|0,3:2|3:2,0:0:0:0:
28,278,188527,2,0,P|10:323|15:372,1,95.7000029205323,2|0,3:2|3:2,0:0:0:0:
195,291,188850,1,10,0:2:0:0:
195,291,189172,1,8,0:0:0:0:
408,362,189495,6,0,P|436:275|423:171,1,191.400005841065,6|0,3:2|3:0,0:0:0:0:
344,97,189979,1,0,3:0:0:0:
417,16,190140,2,0,P|463:30|514:36,1,95.7000029205323,8|0,0:0|0:0,0:0:0:0:
425,176,190463,1,0,3:0:0:0:
306,22,190624,1,0,3:0:0:0:
223,133,190785,6,0,P|176:131|145:94,1,95.7000029205323,2|0,3:2|3:2,0:0:0:0:
64,19,191108,1,2,3:2:0:0:
64,19,191269,1,0,3:2:0:0:
94,194,191430,2,0,L|61:388,1,191.400005841065,10|0,0:2|3:0,0:0:0:0:
264,263,192075,6,0,B|372:283|324:354|441:355,1,191.400005841065,6|0,3:2|3:0,0:0:0:0:
509,266,192559,1,0,3:0:0:0:
421,143,192721,2,0,P|390:181|394:229,1,95.7000029205323,8|0,0:0|0:0,0:0:0:0:
508,114,193043,1,0,3:0:0:0:
352,14,193205,1,0,3:0:0:0:
253,127,193366,6,0,P|248:79|242:31,1,95.7000029205323,2|0,3:2|3:2,0:0:0:0:
116,161,193688,1,2,3:2:0:0:
116,161,193850,1,0,3:2:0:0:
190,212,194011,1,10,0:2:0:0:
116,73,194172,1,0,3:0:0:0:
19,219,194334,1,0,3:0:0:0:
115,363,194495,1,0,3:0:0:0:
47,320,194656,5,6,3:2:0:0:
47,320,194979,1,0,3:2:0:0:
47,320,195301,1,0,3:2:0:0:
47,320,195624,1,0,3:2:0:0:
108,244,195946,5,2,3:2:0:0:
108,244,196269,1,0,3:2:0:0:
108,244,196592,1,0,3:2:0:0:
108,244,196914,1,0,3:2:0:0:
181,308,197237,5,6,3:2:0:0:
181,308,197559,1,2,3:2:0:0:
181,308,197882,1,2,3:2:0:0:
181,308,198205,1,2,3:2:0:0:
114,378,198527,5,0,3:2:0:0:
114,378,198850,1,0,3:2:0:0:
114,378,199172,1,0,3:2:0:0:
114,378,199495,1,0,3:2:0:0:
186,108,199817,6,0,P|223:149|277:154,1,97.8750037336351,6|0,3:2|0:0,0:0:0:0:
321,75,200140,2,0,P|284:34|230:28,1,97.8750037336351,0|0,3:2|0:0,0:0:0:0:
101,174,200463,6,0,P|108:230|113:286,1,97.8750037336351,0|0,3:2|0:0,0:0:0:0:
219,347,200785,2,0,P|213:292|207:236,1,97.8750037336351,0|0,3:2|0:0,0:0:0:0:
101,174,201108,6,0,P|44:166|-10:160,1,97.8750037336351,2|0,3:2|0:0,0:0:0:0:
147,38,201430,2,0,P|202:30|257:24,1,97.8750037336351,0|0,3:2|0:0,0:0:0:0:
430,163,201753,6,0,P|424:107|383:71,1,97.8750037336351,2|0,3:2|0:0,0:0:0:0:
369,261,202075,2,0,P|373:315|414:351,1,97.8750037336351,0|0,3:2|0:0,0:0:0:0:
297,129,202398,6,0,P|258:171|201:177,1,117.449996415711,6|0,3:2|0:0,0:0:0:0:
59,322,202721,2,0,P|116:327|154:370,1,117.449996415711,2|0,3:2|0:0,0:0:0:0:
86,209,203043,6,0,P|93:150|99:92,1,117.449996415711,0|0,3:2|0:0,0:0:0:0:
389,228,203366,2,0,P|396:286|402:344,1,117.449996415711,0|0,3:2|0:0,0:0:0:0:
219,64,203688,6,0,P|257:21|314:15,1,117.449996415711,0|0,3:2|0:0,0:0:0:0:
258,275,204011,2,0,P|200:269|162:226,1,117.449996415711,2|0,3:2|0:0,0:0:0:0:
394,280,204334,6,0,B|416:222|468:205|468:205|478:218|493:227,1,143.550004380798,2|0,3:2|0:0,0:0:0:0:
475,314,204656,6,0,B|459:126|459:126|425:61,1,261.00000995636,10|0,0:0|3:2,0:0:0:0:
85,339,205140,5,8,0:0:0:0:
366,303,205301,1,8,0:0:0:0:
366,303,205463,2,0,L|364:324,1,21.75,0|0,3:2|3:2,0:0:0:0:
38,173,205624,5,8,0:0:0:0:
388,218,205785,1,8,0:0:0:0:
388,218,205947,2,0,L|386:196,1,21.75,0|0,3:2|3:2,0:0:0:0:
431,0,206108,6,0,B|372:46|289:17|289:17|309:5|333:15,1,195.75000746727,12|0,0:0|0:0,0:0:0:0:
382,104,206430,5,8,0:0:0:0:
357,352,206592,1,8,0:0:0:0:
169,365,206753,1,8,0:0:0:0:
130,55,206914,6,0,B|114:76|114:76|107:126,1,76.1250007259846,8|8,0:0|0:0,0:0:0:0:
341,34,207075,6,0,B|362:18|362:18|412:12,1,76.1250007259846,8|8,0:0|0:0,0:0:0:0:
240,218,207237,6,0,B|250:193|250:193|244:142,1,76.1250007259846,8|8,0:0|0:0,0:0:0:0:
493,166,207398,6,0,B|472:182|472:182|422:189,1,76.1250007259846,8|8,0:0|0:0,0:0:0:0:
416,192,209495,5,14,0:0:0:0:
92,192,209656,1,14,0:0:0:0:
416,192,209817,1,14,0:0:0:0:
92,192,209978,1,14,0:0:0:0:
256,192,210140,12,0,211269,0:0:0:0:
494,236,211430,6,0,P|441:272|377:277,1,130.5,6|0,3:2|0:0,0:0:0:0:
381,264,211753,2,0,P|427:232|483:228,2,113.099994822693,0|2|0,3:2|3:2|3:2,0:0:0:0:
290,150,212721,6,0,L|290:310,1,143.550004380798,6|0,3:2|0:0,0:0:0:0:
278,303,213043,2,0,L|278:172,2,130.50000497818,2|2|2,3:2|3:2|3:2,0:0:0:0:
208,127,214011,6,0,P|272:122|325:86,1,130.5,6|0,3:2|0:0,0:0:0:0:
307,79,214334,2,0,P|258:82|218:109,1,97.8750037336351,0|0,3:2|0:0,0:0:0:0:
473,43,214656,6,0,P|415:38|367:5,1,117.449996415711,6|0,3:2|0:0,0:0:0:0:
384,0,214979,2,0,P|425:2|461:25,1,84.8249961170198,0|0,3:2|0:0,0:0:0:0:
404,191,215301,6,0,L|404:121,1,69.6,6|0,3:2|0:0,0:0:0:0:
417,270,215624,2,0,L|417:199,1,71.7750021903992,2|0,3:2|0:0,0:0:0:0:
512,333,215946,6,0,P|473:335|441:357,1,78.2999976104737,0|2,3:2|3:2,0:0:0:0:
97,246,216592,6,0,P|159:226|152:291,1,156.599995220947,6|0,3:2|0:0,0:0:0:0:
7,223,216914,5,10,0:0:0:0:
31,177,216994,1,8,0:0:0:0:
70,144,217075,1,8,0:0:0:0:
120,129,217155,1,8,0:0:0:0:
171,133,217236,1,10,0:0:0:0:
217,157,217317,1,8,0:0:0:0:
250,197,217397,1,8,0:0:0:0:
265,247,217478,1,8,0:0:0:0:
259,298,217559,1,10,0:0:0:0:
235,344,217639,1,8,0:0:0:0:
194,375,217721,2,0,L|170:328,1,52.1999984069825,8|8,0:0|0:0,0:0:0:0:
415,163,217882,6,0,P|346:141|355:212,1,169.64999223404,14|0,0:0|0:0,0:0:0:0:
512,138,218204,5,10,0:0:0:0:
486,88,218284,1,8,0:0:0:0:
444,52,218365,1,8,0:0:0:0:
390,36,218445,1,8,0:0:0:0:
334,40,218526,1,10,0:0:0:0:
285,66,218607,1,8,0:0:0:0:
249,109,218687,1,8,0:0:0:0:
233,164,218768,1,8,0:0:0:0:
239,219,218850,5,2,3:0:0:0:
289,193,218930,1,2,3:0:0:0:
322,147,219012,2,0,L|271:121,1,56.5499974113466,2|2,3:0|3:0,0:0:0:0:
134,56,219172,6,0,L|118:176,1,121.799996282959,14|0,0:0|3:3,0:0:0:0:
50,216,219495,1,8,0:0:0:0:
230,372,219656,1,10,0:0:0:0:
230,372,219737,1,8,0:0:0:0:
230,372,219818,2,0,P|124:315|4:326,1,243.599992565918,2|8,3:2|0:0,0:0:0:0:
281,302,220301,2,0,L|341:310,1,60.8999981414796,2|0,0:0|0:0,0:0:0:0:
174,211,220463,5,10,0:0:0:0:
189,140,220544,1,8,0:0:0:0:
254,107,220624,1,8,0:0:0:0:
321,138,220705,1,8,0:0:0:0:
338,209,220785,1,14,0:0:0:0:
420,320,221753,5,6,3:2:0:0:
411,335,222075,5,8,0:2:0:0:
443,29,222237,1,0,3:2:0:0:
302,65,222398,5,10,0:2:0:0:
320,303,222559,1,0,3:2:0:0:
212,191,222721,5,8,0:2:0:0:
486,192,222882,1,2,3:2:0:0:
486,192,222963,1,0,3:2:0:0:
486,192,223043,5,14,0:2:0:0:
470,202,223366,5,10,0:2:0:0:
209,69,223527,1,2,3:2:0:0:
246,266,223688,5,10,0:2:0:0:
468,183,223850,1,0,3:2:0:0:
166,169,224011,5,10,0:2:0:0:
259,367,224172,1,0,3:2:0:0:
259,367,224253,1,0,3:2:0:0:
259,367,224334,5,14,0:2:0:0:
272,356,224656,5,8,0:2:0:0:
94,233,224817,1,0,3:2:0:0:
407,262,224979,5,14,0:2:0:0:
244,356,225140,1,0,3:2:0:0:
259,124,225301,5,8,0:2:0:0:
92,320,225463,1,0,3:2:0:0:
92,320,225543,1,0,3:2:0:0:
92,320,225624,5,14,0:2:0:0:
101,335,225946,5,10,0:2:0:0:
69,29,226108,1,0,3:2:0:0:
210,65,226269,5,8,0:2:0:0:
192,303,226430,1,0,3:2:0:0:
300,191,226592,5,10,0:2:0:0:
26,192,226753,1,0,3:2:0:0:
26,192,226834,1,0,3:2:0:0:
26,192,226914,6,0,L|146:180,1,121.799996282959,14|0,0:2|0:0,0:0:0:0:
459,142,227237,5,8,0:2:0:0:
445,195,227317,1,8,0:2:0:0:
466,240,227398,1,8,0:2:0:0:
476,274,227479,1,8,0:2:0:0:
467,303,227559,2,0,L|346:291,1,121.799996282959,14|0,0:2|0:0,0:0:0:0:
228,26,227882,5,8,0:2:0:0:
286,13,227963,1,8,0:2:0:0:
346,57,228043,1,8,0:2:0:0:
361,102,228124,1,8,0:2:0:0:
355,125,228205,2,0,B|301:157|301:157|245:125,1,121.799996282959,14|0,0:2|0:0,0:0:0:0:
216,330,228527,5,8,0:2:0:0:
158,343,228608,1,8,0:2:0:0:
98,299,228688,1,8,0:2:0:0:
83,254,228769,1,8,0:2:0:0:
89,231,228850,2,0,B|143:199|143:199|199:231,1,121.799996282959,14|0,0:2|0:0,0:0:0:0:
448,135,229172,5,8,0:2:0:0:
455,180,229252,1,8,0:2:0:0:
461,225,229333,1,8,0:2:0:0:
467,270,229413,1,8,0:2:0:0:
473,316,229495,6,0,L|482:251,1,65.25,14|0,0:2|0:0,0:0:0:0:
470,334,229817,5,10,0:2:0:0:
437,357,229897,1,8,0:2:0:0:
398,370,229978,1,8,0:2:0:0:
358,371,230058,1,8,0:2:0:0:
319,361,230139,1,10,0:2:0:0:
284,340,230220,1,8,0:2:0:0:
257,310,230301,1,8,0:2:0:0:
230,279,230381,1,8,0:2:0:0:
195,258,230462,1,10,0:2:0:0:
156,249,230543,1,8,0:2:0:0:
115,249,230623,1,8,0:2:0:0:
77,270,230705,1,8,0:2:0:0:
60,309,230785,1,10,0:0:0:0:
72,350,230866,1,8,0:0:0:0:
108,372,230946,1,8,0:0:0:0:
150,365,231027,1,8,0:0:0:0:
176,331,231108,1,10,0:0:0:0:
180,288,231188,1,8,0:0:0:0:
163,248,231269,1,8,0:0:0:0:
154,206,231350,1,8,0:0:0:0:
157,163,231430,5,2,3:0:0:0:
161,155,231511,1,2,3:0:0:0:
165,147,231592,1,2,3:0:0:0:
169,139,231672,1,2,3:0:0:0:
238,107,231752,5,2,3:0:0:0:
242,115,231833,1,2,3:0:0:0:
246,123,231914,1,2,3:0:0:0:
250,131,231994,1,2,3:0:0:0:
173,56,232075,6,0,P|259:85|343:55,1,182.699994424439,6|0,3:2|0:0,0:0:0:0:
397,0,232398,1,10,0:0:0:0:
333,187,232560,1,2,3:2:0:0:
333,187,232640,1,0,3:2:0:0:
333,187,232721,2,0,L|349:307,1,121.799996282959,2|0,3:2|3:2,0:0:0:0:
466,131,233043,1,10,0:0:0:0:
503,205,233205,1,0,0:0:0:0:
292,364,233366,6,0,P|257:345|220:334,1,78.2999976104737,6|0,3:2|0:0,0:0:0:0:
11,306,233688,2,0,P|45:296|77:279,1,71.7750021903992,6|0,3:2|0:0,0:0:0:0:
233,155,234011,6,0,P|217:183|207:214,1,65.25,6|0,3:2|0:0,0:0:0:0:
94,123,234334,2,0,P|85:94|71:69,1,58.7249982078553,6|0,3:2|0:0,0:0:0:0:
25,188,234656,6,0,L|144:213,1,104.399996813965,6|0,3:2|0:0,0:0:0:0:
423,327,234979,5,8,0:0:0:0:
282,354,235140,1,8,0:0:0:0:
424,243,235301,1,10,0:0:0:0:
249,277,235463,1,8,0:0:0:0:
433,160,235624,1,8,0:0:0:0:
203,205,235785,1,8,0:0:0:0:
357,365,235946,5,10,0:0:0:0:
310,110,236108,1,8,0:0:0:0:
123,261,236269,1,8,0:0:0:0:
357,365,236430,1,8,0:0:0:0:
166,376,236592,5,10,0:0:0:0:
200,65,236754,1,8,0:0:0:0:
446,249,236915,1,8,0:0:0:0:
166,376,237076,1,8,0:0:0:0:
257,377,237237,5,14,0:0:0:0:
105,167,237398,2,0,B|61:131|61:131|8:114,1,113.099994822693,0|0,3:2|3:2,0:0:0:0:
247,367,237721,5,14,0:0:0:0:
393,125,237882,2,0,B|437:89|437:89|491:72,1,113.099994822693,0|2,3:2|3:2,0:0:0:0:
256,353,238205,5,14,0:0:0:0:
208,37,238366,2,0,L|191:148,1,113.099994822693,0|2,3:2|3:2,0:0:0:0:
248,338,238688,5,14,0:0:0:0:
292,0,238849,2,0,L|310:111,1,113.099994822693,2|2,3:2|3:2,0:0:0:0:
394,303,239172,5,0,3:2:0:0:
373,263,239252,1,0,3:2:0:0:
408,215,239333,1,0,3:2:0:0:
466,218,239413,1,0,3:2:0:0:
491,193,239495,6,0,B|477:111|426:79|426:79|356:88,1,195.75000746727,10|0,0:0|0:0,0:0:0:0:
285,39,239817,6,0,P|276:90|275:142,1,104.399996813965,6|0,3:2|3:2,0:0:0:0:
111,326,240140,2,0,P|120:274|121:222,1,104.399996813965,8|0,0:2|3:2,0:0:0:0:
279,347,240463,1,8,0:2:0:0:
364,300,240624,1,0,3:2:0:0:
186,168,240785,5,12,0:2:0:0:
474,205,240946,2,0,L|296:223,1,156.599995220947,12|0,0:2|0:0,0:0:0:0:
303,246,241269,5,12,0:2:0:0:
405,42,241430,1,12,0:2:0:0:
228,82,241592,2,0,P|297:88|317:103,1,52.1999984069825,2|2,3:2|3:2,0:0:0:0:
336,136,241753,1,8,0:2:0:0:
187,216,241914,1,2,3:2:0:0:
182,203,241994,1,2,3:2:0:0:
174,193,242075,1,8,0:2:0:0:
386,265,242237,2,0,P|403:198|422:180,1,52.1999984069825,2|2,3:2|3:2,0:0:0:0:
231,305,242398,6,0,P|275:330|327:327,1,104.399996813965,6|0,3:2|3:2,0:0:0:0:
228,82,242721,2,0,P|183:56|131:59,1,104.399996813965,8|0,0:2|3:2,0:0:0:0:
27,153,243043,1,8,0:2:0:0:
113,142,243205,1,0,3:2:0:0:
62,269,243366,5,12,0:2:0:0:
244,340,243527,2,0,P|228:272|164:297,1,156.599995220947,12|0,0:2|0:0,0:0:0:0:
244,340,243850,5,12,0:2:0:0:
280,136,244011,1,12,0:2:0:0:
195,178,244172,1,2,3:2:0:0:
190,165,244252,1,2,3:2:0:0:
182,155,244333,1,8,0:2:0:0:
371,261,244495,1,2,3:2:0:0:
363,271,244576,1,2,3:2:0:0:
358,284,244656,1,8,0:2:0:0:
464,134,244817,2,0,P|470:65|485:45,1,52.1999984069825,2|2,3:2|3:2,0:0:0:0:
373,19,244979,6,0,L|246:36,1,104.399996813965,8|0,0:2|3:2,0:0:0:0:
349,166,245301,2,0,L|222:183,1,104.399996813965,8|0,0:2|3:2,0:0:0:0:
423,261,245624,1,8,0:2:0:0:
512,191,245785,1,0,3:2:0:0:
302,276,245946,5,12,0:2:0:0:
153,110,246108,2,0,L|134:302,1,156.599995220947,12|0,0:2|0:0,0:0:0:0:
152,292,246430,5,12,0:2:0:0:
348,96,246592,1,12,0:2:0:0:
258,20,246753,2,0,P|254:45|259:71,2,52.1999984069825,2|0|8,3:2|3:0|0:2,0:0:0:0:
448,186,247075,2,0,P|454:117|469:97,1,52.1999984069825,2|0,3:2|3:0,0:0:0:0:
502,78,247236,5,8,0:2:0:0:
206,189,247398,1,8,0:2:0:0:
218,207,247721,5,8,0:0:0:0:
304,187,247882,1,8,0:0:0:0:
138,121,248043,5,0,3:0:0:0:
138,121,248124,1,0,3:0:0:0:
138,121,248205,1,8,0:0:0:0:
369,268,248366,1,8,0:0:0:0:
107,290,248527,5,0,3:0:0:0:
107,290,248608,1,0,3:0:0:0:
107,290,248689,1,8,0:0:0:0:
407,116,248850,1,8,0:0:0:0:
61,192,249011,5,0,3:0:0:0:
61,192,249092,1,0,3:0:0:0:
61,192,249173,1,12,0:0:0:0:
461,196,249334,1,12,0:0:0:0:
391,251,249495,1,0,3:0:0:0:
229,10,249656,5,14,0:0:0:0:
264,193,249817,1,14,0:0:0:0:
299,376,249978,1,14,0:0:0:0:
