osu file format v14

[General]
AudioFilename: audio.mp3
AudioLeadIn: 0
PreviewTime: 137761
Countdown: 0
SampleSet: Soft
StackLeniency: 0.7
Mode: 0
LetterboxInBreaks: 0
WidescreenStoryboard: 1

[Editor]
Bookmarks: 106914,163688
DistanceSpacing: 1.2
BeatDivisor: 4
GridSize: 32
TimelineZoom: 1.7

[Metadata]
Title:ReI
TitleUnicode:ReI
Artist:THE ORAL CIGARETTES
ArtistUnicode:THE ORAL CIGARETTES
Creator:Nevo
Version:Suou's Insane ft. torriru
Source:
Tags:toc rel turquoisee Shirahane Suou torriru toybot sajinn dog food uniform japanese rock
BeatmapID:3030156
BeatmapSetID:1465638

[Difficulty]
HPDrainRate:5
CircleSize:3.7
OverallDifficulty:8
ApproachRate:9
SliderMultiplier:1.8
SliderTickRate:1

[Events]
//Background and Video events
0,0,"65735974_p0_master1200.jpg",0,0
//Break Periods
2,163888,173411
//Storyboard Layer 0 (Background)
//Storyboard Layer 1 (Fail)
//Storyboard Layer 2 (Pass)
//Storyboard Layer 3 (Foreground)
//Storyboard Layer 4 (Overlay)
//Storyboard Sound Samples

[TimingPoints]
32076,322.58064516129,4,2,1,80,1,0
32076,-117.647058823529,4,2,1,80,0,0
42398,-133.333333333333,4,2,1,70,0,0
63043,-117.647058823529,4,2,1,75,0,0
73366,-111.111111111111,4,2,1,75,0,0
75946,-100,4,2,1,90,0,1
96592,-117.647058823529,4,2,1,80,0,0
106914,-133.333333333333,4,2,1,70,0,0
108850,-400,4,2,1,70,0,0
109495,-133.333333333333,4,2,1,70,0,0
116108,-500,4,2,1,70,0,0
116592,-200,4,2,1,70,0,0
117237,-117.647058823529,4,2,1,75,0,0
127559,-117.647058823529,4,2,1,80,0,0
135463,-111.111111111111,4,2,1,80,0,0
137882,-100,4,2,1,90,0,1
163688,-133.333333333333,4,2,1,70,0,0
182075,-133.333333333333,4,2,1,75,0,0
207559,-133.333333333333,4,2,1,60,0,0
209495,-133.333333333333,4,2,1,70,0,0
211430,-133.333333333333,4,2,1,75,0,0
216592,-117.647058823529,4,2,1,75,0,0
221753,-100,4,2,1,90,0,1
239817,-117.647058823529,4,2,1,80,0,0

[Colours]
Combo1 : 192,192,192
Combo2 : 255,128,64
Combo3 : 0,159,236

[HitObjects]
395,87,32076,6,0,L|380:185,1,76.5000014591217,6|0,3:2|3:2,0:0:0:0:
299,272,32398,2,0,L|284:174,1,76.5000014591217,8|0,0:2|3:2,0:0:0:0:
208,89,32721,2,0,L|193:187,1,76.5000014591217,8|0,0:2|3:2,0:0:0:0:
125,317,33043,5,12,0:2:0:0:
125,317,33205,2,0,P|160:299|213:307,1,76.5000014591217,12|2,0:2|3:2,0:0:0:0:
316,343,33527,1,12,0:2:0:0:
316,343,33689,2,0,P|298:309|299:271,1,76.5000014591217,12|2,0:2|3:2,0:0:0:0:
304,262,33930,1,2,3:2:0:0:
310,253,34011,2,0,L|413:276,1,76.5000014591217,8|2,0:2|3:2,0:0:0:0:
496,173,34334,2,0,L|421:189,1,76.5000014591217,8|2,0:2|3:2,0:0:0:0:
410,185,34575,1,2,3:2:0:0:
400,178,34656,6,0,P|378:147|393:88,1,76.5000014591217,6|0,3:2|3:2,0:0:0:0:
484,14,34979,2,0,L|467:88,1,76.5000014591217,8|0,0:2|3:2,0:0:0:0:
319,36,35301,2,0,P|350:14|409:29,1,76.5000014591217,8|0,0:2|3:2,0:0:0:0:
284,128,35624,5,12,0:2:0:0:
284,128,35785,2,0,L|209:111,1,76.5000014591217,12|2,0:2|3:2,0:0:0:0:
144,9,36108,1,12,0:2:0:0:
144,9,36269,2,0,L|69:25,1,76.5000014591217,12|2,0:2|3:2,0:0:0:0:
58,28,36511,1,2,3:2:0:0:
49,36,36592,2,0,P|30:73|44:116,1,76.5000014591217,8|2,0:2|3:2,0:0:0:0:
132,211,36914,2,0,P|95:192|52:206,1,76.5000014591217,8|2,0:2|3:2,0:0:0:0:
53,208,37156,1,2,3:2:0:0:
48,219,37237,6,0,L|65:313,1,76.5000014591217,8|0,0:2|3:2,0:0:0:0:
148,384,37559,2,0,L|161:308,1,76.5000014591217,8|0,0:2|3:2,0:0:0:0:
248,215,37882,2,0,L|261:290,1,76.5000014591217,8|0,0:2|3:2,0:0:0:0:
307,132,38205,5,12,0:2:0:0:
307,132,38366,2,0,P|270:116|223:125,1,76.5000014591217,12|2,0:2|3:2,0:0:0:0:
352,222,38688,1,12,0:2:0:0:
352,222,38850,2,0,P|383:198|399:153,1,76.5000014591217,12|2,0:2|3:2,0:0:0:0:
400,156,39092,1,2,3:2:0:0:
400,146,39172,2,0,L|382:38,1,76.5000014591217,8|2,0:2|3:2,0:0:0:0:
512,165,39495,2,0,L|494:273,1,76.5000014591217,8|2,0:2|3:2,0:0:0:0:
502,253,39737,1,2,3:2:0:0:
504,265,39817,6,0,L|414:283,1,76.5000014591217,8|0,0:2|3:2,0:0:0:0:
354,384,40140,2,0,L|336:294,1,76.5000014591217,8|0,0:2|3:2,0:0:0:0:
258,223,40463,2,0,L|240:313,1,76.5000014591217,8|0,0:2|3:2,0:0:0:0:
195,147,40785,5,12,0:2:0:0:
195,147,40946,2,0,P|232:121|284:137,1,76.5000014591217,12|2,0:2|3:2,0:0:0:0:
162,239,41269,1,14,0:2:0:0:
107,89,41430,2,0,L|123:10,1,76.5000014591217,14|0,0:2|3:2,0:0:0:0:
0,100,41753,1,10,0:2:0:0:
3,118,41833,1,8,0:2:0:0:
7,137,41914,1,8,0:2:0:0:
11,156,41994,1,8,0:2:0:0:
15,174,42075,2,0,L|26:228,3,38.2500007295609,2|2|2|2,3:0|3:0|3:0|3:0,0:0:0:0:
32,240,42398,6,0,B|82:232|82:232|108:247|108:247|176:236,2,135.000005149842,6|8|2,3:2|0:2|3:2,0:0:0:0:
96,147,43205,1,0,3:2:0:0:
218,171,43366,2,0,L|312:154,1,67.5000025749208,8|0,0:2|0:0,0:0:0:0:
222,304,43688,6,0,L|374:331,1,135.000005149842,2|8,3:2|0:2,0:0:0:0:
458,294,44172,1,0,0:0:0:0:
394,220,44334,2,0,L|408:148,1,67.5000025749208,2|0,3:2|3:2,0:0:0:0:
485,64,44656,2,0,L|497:130,1,67.5000025749208,8|0,0:2|0:0,0:0:0:0:
305,164,44979,6,0,L|153:133,2,135.000005149842,2|8|0,3:2|0:2|3:2,0:0:0:0:
398,112,45785,1,2,3:2:0:0:
327,6,45946,2,0,L|314:72,1,67.5000025749208,10|2,0:2|0:0,0:0:0:0:
386,211,46269,6,0,L|373:277,1,67.5000025749208,2|0,3:2|0:0,0:0:0:0:
297,382,46592,2,0,L|284:315,1,67.5000025749208,8|0,0:2|0:0,0:0:0:0:
220,237,46914,1,2,3:2:0:0:
220,237,47075,1,0,3:2:0:0:
123,318,47237,2,0,L|189:330,1,67.5000025749208,10|0,0:2|0:2,0:0:0:0:
288,171,47559,6,0,P|253:143|150:171,1,135.000005149842,6|8,3:2|0:2,0:0:0:0:
48,92,48043,1,2,0:0:0:0:
123,0,48205,2,0,L|135:75,1,67.5000025749208,2|0,3:2|3:2,0:0:0:0:
66,188,48527,2,0,L|0:177,1,67.5000025749208,8|0,0:2|0:0,0:0:0:0:
108,275,48850,6,0,P|171:290|228:256,2,135.000005149842,2|8|2,3:2|0:2|3:2,0:0:0:0:
159,193,49656,1,0,3:2:0:0:
51,122,49817,2,0,L|73:217,1,67.5000025749208,10|0,0:2|0:0,0:0:0:0:
130,384,50140,6,0,L|282:353,1,135.000005149842,2|8,3:2|0:2,0:0:0:0:
348,290,50624,2,0,P|370:327|368:373,1,67.5000025749208,2|0,0:0|3:2,0:0:0:0:
256,269,50946,1,0,3:2:0:0:
325,192,51108,2,0,P|368:191|406:216,1,67.5000025749208,10|0,0:2|0:0,0:0:0:0:
256,269,51430,6,0,L|97:246,1,135.000005149842,2|0,3:2|3:2,0:0:0:0:
41,181,51914,1,8,0:2:0:0:
121,93,52075,2,0,L|140:175,1,67.5000025749208,2|0,3:2|0:0,0:0:0:0:
23,85,52398,1,2,3:2:0:0:
23,85,52559,1,8,0:2:0:0:
162,7,52721,6,0,L|309:29,2,135.000005149842,6|8|2,3:2|0:2|3:2,0:0:0:0:
218,103,53527,1,0,3:2:0:0:
123,171,53688,2,0,L|56:180,1,67.5000025749208,8|0,0:2|0:0,0:0:0:0:
202,234,54011,6,0,P|246:198|331:211,1,135.000005149842,2|8,3:2|0:2,0:0:0:0:
394,132,54495,1,0,0:0:0:0:
462,220,54656,2,0,L|443:306,1,67.5000025749208,2|0,3:2|3:2,0:0:0:0:
372,384,54979,2,0,L|353:298,1,67.5000025749208,8|0,0:2|0:0,0:0:0:0:
320,204,55301,6,0,P|266:242|201:234,2,135.000005149842,2|8|0,3:2|0:2|3:2,0:0:0:0:
244,147,56108,1,2,3:2:0:0:
341,83,56269,2,0,L|406:97,1,67.5000025749208,10|2,0:2|0:0,0:0:0:0:
512,202,56592,6,0,L|498:267,1,67.5000025749208,2|0,3:2|0:0,0:0:0:0:
440,357,56914,2,0,L|375:343,1,67.5000025749208,8|0,0:2|0:0,0:0:0:0:
278,271,57237,1,2,3:2:0:0:
278,271,57398,1,0,3:2:0:0:
350,180,57559,2,0,P|373:203|383:235,1,67.5000025749208,10|2,0:2|0:2,0:0:0:0:
281,366,57882,6,0,B|227:358|227:358|199:367|199:367|139:357,1,135.000005149842,2|8,3:2|0:2,0:0:0:0:
69,291,58366,1,0,0:0:0:0:
153,238,58527,2,0,L|168:171,1,67.5000025749208,2|0,3:2|3:2,0:0:0:0:
62,111,58850,2,0,L|76:176,1,67.5000025749208,8|2,0:2|0:0,0:0:0:0:
236,254,59172,6,0,L|381:235,1,135.000005149842,2|8,3:2|0:2,0:0:0:0:
281,166,59656,1,2,0:0:0:0:
378,83,59817,2,0,L|358:164,1,67.5000025749208,2|2,3:2|3:2,0:0:0:0:
277,65,60140,2,0,L|257:-16,1,67.5000025749208,10|0,0:2|0:0,0:0:0:0:
175,122,60463,6,0,P|146:96|40:121,1,135.000005149842,2|8,3:2|0:2,0:0:0:0:
94,243,60946,2,0,L|106:171,1,67.5000025749208,2|2,0:0|3:2,0:0:0:0:
7,217,61269,1,0,3:2:0:0:
67,331,61430,2,0,P|103:338|142:322,1,67.5000025749208,14|0,0:2|0:0,0:0:0:0:
233,225,61753,6,0,L|252:322,1,67.5000025749208,8|8,0:2|0:2,0:0:0:0:
259,332,61995,1,8,0:2:0:0:
259,332,62075,1,8,0:2:0:0:
333,220,62237,1,8,0:2:0:0:
435,344,62398,1,2,3:0:0:0:
438,327,62478,1,2,3:0:0:0:
441,310,62559,1,2,3:0:0:0:
444,294,62639,1,2,3:0:0:0:
447,277,62721,2,0,L|458:218,3,33.7500012874604,2|2|2|2,3:0|3:0|3:0|3:0,0:0:0:0:
477,223,63043,6,0,L|458:122,1,76.5000014591217,6|0,3:2|3:2,0:0:0:0:
437,20,63366,1,8,0:2:0:0:
374,98,63527,1,0,3:2:0:0:
374,98,63608,1,0,3:2:0:0:
374,98,63688,2,0,P|332:113|275:94,1,76.5000014591217,2|2,3:2|3:2,0:0:0:0:
212,56,64011,1,8,0:2:0:0:
139,170,64172,6,0,L|227:149,1,76.5000014591217,2|0,0:0|3:2,0:0:0:0:
295,217,64495,1,2,3:2:0:0:
214,295,64656,2,0,L|139:277,1,76.5000014591217,8|2,0:2|3:2,0:0:0:0:
101,266,64898,1,0,3:2:0:0:
101,266,64979,2,0,P|73:294|70:338,1,76.5000014591217,0|2,3:2|3:2,0:0:0:0:
139,170,65301,2,0,L|114:38,1,114.750002188683,10|0,0:2|0:0,0:0:0:0:
110,20,65624,6,0,P|70:12|28:37,1,76.5000014591217,6|0,3:2|3:2,0:0:0:0:
0,102,65946,1,8,0:2:0:0:
56,186,66108,1,0,3:2:0:0:
56,186,66188,1,0,3:2:0:0:
56,186,66269,2,0,L|35:268,1,76.5000014591217,0|0,3:2|3:2,0:0:0:0:
0,375,66592,2,0,L|82:354,1,76.5000014591217,8|2,0:2|0:2,0:0:0:0:
162,254,66914,6,0,L|244:275,1,76.5000014591217,2|0,3:2|3:2,0:0:0:0:
392,326,67237,2,0,P|356:349|310:338,1,76.5000014591217,10|2,0:2|3:2,0:0:0:0:
315,328,67479,1,0,3:2:0:0:
315,328,67559,2,0,L|332:229,1,76.5000014591217,0|0,3:2|3:2,0:0:0:0:
421,189,67882,1,8,0:2:0:0:
417,170,67962,1,8,0:2:0:0:
414,151,68043,1,8,0:2:0:0:
411,132,68123,1,8,0:2:0:0:
408,113,68205,6,0,P|370:93|324:100,1,76.5000014591217,6|0,3:2|3:2,0:0:0:0:
241,22,68527,1,8,0:2:0:0:
203,114,68688,1,2,3:2:0:0:
203,114,68769,1,0,3:2:0:0:
203,114,68850,2,0,L|215:189,1,76.5000014591217,2|2,3:2|3:2,0:0:0:0:
327,252,69172,2,0,L|315:328,1,76.5000014591217,8|2,0:2|0:2,0:0:0:0:
204,384,69495,6,0,L|128:372,1,76.5000014591217,0|2,3:2|3:2,0:0:0:0:
23,287,69817,2,0,P|66:288|93:258,1,76.5000014591217,8|2,0:0|3:2,0:0:0:0:
106,242,70059,1,0,3:0:0:0:
106,242,70140,2,0,L|93:155,1,76.5000014591217,0|2,3:0|3:2,0:0:0:0:
45,8,70463,2,0,P|16:48|31:90,1,76.5000014591217,10|0,0:2|3:0,0:0:0:0:
38,86,70705,1,0,3:0:0:0:
38,86,70785,6,0,L|117:71,1,76.5000014591217,6|0,3:2|3:2,0:0:0:0:
212,12,71108,1,10,0:2:0:0:
256,112,71269,1,2,3:2:0:0:
256,112,71350,1,0,3:2:0:0:
256,112,71430,2,0,L|240:211,1,76.5000014591217,0|0,3:2|3:2,0:0:0:0:
159,272,71753,2,0,L|146:196,1,76.5000014591217,10|2,0:2|3:2,0:0:0:0:
257,284,72075,6,0,L|348:270,1,76.5000014591217,0|0,3:2|3:2,0:0:0:0:
438,193,72398,2,0,L|362:181,1,76.5000014591217,8|0,0:2|3:2,0:0:0:0:
256,112,72721,2,0,L|299:101,3,38.2500007295609,8|8|0|0,0:2|0:2|3:2|3:2,0:0:0:0:
311,71,73043,2,0,L|386:82,1,76.5000014591217,8|2,0:2|0:0,0:0:0:0:
438,193,73366,6,0,L|420:289,2,80.9999975280763,14|0|0,0:2|3:2|3:2,0:0:0:0:
330,305,73850,2,0,L|348:401,2,80.9999975280763,10|0|2,0:2|3:2|3:2,0:0:0:0:
301,185,74334,1,10,0:2:0:0:
205,297,74495,2,0,P|142:293|122:265,1,80.9999975280763,10|0,0:2|3:2,0:0:0:0:
54,171,74817,5,8,0:2:0:0:
187,204,74979,2,0,L|159:68,1,121.499996292114,10|0,0:2|0:0,0:0:0:0:
212,22,75301,1,10,0:2:0:0:
229,11,75381,1,8,0:2:0:0:
249,7,75462,1,10,0:2:0:0:
269,10,75542,1,8,0:2:0:0:
288,20,75624,2,0,L|298:87,3,40.4999987640381,8|8|8|8,0:2|0:2|0:2|0:2,0:0:0:0:
325,79,75946,6,0,L|309:191,1,90,6|0,3:2|3:2,0:0:0:0:
231,350,76269,2,0,P|210:311|224:269,1,90,8|0,0:2|0:0,0:0:0:0:
254,253,76511,1,8,0:2:0:0:
254,253,76592,2,0,L|359:270,1,90,0|0,3:2|3:2,0:0:0:0:
214,141,76914,2,0,L|61:165,1,135,8|0,0:2|0:0,0:0:0:0:
54,173,77237,6,0,P|30:136|40:93,1,90,2|0,3:2|3:2,0:0:0:0:
140,244,77559,2,0,L|122:350,1,90,10|0,0:2|0:0,0:0:0:0:
118,369,77801,1,8,0:2:0:0:
118,369,77882,2,0,P|75:379|38:355,1,90,2|0,3:2|3:2,0:0:0:0:
140,244,78205,1,14,0:2:0:0:
266,354,78366,1,8,0:2:0:0:
266,354,78446,1,8,0:2:0:0:
266,354,78527,6,0,L|361:330,1,90,6|0,3:2|3:2,0:0:0:0:
512,240,78850,2,0,P|426:251|369:185,1,180,8|2,0:2|3:2,0:0:0:0:
493,80,79334,1,0,3:2:0:0:
342,5,79495,2,0,L|231:29,1,90,8|0,0:2|0:0,0:0:0:0:
220,13,79737,1,8,0:0:0:0:
220,13,79817,6,0,P|198:66|235:119,1,90,2|0,3:2|3:2,0:0:0:0:
370,186,80140,2,0,P|317:164|264:201,1,90,10|0,0:2|0:0,0:0:0:0:
197,336,80463,1,8,0:0:0:0:
211,318,80543,1,8,0:0:0:0:
218,297,80624,1,8,0:0:0:0:
217,275,80704,1,8,0:0:0:0:
209,254,80785,2,0,L|150:244,1,45,2|2,3:0|3:0,0:0:0:0:
102,184,80946,2,0,L|43:194,1,45,2|2,3:0|3:0,0:0:0:0:
4,257,81108,6,0,L|21:365,1,90,6|0,3:2|3:2,0:0:0:0:
165,246,81430,1,10,0:2:0:0:
72,103,81592,1,2,0:2:0:0:
72,103,81672,1,8,0:2:0:0:
72,103,81753,2,0,L|55:211,1,90,6|0,3:2|3:2,0:0:0:0:
207,115,82075,2,0,P|225:74|196:23,1,90,10|0,0:2|0:0,0:0:0:0:
176,14,82317,1,8,0:2:0:0:
176,14,82398,6,0,L|77:0,1,90,2|0,3:2|3:2,0:0:0:0:
180,212,82721,2,0,L|279:198,1,90,10|0,0:2|0:0,0:0:0:0:
298,177,82963,1,8,0:2:0:0:
298,177,83043,2,0,L|397:191,1,90,2|0,3:2|3:2,0:0:0:0:
508,290,83366,1,10,0:2:0:0:
499,103,83527,1,8,0:2:0:0:
499,103,83608,1,8,0:2:0:0:
499,103,83688,6,0,L|485:202,1,90,6|0,3:2|3:2,0:0:0:0:
362,98,84011,1,8,0:2:0:0:
512,0,84172,1,2,0:2:0:0:
512,0,84253,1,8,0:2:0:0:
512,0,84334,2,0,L|413:14,1,90,2|0,3:2|3:2,0:0:0:0:
243,83,84656,2,0,L|342:97,1,90,8|2,0:2|0:2,0:0:0:0:
362,98,84898,1,8,0:2:0:0:
362,98,84979,6,0,P|386:140|375:189,1,90,2|0,3:2|3:0,0:0:0:0:
230,284,85301,2,0,P|293:258|357:305,1,135,14|0,0:0|0:0,0:0:0:0:
286,358,85624,5,8,0:0:0:0:
275,360,85704,1,8,0:0:0:0:
264,363,85785,1,8,0:0:0:0:
253,366,85865,1,8,0:0:0:0:
242,368,85946,1,8,0:0:0:0:
231,371,86027,1,8,0:0:0:0:
220,374,86107,1,8,0:0:0:0:
209,376,86188,1,8,0:0:0:0:
198,379,86269,6,0,L|72:356,1,90,6|0,3:2|3:2,0:0:0:0:
30,236,86592,2,0,P|78:207|124:215,1,90,8|0,0:2|0:0,0:0:0:0:
146,197,86834,1,8,0:2:0:0:
146,197,86914,2,0,L|162:285,1,90,0|0,3:2|3:2,0:0:0:0:
28,126,87237,2,0,B|12:39|12:39|67:-3,1,135,8|0,0:2|0:0,0:0:0:0:
81,0,87559,6,0,L|169:16,1,90,2|0,3:2|3:2,0:0:0:0:
258,106,87882,2,0,L|346:89,1,90,10|0,0:2|0:0,0:0:0:0:
384,86,88124,1,8,0:2:0:0:
384,86,88205,2,0,P|394:37|371:3,1,90,2|0,3:2|3:2,0:0:0:0:
321,198,88527,1,14,0:2:0:0:
509,103,88688,1,8,0:2:0:0:
509,103,88769,1,8,0:2:0:0:
509,103,88850,6,0,L|490:208,1,90,6|0,3:2|3:2,0:0:0:0:
345,323,89172,2,0,L|326:218,1,90,8|0,0:2|0:0,0:0:0:0:
321,198,89414,1,8,0:2:0:0:
321,198,89495,2,0,P|354:168|423:185,1,90,0|0,3:2|3:2,0:0:0:0:
248,295,89817,2,0,L|148:280,1,90,8|0,0:2|0:0,0:0:0:0:
122,274,90059,1,8,0:0:0:0:
122,274,90140,6,0,P|95:228|110:186,1,90,2|0,3:2|3:2,0:0:0:0:
258,109,90463,2,0,P|212:136|170:121,1,90,10|0,0:2|0:0,0:0:0:0:
158,101,90705,1,8,0:0:0:0:
158,101,90785,2,0,L|178:-7,1,90,0|0,3:0|3:0,0:0:0:0:
24,99,91108,1,14,3:0:0:0:
22,110,91188,1,8,3:0:0:0:
20,121,91269,1,8,3:0:0:0:
18,132,91349,1,8,3:0:0:0:
16,143,91430,6,0,L|-4:251,1,90,6|0,3:2|0:0,0:0:0:0:
128,327,91753,1,10,0:0:0:0:
126,316,91833,1,8,0:0:0:0:
124,305,91914,1,8,0:0:0:0:
122,294,91994,1,8,0:0:0:0:
120,283,92075,2,0,L|100:175,1,90,14|0,0:0|0:0,0:0:0:0:
249,101,92398,1,10,0:0:0:0:
247,112,92478,1,8,0:0:0:0:
245,123,92559,1,8,0:0:0:0:
243,134,92639,1,8,0:0:0:0:
241,145,92720,6,0,L|221:253,1,90,14|0,0:0|0:0,0:0:0:0:
339,344,93043,1,10,0:0:0:0:
349,341,93123,1,8,0:0:0:0:
360,338,93204,1,8,0:0:0:0:
371,335,93284,1,8,0:0:0:0:
383,333,93366,2,0,L|392:288,1,45,6|4,3:0|3:0,0:0:0:0:
449,232,93527,2,0,L|440:187,1,45,4|4,3:0|3:0,0:0:0:0:
389,126,93688,2,0,L|344:117,3,45,6|4|4|4,3:0|3:0|3:0|3:0,0:0:0:0:
283,55,94011,6,0,L|167:81,1,90,6|0,3:2|3:0,0:0:0:0:
24,168,94334,2,0,P|65:183|106:167,1,90,8|8,0:0|0:0,0:0:0:0:
121,136,94575,1,8,0:0:0:0:
121,136,94656,2,0,L|95:20,1,90,0|0,3:0|3:0,0:0:0:0:
219,172,94979,2,0,L|184:326,1,135,8|0,0:0|0:0,0:0:0:0:
134,363,95301,5,10,0:0:0:0:
123,360,95381,1,8,0:0:0:0:
112,358,95462,1,8,0:0:0:0:
101,355,95542,1,8,0:0:0:0:
90,353,95623,1,10,0:0:0:0:
79,350,95704,1,8,0:0:0:0:
68,348,95784,1,8,0:0:0:0:
57,345,95865,1,8,0:0:0:0:
46,343,95946,2,0,L|34:291,1,45,2|2,3:0|3:0,0:0:0:0:
0,229,96108,2,0,L|12:177,1,45,2|2,3:0|3:0,0:0:0:0:
77,140,96269,2,0,L|129:152,3,45,2|2|2|2,3:0|3:0|3:0|3:0,0:0:0:0:
190,226,96592,6,0,L|278:205,1,76.5000014591217,6|0,3:2|3:2,0:0:0:0:
324,70,96914,2,0,P|272:98|261:145,1,76.5000014591217,8|0,0:2|3:2,0:0:0:0:
355,235,97237,2,0,P|355:176|321:143,1,76.5000014591217,8|0,0:2|3:2,0:0:0:0:
283,304,97559,5,12,0:2:0:0:
283,304,97721,2,0,L|304:392,1,76.5000014591217,12|2,0:2|3:2,0:0:0:0:
457,376,98043,1,12,0:2:0:0:
457,376,98205,2,0,L|478:288,1,76.5000014591217,12|2,0:2|3:2,0:0:0:0:
480,293,98446,1,2,3:2:0:0:
487,287,98527,2,0,L|469:212,1,76.5000014591217,8|2,0:2|3:2,0:0:0:0:
497,39,98850,2,0,P|515:71|511:109,1,76.5000014591217,8|2,0:2|3:2,0:0:0:0:
503,121,99092,1,2,3:2:0:0:
491,126,99172,6,0,L|416:143,1,76.5000014591217,6|0,3:2|3:2,0:0:0:0:
312,33,99495,2,0,L|386:50,1,76.5000014591217,8|0,0:2|3:2,0:0:0:0:
294,128,99817,2,0,L|219:145,1,76.5000014591217,8|0,0:2|3:2,0:0:0:0:
98,53,100140,5,12,0:2:0:0:
98,53,100301,2,0,L|115:127,1,76.5000014591217,12|2,0:2|3:2,0:0:0:0:
234,252,100624,1,12,0:2:0:0:
234,252,100785,2,0,L|216:326,1,76.5000014591217,12|2,0:2|3:2,0:0:0:0:
212,336,101027,1,2,3:2:0:0:
209,346,101108,2,0,P|172:363|130:352,1,76.5000014591217,8|2,0:2|3:2,0:0:0:0:
27,272,101430,2,0,P|64:255|106:266,1,76.5000014591217,8|2,0:2|3:2,0:0:0:0:
109,264,101672,1,2,3:2:0:0:
119,269,101753,6,0,L|137:195,1,76.5000014591217,8|0,0:2|3:2,0:0:0:0:
32,96,102075,2,0,L|50:170,1,76.5000014591217,8|0,0:2|3:2,0:0:0:0:
204,117,102398,2,0,L|130:99,1,76.5000014591217,8|0,0:2|3:2,0:0:0:0:
233,217,102721,5,12,0:2:0:0:
233,217,102882,2,0,L|307:199,1,76.5000014591217,12|2,0:2|3:2,0:0:0:0:
429,154,103205,1,12,0:2:0:0:
429,154,103366,2,0,L|411:228,1,76.5000014591217,12|2,0:2|3:2,0:0:0:0:
407,236,103608,1,2,3:2:0:0:
402,242,103688,2,0,L|420:316,1,76.5000014591217,8|2,0:2|3:2,0:0:0:0:
305,384,104011,2,0,L|323:310,1,76.5000014591217,8|2,0:2|3:2,0:0:0:0:
318,301,104253,1,2,3:2:0:0:
313,290,104334,6,0,P|268:284|234:317,1,76.5000014591217,8|0,0:2|3:2,0:0:0:0:
158,187,104656,2,0,P|139:219|147:256,1,76.5000014591217,8|0,0:2|3:2,0:0:0:0:
265,181,104979,2,0,P|283:148|275:111,1,76.5000014591217,8|0,0:2|3:2,0:0:0:0:
270,100,105221,1,0,0:0:0:0:
258,93,105301,2,0,L|175:83,1,76.5000014591217,12|12,0:2|0:2,0:0:0:0:
54,24,105624,6,0,L|44:82,3,38.2500007295609,0|0|0|0,3:2|3:2|3:2|3:2,0:0:0:0:
66,140,105946,1,10,0:2:0:0:
62,158,106026,1,8,0:0:0:0:
59,177,106107,1,0,3:2:0:0:
56,196,106187,1,0,3:2:0:0:
53,215,106269,2,0,L|63:273,3,38.2500007295609,2|2|2|2,3:2|3:2|3:2|3:2,0:0:0:0:
111,314,106592,1,8,0:0:0:0:
129,309,106672,1,8,0:0:0:0:
148,305,106753,1,8,0:0:0:0:
166,301,106833,1,8,0:0:0:0:
185,296,106914,6,0,B|235:288|235:288|261:303|261:303|329:292,2,135.000005149842,6|8|2,3:2|0:2|3:2,0:0:0:0:
285,208,107721,1,0,0:0:0:0:
163,136,107882,2,0,L|177:220,1,67.5000025749208,8|0,0:2|0:0,0:0:0:0:
241,81,108205,6,0,P|197:45|112:58,1,135.000005149842,2|8,3:2|0:2,0:0:0:0:
251,169,108688,1,0,0:0:0:0:
339,110,108850,6,0,L|328:44,1,67.5000025749208,2|0,3:2|0:0,0:0:0:0:
416,166,109495,6,0,P|362:204|297:196,2,135.000005149842,2|8|0,3:2|0:2|3:2,0:0:0:0:
341,109,110301,1,2,0:0:0:0:
440,6,110463,1,10,0:2:0:0:
440,6,110624,2,0,L|428:72,1,67.5000025749208,2|0,0:0|3:2,0:0:0:0:
341,109,110946,2,0,L|352:175,1,67.5000025749208,0|8,0:0|0:2,0:0:0:0:
395,299,111269,1,0,0:0:0:0:
395,299,111430,6,0,P|347:264|289:272,1,101.250003862381,6|0,3:2|0:0,0:0:0:0:
250,330,111753,2,0,P|288:298|338:295,1,101.250003862381,2|0,3:2|0:0,0:0:0:0:
237,349,112075,6,0,B|187:341|187:341|161:356|161:356|93:345,1,135.000005149842,6|8,3:2|0:2,0:0:0:0:
15,333,112559,1,0,0:0:0:0:
88,203,112721,2,0,L|76:269,1,67.5000025749208,2|0,3:2|0:0,0:0:0:0:
188,204,113043,2,0,L|176:137,1,67.5000025749208,8|0,0:2|0:0,0:0:0:0:
57,54,113366,6,0,P|122:62|175:23,1,135.000005149842,2|8,3:2|0:2,0:0:0:0:
264,135,113850,1,0,0:0:0:0:
336,0,114011,2,0,L|324:66,1,67.5000025749208,2|0,3:2|0:0,0:0:0:0:
427,160,114334,2,0,L|415:93,1,67.5000025749208,6|0,0:0|0:0,0:0:0:0:
307,238,114656,6,0,L|318:304,1,67.5000025749208,2|0,3:2|0:0,0:0:0:0:
407,258,114979,1,10,0:2:0:0:
296,155,115140,2,0,L|229:166,1,67.5000025749208,2|0,0:0|3:2,0:0:0:0:
134,182,115463,1,0,0:0:0:0:
226,284,115624,5,8,0:2:0:0:
164,97,115785,1,8,0:2:0:0:
164,97,116108,6,0,L|160:73,2,18,2|2|2,0:0|0:0|0:0,0:0:0:0:
134,182,116592,2,0,B|209:207|188:146|278:175,1,135,2|0,0:0|0:0,0:0:0:0:
335,80,117237,6,0,L|364:234,1,153.000002918243,6|8,3:2|0:2,0:0:0:0:
294,361,117721,1,0,0:0:0:0:
219,246,117882,2,0,L|118:227,1,76.5000014591217,2|0,3:2|0:0,0:0:0:0:
96,128,118205,2,0,L|171:113,1,76.5000014591217,8|0,0:2|0:0,0:0:0:0:
45,43,118527,6,0,P|1:103|10:177,1,153.000002918243,2|8,3:2|0:2,0:0:0:0:
132,249,119011,1,2,0:0:0:0:
171,113,119172,2,0,L|96:128,1,76.5000014591217,2|0,3:2|0:0,0:0:0:0:
239,52,119495,2,0,P|265:89|249:141,1,76.5000014591217,8|0,0:2|0:0,0:0:0:0:
224,237,119817,6,0,B|283:227|283:227|314:245|314:245|395:232,2,153.000002918243,6|8|0,3:2|0:2|3:2,0:0:0:0:
135,384,120624,1,0,0:0:0:0:
125,239,120785,1,10,0:2:0:0:
125,239,120946,1,2,0:0:0:0:
260,339,121108,6,0,L|335:324,1,76.5000014591217,2|0,3:2|0:0,0:0:0:0:
449,237,121430,2,0,L|373:222,1,76.5000014591217,8|0,0:2|0:0,0:0:0:0:
301,78,121753,2,0,P|327:115|311:167,1,76.5000014591217,2|0,3:2|0:0,0:0:0:0:
210,56,122075,2,0,P|229:14|282:2,1,76.5000014591217,10|0,0:2|0:0,0:0:0:0:
230,143,122398,6,0,B|143:169|164:113|81:135,1,153.000002918243,6|8,3:2|0:2,0:0:0:0:
0,259,122882,1,2,0:0:0:0:
117,216,123043,2,0,L|131:291,1,76.5000014591217,2|0,3:2|0:0,0:0:0:0:
241,307,123366,1,8,0:2:0:0:
154,380,123527,1,2,0:0:0:0:
205,218,123688,6,0,B|264:208|264:208|295:226|295:226|376:213,1,153.000002918243,2|8,3:2|0:2,0:0:0:0:
459,156,124172,1,2,0:0:0:0:
348,103,124334,1,2,3:2:0:0:
348,103,124495,1,2,0:0:0:0:
441,242,124656,2,0,P|477:251|511:235,1,76.5000014591217,10|0,0:2|0:0,0:0:0:0:
348,103,124979,6,0,L|332:188,1,76.5000014591217,6|0,3:2|0:0,0:0:0:0:
255,284,125301,1,10,0:2:0:0:
175,173,125463,2,0,L|203:22,1,153.000002918243,14|0,0:2|0:0,0:0:0:0:
66,93,125946,1,10,0:2:0:0:
66,93,126269,6,0,L|82:187,1,76.5000014591217,14|0,0:2|0:0,0:0:0:0:
98,260,126592,2,0,L|60:252,3,38.2500007295609,10|8|8|8,0:2|0:2|0:2|0:2,0:0:0:0:
168,202,126914,2,0,L|205:194,3,38.2500007295609,2|2|2|2,3:0|3:0|3:0|3:0,0:0:0:0:
157,327,127237,1,2,3:0:0:0:
169,324,127317,1,2,3:0:0:0:
182,322,127398,1,2,3:0:0:0:
195,320,127478,1,2,3:0:0:0:
208,317,127559,6,0,L|289:302,1,76.5000014591217,6|2,3:2|3:2,0:0:0:0:
403,278,127882,1,10,0:2:0:0:
330,158,128043,1,0,0:0:0:0:
330,158,128124,1,0,3:0:0:0:
330,158,128205,2,0,P|318:193|332:233,1,76.5000014591217,2|2,3:2|3:2,0:0:0:0:
447,142,128527,1,8,0:2:0:0:
325,53,128688,1,0,0:0:0:0:
325,53,128769,1,0,3:2:0:0:
325,53,128850,6,0,L|232:69,1,76.5000014591217,2|2,3:2|3:2,0:0:0:0:
70,99,129172,1,8,0:2:0:0:
176,0,129334,2,0,L|147:154,1,153.000002918243,6|2,3:2|3:2,0:0:0:0:
118,289,129817,1,10,0:2:0:0:
0,208,129979,1,2,0:0:0:0:
0,208,130060,1,0,3:2:0:0:
0,208,130141,6,0,P|35:196|75:210,1,76.5000014591217,6|2,3:2|3:2,0:0:0:0:
161,365,130463,1,8,0:2:0:0:
243,207,130624,1,0,0:0:0:0:
243,207,130705,1,0,3:0:0:0:
243,207,130785,2,0,L|227:300,1,76.5000014591217,2|2,3:2|3:2,0:0:0:0:
369,217,131108,1,8,0:2:0:0:
275,121,131269,1,2,3:2:0:0:
275,121,131350,1,0,3:2:0:0:
275,121,131430,6,0,P|239:109|203:121,1,76.5000014591217,2|0,3:2|3:2,0:0:0:0:
50,207,131753,1,10,0:2:0:0:
109,88,131914,1,2,3:2:0:0:
109,88,131995,1,0,3:0:0:0:
109,88,132075,2,0,L|124:178,2,76.5000014591217,8|2|2,0:2|3:2|3:2,0:0:0:0:
178,0,132559,1,2,3:2:0:0:
275,121,132721,6,0,P|311:133|347:121,1,76.5000014591217,6|0,3:2|3:2,0:0:0:0:
417,0,133043,1,10,0:2:0:0:
496,131,133205,1,0,0:0:0:0:
496,131,133286,1,0,3:2:0:0:
496,131,133366,2,0,L|480:224,1,76.5000014591217,2|2,3:2|3:2,0:0:0:0:
428,348,133688,1,8,0:2:0:0:
353,230,133850,1,0,3:2:0:0:
353,230,133931,1,0,3:2:0:0:
353,230,134012,6,0,P|318:218|278:232,1,76.5000014591217,2|0,3:2|3:2,0:0:0:0:
124,307,134334,1,10,0:2:0:0:
185,193,134495,2,0,L|201:286,1,76.5000014591217,6|0,0:0|3:2,0:0:0:0:
75,107,134817,1,2,3:2:0:0:
75,107,134898,1,2,3:2:0:0:
75,107,134979,6,0,B|162:133|141:77|224:99,1,153.000002918243,14|0,0:2|0:0,0:0:0:0:
353,230,135463,5,10,0:2:0:0:
415,62,135624,2,0,L|431:153,1,80.9999975280763,10|0,0:2|3:2,0:0:0:0:
291,294,135946,5,10,0:2:0:0:
229,126,136107,2,0,L|212:217,1,80.9999975280763,10|0,0:2|3:2,0:0:0:0:
54,327,136430,6,0,B|113:337|113:337|144:319|144:319|225:332,1,161.999995056153,14|10,0:2|0:2,0:0:0:0:
376,269,136914,1,10,0:2:0:0:
214,205,137075,1,10,0:2:0:0:
376,366,137237,5,8,0:2:0:0:
393,377,137317,1,8,0:2:0:0:
413,381,137398,1,8,0:2:0:0:
433,378,137478,1,8,0:2:0:0:
452,368,137560,2,0,L|462:301,3,40.4999987640381,8|8|8|8,0:2|0:2|0:2|0:2,0:0:0:0:
485,301,137882,6,0,L|468:212,1,90,6|0,3:2|3:2,0:0:0:0:
302,138,138205,2,0,P|341:159|383:145,1,90,8|0,0:2|0:0,0:0:0:0:
399,115,138447,1,8,0:2:0:0:
399,115,138527,2,0,L|382:10,1,90,2|0,3:2|3:2,0:0:0:0:
235,81,138850,2,0,P|214:120|250:208,1,135,8|8,0:2|0:0,0:0:0:0:
264,225,139172,6,0,L|159:242,1,90,2|0,3:2|3:2,0:0:0:0:
69,335,139495,2,0,P|90:296|76:254,1,90,10|0,0:2|0:0,0:0:0:0:
50,233,139737,1,8,0:2:0:0:
50,233,139817,2,0,P|36:191|57:152,1,90,2|0,3:2|3:2,0:0:0:0:
212,104,140140,1,14,0:2:0:0:
65,22,140301,1,8,0:2:0:0:
65,22,140382,1,8,0:2:0:0:
65,22,140463,6,0,B|132:12|132:12|167:23|167:23|242:10,1,180,6|8,3:2|0:2,0:0:0:0:
301,203,140946,1,0,0:0:0:0:
301,203,141027,1,8,0:2:0:0:
301,203,141108,2,0,L|212:188,1,90,2|0,3:2|3:2,0:0:0:0:
339,55,141430,1,8,0:2:0:0:
396,221,141592,1,0,0:0:0:0:
396,221,141672,1,8,0:0:0:0:
396,221,141753,5,2,3:2:0:0:
265,106,141914,1,0,3:2:0:0:
431,0,142075,2,0,L|416:89,1,90,10|0,0:2|0:0,0:0:0:0:
301,203,142398,5,8,0:0:0:0:
304,225,142478,1,8,0:0:0:0:
308,247,142559,1,8,0:0:0:0:
312,269,142639,1,8,0:0:0:0:
316,291,142721,2,0,L|302:364,1,45,2|2,3:0|3:0,0:0:0:0:
185,384,142882,2,0,L|171:310,1,45,2|2,3:0|3:0,0:0:0:0:
42,245,143043,6,0,P|107:268|191:199,1,180,6|10,3:2|0:2,0:0:0:0:
86,90,143527,1,2,0:2:0:0:
86,90,143608,1,8,0:2:0:0:
86,90,143689,2,0,L|101:179,1,90,6|0,3:2|3:2,0:0:0:0:
189,78,144011,1,10,0:2:0:0:
50,1,144172,1,0,0:0:0:0:
50,1,144253,1,8,0:2:0:0:
50,1,144334,6,0,P|92:-13|131:8,1,90,2|0,3:2|3:2,0:0:0:0:
223,150,144656,2,0,P|190:121|189:78,1,90,10|0,0:2|0:0,0:0:0:0:
209,52,144898,1,8,0:2:0:0:
209,52,144979,2,0,L|298:67,1,90,2|0,3:2|3:2,0:0:0:0:
480,146,145301,1,10,0:2:0:0:
406,0,145463,1,8,0:2:0:0:
406,0,145543,1,8,0:2:0:0:
406,0,145624,6,0,B|373:178,1,180,6|8,3:2|0:2,0:0:0:0:
276,279,146108,1,2,0:2:0:0:
276,279,146189,1,8,0:2:0:0:
276,279,146269,6,0,P|314:258|356:272,1,90,2|0,3:2|3:2,0:0:0:0:
259,384,146591,2,0,L|170:369,1,90,8|2,0:2|0:2,0:0:0:0:
136,359,146834,1,8,0:2:0:0:
136,359,146914,6,0,P|115:321|129:279,1,90,2|0,3:2|3:0,0:0:0:0:
268,173,147237,6,0,B|211:182|211:182|184:174|184:174|134:182,1,135,14|0,0:0|0:0,0:0:0:0:
47,240,147559,5,8,0:0:0:0:
45,229,147639,1,8,0:0:0:0:
42,218,147720,1,8,0:0:0:0:
39,207,147800,1,8,0:0:0:0:
37,196,147881,1,8,0:0:0:0:
34,185,147962,1,8,0:0:0:0:
31,174,148042,1,8,0:0:0:0:
29,163,148123,1,8,0:0:0:0:
26,151,148204,6,0,L|49:25,1,90,6|0,3:2|3:2,0:0:0:0:
230,0,148527,2,0,P|188:-13|150:7,1,90,8|0,0:2|0:0,0:0:0:0:
138,41,148769,1,8,0:2:0:0:
138,41,148850,2,0,L|154:129,1,90,0|0,3:2|3:2,0:0:0:0:
70,278,149172,6,0,P|119:231|185:244,1,135,8|0,0:2|0:0,0:0:0:0:
204,263,149495,2,0,L|188:351,1,90,2|0,3:2|3:2,0:0:0:0:
375,268,149817,1,10,0:2:0:0:
273,173,149979,1,2,0:0:0:0:
273,173,150059,1,8,0:2:0:0:
273,173,150140,2,0,L|289:261,1,90,2|0,3:2|3:2,0:0:0:0:
390,128,150463,1,14,0:2:0:0:
252,74,150624,1,8,0:2:0:0:
252,74,150705,1,8,0:2:0:0:
252,74,150786,6,0,B|185:64|185:64|150:75|150:75|75:62,1,180,6|8,3:2|0:2,0:0:0:0:
0,199,151269,1,0,0:0:0:0:
0,199,151349,1,8,0:2:0:0:
0,199,151430,2,0,L|88:183,1,90,0|0,3:2|3:2,0:0:0:0:
264,269,151753,1,8,0:2:0:0:
81,285,151914,1,0,0:0:0:0:
81,285,151995,1,8,0:0:0:0:
81,285,152075,5,2,3:2:0:0:
239,148,152237,1,0,3:2:0:0:
270,362,152398,2,0,P|229:381|184:368,1,90,10|0,0:2|0:0,0:0:0:0:
165,344,152640,1,8,0:0:0:0:
165,344,152721,2,0,L|181:256,1,90,0|0,3:0|3:0,0:0:0:0:
106,172,153043,1,14,3:0:0:0:
117,170,153123,1,8,3:0:0:0:
128,168,153204,1,8,3:0:0:0:
139,166,153284,1,8,3:0:0:0:
150,163,153365,6,0,L|258:143,1,90,6|0,3:2|0:0,0:0:0:0:
331,25,153688,1,10,0:0:0:0:
320,23,153768,1,8,0:0:0:0:
309,21,153849,1,8,0:0:0:0:
298,19,153929,1,8,0:0:0:0:
287,17,154010,6,0,L|179:-3,1,90,14|0,0:0|0:0,0:0:0:0:
23,37,154334,1,10,0:0:0:0:
16,54,154414,1,8,0:0:0:0:
13,71,154495,1,8,0:0:0:0:
16,89,154575,1,8,0:0:0:0:
24,105,154656,6,0,P|43:146|30:191,1,90,14|0,0:0|0:0,0:0:0:0:
0,349,154979,1,10,0:0:0:0:
11,347,155059,1,8,0:0:0:0:
22,345,155140,1,8,0:0:0:0:
33,343,155220,1,8,0:0:0:0:
44,341,155301,6,0,L|117:327,1,45,6|4,3:0|3:0,0:0:0:0:
195,255,155463,2,0,L|121:241,1,45,4|4,3:0|3:0,0:0:0:0:
230,361,155624,1,6,3:0:0:0:
251,370,155704,1,4,3:0:0:0:
273,373,155785,1,4,3:0:0:0:
295,369,155865,1,4,3:0:0:0:
316,358,155946,6,0,P|358:347|398:366,1,90,6|0,3:2|3:0,0:0:0:0:
512,249,156269,2,0,P|472:268|429:257,1,90,8|0,0:0|0:0,0:0:0:0:
408,228,156511,1,8,0:0:0:0:
408,228,156592,2,0,L|424:139,1,90,0|0,3:0|3:0,0:0:0:0:
273,6,156914,6,0,L|293:123,1,90,8|0,0:0|0:0,0:0:0:0:
296,127,157156,1,0,3:0:0:0:
296,127,157237,2,0,P|257:147|215:134,1,90,2|0,3:2|3:2,0:0:0:0:
36,196,157559,1,8,0:0:0:0:
222,243,157721,1,0,0:0:0:0:
122,105,157882,2,0,L|142:222,1,90,2|0,3:2|3:2,0:0:0:0:
111,331,158205,2,0,L|154:320,3,45,8|8|8|8,0:0|0:0|0:0|0:0,0:0:0:0:
18,300,158527,6,0,L|33:211,1,90,6|0,3:2|0:0,0:0:0:0:
87,25,158850,1,8,0:0:0:0:
87,25,159011,1,8,0:0:0:0:
182,165,159172,1,8,0:0:0:0:
182,165,159333,1,8,0:0:0:0:
18,122,159495,1,8,0:0:0:0:
18,122,159656,1,8,0:0:0:0:
182,9,159817,6,0,P|222:-10|265:1,1,90,8|8,0:0|0:0,0:0:0:0:
403,92,160140,1,8,0:0:0:0:
403,92,160301,1,8,0:0:0:0:
230,88,160463,1,8,0:0:0:0:
230,88,160624,1,8,0:0:0:0:
369,182,160785,1,8,0:0:0:0:
369,182,160946,1,8,0:0:0:0:
328,1,161108,6,0,L|312:89,1,90,14|0,0:0|3:0,0:0:0:0:
236,227,161430,1,0,3:0:0:0:
130,88,161592,2,0,L|145:176,1,90,14|0,0:0|3:0,0:0:0:0:
222,314,161913,1,0,3:0:0:0:
328,175,162075,2,0,L|312:263,1,90,14|0,0:0|0:0,0:0:0:0:
441,367,162398,6,0,P|398:377|358:358,1,90,2|0,3:2|3:0,0:0:0:0:
480,236,162721,2,0,P|457:273|415:288,1,90,0|0,3:0|3:0,0:0:0:0:
414,115,163043,2,0,P|424:157|405:197,1,90,0|0,3:0|3:0,0:0:0:0:
281,76,163366,2,0,P|318:98|333:140,1,90,0|0,3:0|3:0,0:0:0:0:
130,176,163688,5,6,3:2:0:0:
130,176,174011,6,0,P|201:132|242:151,1,135.000005149842,6|0,3:2|3:0,0:0:0:0:
117,363,174657,1,8,0:0:0:0:
117,363,174979,2,0,L|73:351,3,33.7500012874604,8|8|8|8,0:0|0:0|0:0|0:0,0:0:0:0:
29,285,175302,6,0,L|94:270,1,67.5000025749208,0|0,3:2|3:0,0:0:0:0:
130,176,175624,2,0,L|64:190,1,67.5000025749208,0|0,3:0|3:0,0:0:0:0:
0,92,175947,1,8,0:0:0:0:
0,92,176269,2,0,L|9:49,3,33.7500012874604,8|8|8|8,0:0|0:0|0:0|0:0,0:0:0:0:
65,0,176592,6,0,P|90:36|180:30,1,135.000005149842,0|0,3:2|3:0,0:0:0:0:
367,150,177237,1,8,0:0:0:0:
367,150,177560,2,0,L|319:165,3,33.7500012874604,8|8|8|8,0:0|0:0|0:0|0:0,0:0:0:0:
277,217,177882,6,0,L|199:192,1,67.5000025749208,0|0,3:2|3:0,0:0:0:0:
143,131,178205,2,0,L|65:155,1,67.5000025749208,0|0,3:0|3:0,0:0:0:0:
21,267,178528,1,8,0:0:0:0:
21,267,178850,1,8,0:0:0:0:
86,368,179011,1,8,0:0:0:0:
166,283,179173,6,0,P|221:262|287:313,1,135.000005149842,0|0,3:2|3:0,0:0:0:0:
512,384,179818,1,8,0:0:0:0:
512,384,180140,2,0,L|498:346,3,33.7500012874604,8|8|8|8,0:0|0:0|0:0|0:0,0:0:0:0:
432,305,180463,6,0,L|451:218,1,67.5000025749208,0|0,3:2|3:0,0:0:0:0:
512,165,180785,2,0,L|493:78,1,67.5000025749208,0|0,3:0|3:0,0:0:0:0:
392,17,181108,1,8,0:0:0:0:
392,17,181430,2,0,L|305:36,1,67.5000025749208,8|8,0:0|0:0,0:0:0:0:
262,216,181753,1,0,3:2:0:0:
262,216,182075,6,0,P|296:182|359:183,1,101.250003862381,8|0,0:0|0:0,0:0:0:0:
368,100,182398,6,0,P|410:121|429:182,1,101.250003862381,8|0,0:0|0:0,0:0:0:0:
511,164,182721,6,0,P|503:211|451:247,1,101.250003862381,8|0,0:0|0:0,0:0:0:0:
493,320,183043,6,0,P|445:327|395:289,1,101.250003862381,8|0,0:0|0:0,0:0:0:0:
339,351,183366,6,0,P|317:308|337:248,1,101.250003862381,12|0,0:0|0:0,0:0:0:0:
347,178,183688,5,0,3:0:0:0:
464,244,183850,1,0,3:0:0:0:
402,300,184011,1,0,3:0:0:0:
402,300,184172,1,0,3:0:0:0:
430,169,184334,6,0,L|393:6,1,135.000005149842,6|0,3:2|3:0,0:0:0:0:
303,0,184817,1,0,3:0:0:0:
303,0,184979,2,0,P|259:37|181:18,1,135.000005149842,8|0,0:0|3:0,0:0:0:0:
66,103,185463,6,0,L|146:119,1,67.5000025749208,0|2,3:0|3:2,0:0:0:0:
137,216,185785,1,0,3:2:0:0:
137,216,185946,2,0,L|57:200,1,67.5000025749208,2|0,3:2|3:2,0:0:0:0:
229,162,186269,1,10,0:2:0:0:
229,162,186592,2,0,L|245:242,1,67.5000025749208,0|0,3:0|3:0,0:0:0:0:
278,341,186914,6,0,P|235:330|166:386,1,135.000005149842,6|0,3:2|3:0,0:0:0:0:
94,319,187398,1,0,3:0:0:0:
94,319,187559,2,0,L|120:186,1,135.000005149842,8|0,0:0|3:0,0:0:0:0:
144,66,188043,6,0,L|74:88,1,67.5000025749208,0|2,3:0|3:2,0:0:0:0:
202,139,188366,1,0,3:2:0:0:
202,139,188527,2,0,L|266:118,1,67.5000025749208,2|0,3:2|3:2,0:0:0:0:
414,18,188850,6,0,L|365:2,1,33.7500012874604,10|0,0:2|0:0,0:0:0:0:
422,29,189172,2,0,L|357:8,1,67.5000025749208,8|2,0:0|3:2,0:0:0:0:
411,133,189495,6,0,L|384:288,1,135.000005149842,6|0,3:2|3:0,0:0:0:0:
310,342,189979,1,0,3:0:0:0:
310,342,190140,2,0,L|283:187,1,135.000005149842,8|0,0:0|3:0,0:0:0:0:
142,273,190624,6,0,L|227:287,1,67.5000025749208,0|2,3:0|3:2,0:0:0:0:
189,186,190946,1,0,3:2:0:0:
189,186,191108,2,0,L|103:171,1,67.5000025749208,2|0,3:2|3:2,0:0:0:0:
258,112,191430,1,10,0:2:0:0:
258,112,191753,2,0,L|246:45,1,67.5000025749208,0|0,3:0|3:0,0:0:0:0:
99,41,192075,6,0,L|127:205,1,135.000005149842,6|0,3:2|3:0,0:0:0:0:
193,251,192559,1,0,3:0:0:0:
193,251,192721,2,0,L|164:415,1,135.000005149842,8|0,0:0|3:0,0:0:0:0:
287,283,193205,6,0,L|301:365,1,67.5000025749208,0|2,3:0|3:2,0:0:0:0:
382,292,193527,1,0,3:2:0:0:
382,292,193688,2,0,L|396:209,1,67.5000025749208,2|0,3:2|3:2,0:0:0:0:
442,33,194011,2,0,L|453:99,1,67.5000025749208,10|0,0:2|3:0,0:0:0:0:
443,128,194253,1,0,3:0:0:0:
443,128,194334,2,0,P|411:137|380:124,1,67.5000025749208,0|0,3:0|3:0,0:0:0:0:
277,49,194656,6,0,L|253:194,3,135.000005149842,6|2|2|0,3:2|3:2|3:2|3:2,0:0:0:0:
137,294,195946,2,0,L|113:149,3,135.000005149842,2|2|2|0,3:2|3:2|3:2|3:2,0:0:0:0:
242,281,197237,6,0,P|286:295|375:237,3,135.000005149842,6|2|2|2,3:2|3:2|3:2|3:2,0:0:0:0:
406,133,198527,2,0,P|362:119|273:177,3,135.000005149842,0|0|2|0,3:2|3:2|3:2|3:2,0:0:0:0:
134,73,199817,6,0,B|170:112|170:112|150:192,1,135.000005149842,6|0,3:2|3:2,0:0:0:0:
16,266,200463,2,0,B|-20:227|-20:227|0:147,1,135.000005149842,0|0,3:2|3:2,0:0:0:0:
223,256,201108,6,0,P|178:293|100:275,1,135.000005149842,2|0,3:2|3:2,0:0:0:0:
232,156,201753,2,0,P|276:118|354:136,1,135.000005149842,2|0,3:2|3:2,0:0:0:0:
472,30,202398,5,6,3:2:0:0:
503,104,202721,1,2,3:2:0:0:
454,167,203043,1,0,3:2:0:0:
485,241,203366,1,0,3:2:0:0:
381,366,203688,5,0,3:2:0:0:
319,314,204011,1,2,3:2:0:0:
243,341,204334,1,2,3:2:0:0:
333,234,204656,5,10,0:0:0:0:
333,234,204979,1,0,3:2:0:0:
219,168,205140,5,8,0:0:0:0:
324,117,205301,2,0,L|394:130,1,67.5000025749208,8|0,0:0|3:2,0:0:0:0:
326,13,205624,5,8,0:0:0:0:
221,64,205785,2,0,L|151:51,1,67.5000025749208,8|0,0:0|3:2,0:0:0:0:
30,5,206108,6,0,L|68:152,1,135.000005149842,12|8,0:0|0:0,0:0:0:0:
143,235,206592,1,8,0:0:0:0:
31,294,206753,1,8,0:0:0:0:
140,360,206914,1,8,0:0:0:0:
148,358,206994,1,8,0:0:0:0:
156,356,207075,1,8,0:0:0:0:
164,354,207155,1,8,0:0:0:0:
173,353,207236,1,8,0:0:0:0:
181,351,207317,1,8,0:0:0:0:
189,349,207397,1,8,0:0:0:0:
197,348,207478,1,8,0:0:0:0:
206,346,207559,5,2,0:0:0:0:
206,346,209495,5,14,0:0:0:0:
181,155,209656,1,14,0:0:0:0:
315,295,209818,1,14,0:0:0:0:
124,261,209979,1,14,0:0:0:0:
299,176,211430,6,0,L|379:191,1,67.5000025749208,6|0,3:2|0:0,0:0:0:0:
441,202,211753,1,0,3:2:0:0:
469,207,212075,1,2,3:2:0:0:
498,213,212398,1,0,3:2:0:0:
383,49,212721,6,0,L|303:64,1,67.5000025749208,6|0,3:2|0:0,0:0:0:0:
240,75,213044,1,2,3:2:0:0:
212,80,213366,1,2,3:2:0:0:
183,86,213689,1,2,3:2:0:0:
321,298,214011,6,0,L|336:218,1,67.5000025749208,6|0,3:2|0:0,0:0:0:0:
347,155,214334,1,0,3:2:0:0:
218,384,214656,6,0,L|203:304,1,67.5000025749208,6|0,3:2|0:0,0:0:0:0:
192,241,214979,1,0,3:2:0:0:
48,330,215301,6,0,L|63:250,1,67.5000025749208,6|0,3:2|0:0,0:0:0:0:
74,187,215624,1,2,3:2:0:0:
79,159,215946,1,0,3:2:0:0:
85,131,216269,1,2,3:2:0:0:
286,31,216592,6,0,L|301:111,1,76.5000014591217,6|0,3:2|0:0,0:0:0:0:
410,193,216915,1,10,0:0:0:0:
406,211,216995,1,8,0:0:0:0:
402,230,217076,1,8,0:0:0:0:
399,249,217156,1,8,0:0:0:0:
395,268,217238,2,0,L|384:322,3,38.2500007295609,10|8|8|8,0:0|0:0|0:0|0:0,0:0:0:0:
309,340,217559,2,0,L|298:285,3,38.2500007295609,10|8|8|8,0:0|0:0|0:0|0:0,0:0:0:0:
243,240,217882,6,0,P|206:229|154:255,1,76.5000014591217,14|0,0:0|0:0,0:0:0:0:
61,277,218205,2,0,L|43:213,3,38.2500007295609,10|8|8|8,0:0|0:0|0:0|0:0,0:0:0:0:
0,178,218527,2,0,L|18:114,3,38.2500007295609,10|8|8|8,0:0|0:0|0:0|0:0,0:0:0:0:
67,87,218850,2,0,L|131:105,1,38.2500007295609,2|2,3:0|3:0,0:0:0:0:
170,142,219011,2,0,L|234:124,1,38.2500007295609,2|2,3:0|3:0,0:0:0:0:
266,72,219172,6,0,P|288:99|285:146,1,76.5000014591217,14|0,0:0|3:3,0:0:0:0:
208,236,219495,1,8,0:0:0:0:
323,288,219656,1,10,0:0:0:0:
323,288,219737,1,8,0:0:0:0:
323,288,219817,2,0,L|405:268,1,76.5000014591217,2|0,3:2|3:0,0:0:0:0:
491,190,220140,2,0,L|409:170,1,76.5000014591217,8|2,0:0|0:0,0:0:0:0:
341,54,220463,5,10,0:0:0:0:
322,58,220543,1,8,0:0:0:0:
303,63,220624,1,8,0:0:0:0:
285,67,220704,1,8,0:0:0:0:
266,72,220785,1,14,0:0:0:0:
266,72,221753,5,6,3:2:0:0:
232,182,221914,1,0,3:2:0:0:
169,79,222075,1,8,0:2:0:0:
135,189,222236,1,0,3:2:0:0:
345,157,222398,5,10,0:2:0:0:
311,267,222559,1,0,3:2:0:0:
442,150,222721,1,8,0:2:0:0:
408,260,222882,1,2,3:2:0:0:
408,260,222963,1,0,3:2:0:0:
408,260,223043,6,0,L|386:381,1,90,14|0,0:2|3:2,0:0:0:0:
311,267,223366,1,10,0:2:0:0:
277,377,223527,1,2,3:2:0:0:
199,293,223688,2,0,L|215:204,1,90,10|0,0:2|3:2,0:0:0:0:
266,72,224011,1,10,0:2:0:0:
135,189,224172,1,0,3:2:0:0:
135,189,224253,1,0,3:2:0:0:
135,189,224334,5,14,0:2:0:0:
169,79,224495,1,0,3:2:0:0:
38,196,224656,1,8,0:2:0:0:
72,86,224817,1,0,3:2:0:0:
232,182,224979,5,14,0:2:0:0:
198,292,225140,1,0,3:2:0:0:
135,189,225302,1,8,0:2:0:0:
101,299,225463,1,0,3:2:0:0:
101,299,225543,1,0,3:2:0:0:
101,299,225624,6,0,P|63:323|9:312,1,90,14|2,0:2|3:2,0:0:0:0:
198,292,225946,2,0,L|304:308,1,90,10|0,0:2|3:2,0:0:0:0:
452,377,226269,5,8,0:2:0:0:
486,267,226430,1,0,3:2:0:0:
355,384,226591,1,10,0:2:0:0:
389,274,226752,1,0,3:2:0:0:
389,274,226834,1,0,3:2:0:0:
389,274,226914,6,0,L|369:165,1,90,14|0,0:2|0:0,0:0:0:0:
277,86,227237,1,8,0:2:0:0:
275,97,227317,1,8,0:2:0:0:
273,108,227398,1,8,0:2:0:0:
271,119,227478,1,8,0:2:0:0:
269,130,227559,2,0,L|249:238,1,90,14|0,0:2|0:0,0:0:0:0:
157,318,227882,1,8,0:2:0:0:
155,307,227962,1,8,0:2:0:0:
153,296,228043,1,8,0:2:0:0:
151,285,228123,1,8,0:2:0:0:
149,274,228204,6,0,L|129:166,1,90,14|0,0:2|0:0,0:0:0:0:
88,61,228527,1,8,0:2:0:0:
97,55,228607,1,8,0:2:0:0:
108,53,228688,1,8,0:2:0:0:
119,53,228768,1,8,0:2:0:0:
130,57,228851,2,0,P|175:66|226:40,1,90,14|0,0:2|0:0,0:0:0:0:
345,11,229172,1,8,0:2:0:0:
339,20,229252,1,8,0:2:0:0:
337,31,229333,1,8,0:2:0:0:
337,42,229413,1,8,0:2:0:0:
341,53,229496,6,0,P|350:98|324:149,1,90,14|0,0:2|0:0,0:0:0:0:
239,230,229817,1,10,0:2:0:0:
250,232,229897,1,8,0:2:0:0:
261,234,229978,1,8,0:2:0:0:
272,237,230058,1,8,0:2:0:0:
283,239,230140,2,0,L|339:251,3,45,10|8|8|8,0:2|0:2|0:2|0:2,0:0:0:0:
382,312,230463,2,0,L|438:300,3,45,10|8|8|8,0:2|0:2|0:2|0:2,0:0:0:0:
474,230,230785,5,10,0:0:0:0:
471,218,230865,1,8,0:0:0:0:
469,207,230946,1,8,0:0:0:0:
466,196,231026,1,8,0:0:0:0:
464,185,231107,1,10,0:0:0:0:
462,174,231188,1,8,0:0:0:0:
459,163,231268,1,8,0:0:0:0:
457,152,231349,1,8,0:0:0:0:
455,141,231430,2,0,L|443:85,1,45,2|2,3:0|3:0,0:0:0:0:
376,54,231592,2,0,L|320:66,1,45,2|2,3:0|3:0,0:0:0:0:
271,119,231753,2,0,L|215:107,3,45,2|2|2|2,3:0|3:0|3:0|3:0,0:0:0:0:
171,45,232075,6,0,P|124:39|85:74,1,90,6|0,3:2|3:2,0:0:0:0:
0,218,232398,2,0,P|36:242|79:235,1,90,10|2,0:0|3:2,0:0:0:0:
113,222,232640,1,0,3:2:0:0:
113,222,232721,2,0,L|127:320,1,90,2|0,3:2|3:2,0:0:0:0:
268,384,233043,2,0,L|280:294,1,90,10|0,0:0|0:0,0:0:0:0:
297,59,233366,5,6,3:2:0:0:
402,279,233688,1,6,3:2:0:0:
182,384,234011,1,6,3:2:0:0:
77,164,234334,1,6,3:2:0:0:
372,160,234656,6,0,L|274:193,1,90,6|0,3:2|0:0,0:0:0:0:
187,111,234979,1,8,0:0:0:0:
187,111,235140,1,8,0:0:0:0:
178,233,235301,1,10,0:0:0:0:
178,233,235463,1,8,0:0:0:0:
77,164,235624,1,8,0:0:0:0:
77,164,235785,1,8,0:0:0:0:
169,355,235946,5,10,0:0:0:0:
178,233,236108,1,8,0:0:0:0:
279,302,236269,1,8,0:0:0:0:
288,180,236430,1,8,0:0:0:0:
389,249,236592,1,10,0:0:0:0:
398,127,236753,1,8,0:0:0:0:
499,196,236914,1,8,0:0:0:0:
508,74,237075,1,8,0:0:0:0:
407,5,237237,6,0,L|298:24,1,90,14|0,0:0|3:2,0:0:0:0:
192,38,237559,1,0,3:2:0:0:
398,127,237721,2,0,L|289:146,1,90,14|0,0:0|3:2,0:0:0:0:
183,160,238043,1,2,3:2:0:0:
257,343,238205,6,0,P|275:289|240:244,1,90,14|0,0:0|3:2,0:0:0:0:
183,160,238527,1,2,3:2:0:0:
0,234,238688,2,0,P|54:252|99:217,1,90,14|2,0:0|3:2,0:0:0:0:
183,160,239010,1,2,3:2:0:0:
43,30,239172,1,0,3:2:0:0:
26,45,239252,1,0,3:2:0:0:
17,65,239333,1,0,3:2:0:0:
15,88,239413,1,0,3:2:0:0:
21,109,239495,2,0,L|117:88,1,90,10|0,0:0|0:0,0:0:0:0:
347,0,239817,6,0,P|308:-11|259:15,1,76.5000014591217,6|0,3:2|3:2,0:0:0:0:
275,149,240140,2,0,P|304:120|306:65,1,76.5000014591217,8|0,0:2|3:2,0:0:0:0:
181,12,240463,2,0,P|190:51|237:80,1,76.5000014591217,8|0,0:2|3:2,0:0:0:0:
299,248,240785,5,12,0:2:0:0:
299,248,240946,2,0,L|222:235,1,76.5000014591217,12|2,0:2|3:2,0:0:0:0:
78,170,241269,1,12,0:2:0:0:
78,170,241430,2,0,L|155:157,1,76.5000014591217,12|2,0:2|3:2,0:0:0:0:
163,155,241672,1,2,3:2:0:0:
171,151,241753,2,0,P|177:111|145:67,1,76.5000014591217,8|2,0:2|3:2,0:0:0:0:
129,262,242075,2,0,L|142:339,1,76.5000014591217,8|2,0:2|3:2,0:0:0:0:
146,347,242317,1,2,3:2:0:0:
149,358,242398,6,0,L|224:345,1,76.5000014591217,6|0,3:2|3:2,0:0:0:0:
299,248,242721,2,0,L|224:235,1,76.5000014591217,8|0,0:2|3:2,0:0:0:0:
324,338,243043,2,0,L|399:325,1,76.5000014591217,8|0,0:2|3:2,0:0:0:0:
408,158,243366,5,12,0:2:0:0:
408,158,243527,2,0,P|390:191|397:228,1,76.5000014591217,12|2,0:2|3:2,0:0:0:0:
511,126,243850,1,12,0:2:0:0:
511,126,244011,2,0,P|517:89|500:55,1,76.5000014591217,12|2,0:2|3:2,0:0:0:0:
492,48,244253,1,2,3:2:0:0:
482,44,244334,2,0,L|400:31,1,76.5000014591217,8|2,0:2|3:2,0:0:0:0:
315,111,244656,2,0,L|233:124,1,76.5000014591217,8|2,0:2|3:2,0:0:0:0:
228,119,244898,1,2,3:2:0:0:
217,114,244979,6,0,P|198:147|209:186,1,76.5000014591217,8|0,0:2|3:2,0:0:0:0:
320,243,245301,2,0,P|338:276|327:315,1,76.5000014591217,8|0,0:2|3:2,0:0:0:0:
224,370,245624,2,0,L|134:351,1,76.5000014591217,8|0,0:2|3:2,0:0:0:0:
0,280,245946,5,12,0:2:0:0:
0,280,246108,2,0,L|90:261,1,76.5000014591217,12|2,0:2|3:2,0:0:0:0:
208,183,246430,1,12,0:2:0:0:
208,183,246592,2,0,L|118:164,1,76.5000014591217,12|2,0:2|3:2,0:0:0:0:
122,164,246834,1,0,3:0:0:0:
111,162,246914,2,0,P|93:128|110:75,1,76.5000014591217,8|2,0:2|3:2,0:0:0:0:
203,13,247237,1,8,0:2:0:0:
302,131,247398,2,0,L|317:35,1,76.5000014591217,8|0,0:2|3:0,0:0:0:0:
208,183,247721,5,8,0:0:0:0:
333,236,247882,2,0,L|408:224,1,76.5000014591217,8|0,0:0|3:0,0:0:0:0:
302,131,248205,5,8,0:0:0:0:
244,279,248366,2,0,L|256:354,1,76.5000014591217,8|0,0:0|3:0,0:0:0:0:
333,236,248688,5,8,0:0:0:0:
183,172,248850,2,0,L|108:184,1,76.5000014591217,8|0,0:0|3:0,0:0:0:0:
244,279,249172,5,12,0:0:0:0:
310,110,249334,2,0,L|298:35,1,76.5000014591217,12|0,0:0|3:0,0:0:0:0:
457,143,249656,5,14,0:0:0:0:
333,236,249817,1,14,0:0:0:0:
481,308,249979,1,14,0:0:0:0:
