osu file format v14

[General]
AudioFilename: audio.mp3
AudioLeadIn: 0
PreviewTime: 137761
Countdown: 0
SampleSet: Soft
StackLeniency: 0.4
Mode: 0
LetterboxInBreaks: 0
WidescreenStoryboard: 1

[Editor]
DistanceSpacing: 0.7
BeatDivisor: 4
GridSize: 32
TimelineZoom: 1.7

[Metadata]
Title:ReI
TitleUnicode:ReI
Artist:THE ORAL CIGARETTES
ArtistUnicode:THE ORAL CIGARETTES
Creator:Nevo
Version:Reflection
Source:
Tags:toc rel turquoisee Shirahane Suou torriru toybot sajinn dog food uniform japanese rock
BeatmapID:3010178
BeatmapSetID:1465638

[Difficulty]
HPDrainRate:6
CircleSize:4.2
OverallDifficulty:9
ApproachRate:9.3
SliderMultiplier:1.7
SliderTickRate:1

[Events]
//Background and Video events
0,0,"65735974_p0_master1200.jpg",0,0
//Break Periods
//Storyboard Layer 0 (Background)
//Storyboard Layer 1 (Fail)
//Storyboard Layer 2 (Pass)
//Storyboard Layer 3 (Foreground)
//Storyboard Layer 4 (Overlay)
//Storyboard Sound Samples

[TimingPoints]
32076,322.58064516129,4,2,1,80,1,0
42398,-100,4,2,1,70,0,0
42721,-125,4,2,1,70,0,0
43688,-100,4,2,1,70,0,0
44011,-125,4,2,1,70,0,0
44979,-100,4,2,1,70,0,0
45301,-125,4,2,1,70,0,0
46269,-100,4,2,1,70,0,0
46591,-125,4,2,1,70,0,0
47559,-100,4,2,1,70,0,0
48205,-125,4,2,1,70,0,0
52721,-100,4,2,1,70,0,0
63043,-100,4,2,1,75,0,0
70785,-90.9090909090909,4,2,1,75,0,0
75946,-76.9230769230769,4,2,1,90,0,1
78205,-90.9090909090909,4,2,1,90,0,1
78527,-76.9230769230769,4,2,1,90,0,1
96592,-76.9230769230769,4,2,1,80,0,0
106914,-100,4,2,1,70,0,0
109172,-142.857142857143,4,2,1,70,0,0
109495,-100,4,2,1,70,0,0
111430,-100,4,2,1,70,0,0
111672,-100,4,2,1,5,0,0
111753,-100,4,2,1,70,0,0
111995,-100,4,2,1,5,0,0
112075,-90.9090909090909,4,2,1,70,0,0
112398,-100,4,2,1,70,0,0
114334,-142.857142857143,4,2,1,70,0,0
114575,-100,4,2,1,5,0,0
114656,-100,4,2,1,70,0,0
116108,-133.333333333333,4,2,1,70,0,0
116834,-100,4,2,1,5,0,0
116914,-133.333333333333,4,2,1,70,0,0
117156,-100,4,2,1,5,0,0
117237,-83.3333333333333,4,2,1,75,0,0
117559,-90.9090909090909,4,2,1,75,0,0
118124,-100,4,2,1,5,0,0
118205,-90.9090909090909,4,2,1,75,0,0
124656,-111.111111111111,4,2,1,75,0,0
124979,-90.9090909090909,4,2,1,75,0,0
127559,-90.9090909090909,4,2,1,80,0,0
134979,-111.111111111111,4,2,1,80,0,0
136430,-83.3333333333333,4,2,1,80,0,0
136672,-83.3333333333333,4,2,1,5,0,0
136753,-83.3333333333333,4,2,1,80,0,0
137882,-74.0740740740741,4,2,1,90,0,1
143043,-86.9565217391304,4,2,1,90,0,1
148205,-80,4,2,1,90,0,1
150785,-74.0740740740741,4,2,1,90,0,1
163688,-153.846153846153,4,2,1,70,0,0
181430,-117.647058823529,4,2,1,70,0,0
182075,-117.647058823529,4,2,1,75,0,0
182237,-117.647058823529,4,2,1,5,0,0
182398,-95.2380952380949,4,2,1,75,0,0
182559,-117.647058823529,4,2,1,5,0,0
182640,-80,4,2,1,75,0,0
182882,-117.647058823529,4,2,1,5,0,0
183043,-74.0740740740741,4,2,1,75,0,0
183205,-117.647058823529,4,2,1,5,0,0
183366,-74.0740740740741,4,2,1,75,0,0
183527,-117.647058823529,4,2,1,5,0,0
183688,-74.0740740740741,4,2,1,75,0,0
184334,-125,4,2,1,75,0,0
184575,-125,4,2,1,5,0,0
184656,-125,4,2,1,75,0,0
185866,-125,4,2,1,5,0,0
185947,-125,4,2,1,75,0,0
189737,-125,4,2,1,5,0,0
189818,-125,4,2,1,75,0,0
191027,-125,4,2,1,5,0,0
191108,-125,4,2,1,75,0,0
194656,-111.111111111111,4,2,1,75,0,0
199817,-99.9999999999999,4,2,1,75,0,0
202237,-90.9090909090909,4,2,1,75,0,0
207559,-133.333333333333,4,2,1,60,0,0
209495,-133.333333333333,4,2,1,70,0,0
211269,-133.333333333333,4,2,1,30,0,0
211430,-133.333333333333,4,2,1,75,0,0
216592,-86.9565217391303,4,2,1,75,0,0
221108,-133.333333333333,4,2,1,75,0,0
221350,-133.333333333333,4,2,1,5,0,0
221430,-133.333333333333,4,2,1,75,0,0
221592,-133.333333333333,4,2,1,30,0,0
221753,-71.4285714285714,4,2,1,90,0,1
225624,-76.9230769230769,4,2,1,90,0,1
233608,-76.9230769230769,4,2,1,5,0,1
233688,-76.9230769230769,4,2,1,90,0,1
234253,-76.9230769230769,4,2,1,5,0,1
234333,-76.9230769230769,4,2,1,90,0,1
239817,-90.9090909090909,4,2,1,80,0,0

[Colours]
Combo1 : 192,192,192
Combo2 : 255,128,64
Combo3 : 0,159,236

[HitObjects]
115,330,32076,5,6,3:2:0:0:
332,278,32237,1,0,3:2:0:0:
196,191,32398,1,8,0:2:0:0:
285,198,32559,1,0,3:2:0:0:
207,376,32721,2,0,P|210:334|221:293,1,85,8|0,0:2|3:2,0:0:0:0:
370,135,33043,5,12,0:2:0:0:
98,169,33205,2,0,L|117:270,1,85,12|2,0:2|3:2,0:0:0:0:
11,80,33527,5,12,0:2:0:0:
271,159,33688,2,0,L|286:75,1,85,12|2,0:2|3:2,0:0:0:0:
286,75,33930,1,2,3:2:0:0:
286,75,34011,1,8,0:2:0:0:
442,233,34172,1,2,3:2:0:0:
442,233,34253,1,2,3:2:0:0:
442,233,34334,1,8,0:2:0:0:
415,113,34495,1,2,3:2:0:0:
415,113,34576,1,2,3:2:0:0:
415,113,34656,5,6,3:2:0:0:
288,248,34817,1,0,3:2:0:0:
176,124,34979,1,8,0:2:0:0:
282,145,35140,1,0,3:2:0:0:
152,327,35301,2,0,P|111:338|69:331,1,85,8|0,0:2|3:2,0:0:0:0:
197,248,35624,5,12,0:2:0:0:
438,363,35785,2,0,L|449:279,1,85,12|2,0:2|3:2,0:0:0:0:
401,110,36108,5,12,0:2:0:0:
99,240,36269,2,0,L|88:155,1,85,12|2,0:2|3:2,0:0:0:0:
88,155,36511,1,2,3:2:0:0:
88,155,36592,1,8,0:2:0:0:
306,244,36753,1,2,3:2:0:0:
306,244,36834,1,2,3:2:0:0:
306,244,36914,1,8,0:2:0:0:
152,327,37075,1,2,3:2:0:0:
152,327,37156,1,2,3:2:0:0:
152,327,37237,5,8,0:2:0:0:
250,173,37398,1,0,3:2:0:0:
91,93,37559,1,8,0:2:0:0:
153,202,37721,1,0,3:2:0:0:
225,0,37882,2,0,P|231:56|219:89,1,85,8|0,0:2|3:2,0:0:0:0:
3,64,38205,5,12,0:2:0:0:
43,301,38366,2,0,L|129:288,1,85,12|2,0:2|3:2,0:0:0:0:
348,377,38688,5,12,0:2:0:0:
386,139,38850,2,0,L|300:126,1,85,12|2,0:2|3:2,0:0:0:0:
301,126,39092,1,2,3:2:0:0:
301,126,39172,1,8,0:2:0:0:
180,222,39334,1,2,3:2:0:0:
180,222,39414,1,2,3:2:0:0:
180,222,39495,1,8,0:2:0:0:
96,78,39656,1,2,3:2:0:0:
96,78,39737,1,2,3:2:0:0:
96,78,39817,5,8,0:2:0:0:
322,42,39979,1,0,3:2:0:0:
41,156,40140,1,8,0:2:0:0:
307,226,40301,1,0,3:2:0:0:
177,44,40463,1,8,0:2:0:0:
79,256,40624,1,0,3:2:0:0:
235,130,40785,5,12,0:2:0:0:
212,362,40946,2,0,L|185:252,1,85,12|2,0:2|3:2,0:0:0:0:
171,245,41188,1,2,3:2:0:0:
171,245,41269,2,0,L|178:198,1,42.5,14|0,0:2|0:0,0:0:0:0:
315,141,41430,2,0,P|276:146|221:117,1,85,14|0,0:2|3:2,0:0:0:0:
394,38,41753,1,10,0:2:0:0:
427,63,41833,1,8,0:2:0:0:
447,100,41914,1,8,0:2:0:0:
449,142,41994,1,8,0:2:0:0:
433,181,42075,2,0,L|447:231,3,42.5,2|2|2|2,3:0|3:0|3:0|3:0,0:0:0:0:
491,296,42398,6,0,P|438:267|339:264,1,127.5,6|0,3:2|0:0,0:0:0:0:
295,299,42721,2,0,L|395:286,1,68,8|0,0:2|0:0,0:0:0:0:
253,375,43043,1,2,3:2:0:0:
223,243,43205,1,0,3:2:0:0:
166,362,43366,2,0,L|66:349,1,68,8|0,0:2|0:0,0:0:0:0:
0,179,43688,6,0,P|-5:116|26:62,1,127.5,2|0,3:2|0:0,0:0:0:0:
123,34,44011,2,0,L|106:120,1,68,8|0,0:2|0:0,0:0:0:0:
241,153,44334,1,2,3:2:0:0:
124,185,44495,1,0,3:2:0:0:
223,242,44656,2,0,P|263:244|301:228,1,68,8|0,0:2|0:0,0:0:0:0:
350,40,44979,6,0,B|328:49|317:78|317:78|341:177,1,127.5,2|0,3:2|0:0,0:0:0:0:
411,205,45301,2,0,L|428:123,1,68,8|0,0:2|0:0,0:0:0:0:
456,277,45624,1,0,3:2:0:0:
334,151,45785,1,2,3:2:0:0:
257,281,45946,1,10,0:2:0:0:
335,240,46108,1,2,0:0:0:0:
171,334,46269,6,0,L|342:316,1,170,2|8,3:2|0:2,0:0:0:0:
423,355,46753,1,0,0:0:0:0:
177,245,46914,2,0,L|95:231,1,68,2|0,3:2|3:2,0:0:0:0:
333,150,47237,2,0,L|415:136,1,68,10|0,0:2|0:2,0:0:0:0:
236,22,47559,6,0,B|230:63|230:63|245:95|245:95|242:124|242:124|257:200,1,170,6|8,3:2|0:2,0:0:0:0:
283,277,48043,1,2,0:0:0:0:
420,381,48205,2,0,P|483:354|505:291,1,136,2|8,3:2|0:2,0:0:0:0:
454,190,48688,1,0,0:0:0:0:
283,277,48850,6,0,P|351:283|418:298,1,136,2|8,3:2|0:2,0:0:0:0:
204,346,49334,1,0,0:0:0:0:
108,225,49495,2,0,P|93:188|92:144,1,68,2|0,3:2|3:2,0:0:0:0:
214,104,49817,2,0,P|209:137|196:168,1,68,10|0,0:2|0:0,0:0:0:0:
101,75,50140,6,0,L|255:58,1,136,2|8,3:2|0:2,0:0:0:0:
406,27,50624,1,2,0:0:0:0:
406,27,50785,2,0,P|407:68|392:103,1,68,0|0,3:2|3:2,0:0:0:0:
342,180,51108,1,10,0:2:0:0:
438,256,51269,2,0,L|500:244,1,34
324,188,51430,6,0,P|252:167|171:156,1,136,2|0,3:2|3:2,0:0:0:0:
26,197,51914,1,8,0:2:0:0:
186,239,52075,1,2,3:2:0:0:
53,178,52237,1,0,0:0:0:0:
228,117,52398,1,2,3:2:0:0:
32,80,52559,1,8,0:2:0:0:
160,341,52721,6,0,P|242:343|304:287,1,170,6|8,3:2|0:2,0:0:0:0:
310,159,53205,1,0,0:0:0:0:
204,254,53366,2,0,L|116:236,1,85,2|0,3:2|3:2,0:0:0:0:
300,359,53688,2,0,L|388:341,1,85,8|0,0:2|0:0,0:0:0:0:
468,86,54011,6,0,P|428:162|440:232,1,127.5,2|0,3:2|0:0,0:0:0:0:
442,279,54334,2,0,P|466:232|460:196,1,85,8|0,0:2|0:0,0:0:0:0:
368,72,54656,1,2,3:2:0:0:
368,72,54817,1,0,3:2:0:0:
198,168,54979,2,0,L|207:262,1,85,8|0,0:2|0:0,0:0:0:0:
57,95,55301,6,0,B|99:72|99:72|150:86|150:86|229:75,1,170,2|8,3:2|0:2,0:0:0:0:
293,23,55785,1,0,0:0:0:0:
328,154,55946,1,0,3:2:0:0:
328,154,56108,1,2,3:2:0:0:
218,76,56269,1,10,0:2:0:0:
198,168,56430,1,2,0:0:0:0:
368,76,56592,6,0,P|418:64|514:127,1,170,2|8,3:2|0:2,0:0:0:0:
508,250,57075,1,0,0:0:0:0:
418,166,57237,2,0,L|410:269,1,85,2|0,3:2|3:2,0:0:0:0:
200,183,57559,2,0,L|208:286,1,85,10|2,0:2|0:2,0:0:0:0:
127,353,57801,1,2,0:2:0:0:
127,353,57882,6,0,B|83:332|83:332|125:288|208:296,1,170,2|8,3:2|0:2,0:0:0:0:
342,357,58366,1,0,0:0:0:0:
436,313,58527,2,0,P|463:274|473:210,1,85,2|0,3:2|3:2,0:0:0:0:
405,137,58850,1,8,0:2:0:0:
345,219,59011,1,2,0:0:0:0:
271,82,59172,6,0,L|187:67,1,85,2|0,3:2|0:0,0:0:0:0:
110,225,59495,2,0,L|207:211,1,85,8|2,0:2|0:0,0:0:0:0:
445,225,59817,1,2,3:2:0:0:
254,291,59979,1,2,3:2:0:0:
460,213,60140,2,0,B|482:109|482:109|477:71,1,127.5,10|0,0:2|0:0,0:0:0:0:
435,25,60463,6,0,L|449:142,1,85,2|0,3:2|0:0,0:0:0:0:
313,1,60785,1,8,0:2:0:0:
220,123,60946,2,0,P|148:138|63:75,1,170,2|0,0:0|3:2,0:0:0:0:
313,100,61430,2,0,L|298:189,1,85,14|0,0:2|0:0,0:0:0:0:
265,350,61753,5,8,0:2:0:0:
128,264,61914,1,8,0:2:0:0:
128,264,61995,1,8,0:2:0:0:
128,264,62075,1,8,0:2:0:0:
338,252,62237,1,8,0:2:0:0:
74,160,62398,1,2,3:0:0:0:
36,193,62478,1,2,3:0:0:0:
17,240,62559,1,2,3:0:0:0:
20,290,62639,1,2,3:0:0:0:
45,334,62720,1,2,3:0:0:0:
86,363,62801,1,2,3:0:0:0:
136,371,62881,1,2,3:0:0:0:
184,356,62962,1,2,3:0:0:0:
221,321,63043,5,6,3:2:0:0:
156,84,63205,1,0,3:2:0:0:
291,186,63366,2,0,L|165:176,1,85,8|0,0:2|3:2,0:0:0:0:
206,179,63608,1,0,3:2:0:0:
206,179,63688,1,2,3:2:0:0:
386,298,63850,1,2,3:2:0:0:
442,103,64011,1,8,0:2:0:0:
305,270,64172,6,0,P|307:335|322:360,1,85,2|0,0:0|3:2,0:0:0:0:
154,258,64495,2,0,P|109:305|102:333,1,85,2|8,3:2|0:2,0:0:0:0:
82,129,64817,1,2,3:2:0:0:
40,124,64897,1,0,3:2:0:0:
0,139,64978,1,0,3:2:0:0:
206,179,65140,1,2,3:2:0:0:
335,90,65301,2,0,L|435:78,1,85,10|0,0:2|0:0,0:0:0:0:
316,300,65624,5,6,3:2:0:0:
209,93,65785,1,0,3:2:0:0:
162,274,65946,1,8,0:2:0:0:
376,217,66108,1,0,3:2:0:0:
376,217,66188,1,0,3:2:0:0:
376,217,66269,1,0,3:2:0:0:
193,187,66430,1,0,3:2:0:0:
222,369,66592,1,8,0:2:0:0:
295,142,66753,1,2,0:2:0:0:
295,142,66834,1,2,0:2:0:0:
295,142,66914,6,0,P|299:76|294:44,1,85,2|0,3:2|3:2,0:0:0:0:
61,17,67237,1,10,0:2:0:0:
194,98,67398,1,2,3:2:0:0:
194,98,67479,1,0,3:2:0:0:
194,98,67559,1,0,3:2:0:0:
17,165,67721,1,0,3:2:0:0:
193,274,67882,1,8,0:2:0:0:
234,266,67962,1,8,0:2:0:0:
276,259,68043,1,8,0:2:0:0:
318,251,68123,1,8,0:2:0:0:
360,244,68204,5,6,3:2:0:0:
164,182,68366,1,0,3:2:0:0:
76,294,68527,2,0,L|54:398,1,85,8|2,0:2|3:2,0:0:0:0:
58,377,68769,1,0,3:2:0:0:
58,377,68850,1,2,3:2:0:0:
227,349,69011,1,2,3:2:0:0:
0,262,69172,1,8,0:2:0:0:
245,235,69334,6,0,P|261:183|254:142,1,85,2|0,0:2|3:2,0:0:0:0:
85,30,69656,2,0,P|122:69|161:84,1,85,2|8,3:2|0:0,0:0:0:0:
346,7,69979,1,2,3:2:0:0:
304,13,70059,1,0,3:0:0:0:
268,36,70140,1,0,3:0:0:0:
443,124,70301,1,2,3:2:0:0:
348,190,70463,2,0,L|330:77,1,85,10|0,0:2|3:0,0:0:0:0:
257,153,70705,1,0,3:0:0:0:
257,153,70785,6,0,L|275:258,1,93.5000028533936,6|0,3:2|3:2,0:0:0:0:
403,326,71108,1,10,0:2:0:0:
172,286,71269,1,2,3:2:0:0:
172,286,71350,1,0,3:2:0:0:
172,286,71430,1,0,3:2:0:0:
348,190,71592,1,0,3:2:0:0:
74,223,71753,1,10,0:2:0:0:
249,331,71914,1,2,3:2:0:0:
249,331,71995,1,0,3:2:0:0:
249,331,72075,5,0,3:2:0:0:
148,139,72237,1,0,3:2:0:0:
70,351,72398,1,8,0:2:0:0:
257,153,72559,1,0,3:2:0:0:
78,57,72721,1,8,0:2:0:0:
50,94,72801,1,8,0:2:0:0:
40,139,72882,1,0,3:2:0:0:
48,185,72962,1,0,3:2:0:0:
74,223,73043,2,0,L|93:337,1,93.5000028533936,8|2,0:2|0:0,0:0:0:0:
420,217,73366,5,14,0:2:0:0:
148,139,73527,1,0,3:2:0:0:
340,68,73688,1,0,3:2:0:0:
168,252,73850,5,10,0:2:0:0:
427,128,74011,1,0,3:2:0:0:
207,51,74172,1,2,3:2:0:0:
405,308,74334,5,10,0:2:0:0:
462,26,74495,1,10,0:2:0:0:
471,12,74817,5,8,0:2:0:0:
148,139,74979,1,10,0:2:0:0:
479,246,75301,5,10,0:2:0:0:
442,218,75381,1,8,0:2:0:0:
396,211,75462,1,10,0:2:0:0:
353,227,75542,1,8,0:2:0:0:
323,263,75623,1,8,0:2:0:0:
286,292,75704,1,8,0:2:0:0:
240,299,75785,1,8,0:2:0:0:
197,283,75865,1,8,0:2:0:0:
167,247,75946,6,0,P|159:181|133:100,1,110.499994941712,6|0,3:2|3:2,0:0:0:0:
0,354,76269,2,0,P|70:325|113:315,1,110.499994941712,8|0,0:2|0:0,0:0:0:0:
103,316,76511,1,8,0:2:0:0:
103,316,76592,1,0,3:2:0:0:
377,363,76753,1,0,3:2:0:0:
284,235,76914,2,0,B|265:198|265:198|277:128,1,110.499994941712,8|0,0:2|0:0,0:0:0:0:
414,5,77237,6,0,L|306:25,1,110.499994941712,2|0,3:2|3:2,0:0:0:0:
72,120,77559,2,0,L|180:139,1,110.499994941712,10|0,0:2|0:0,0:0:0:0:
0,73,77801,1,8,0:2:0:0:
0,73,77882,2,0,P|-13:139|22:197,1,110.499994941712,2|0,3:2|3:2,0:0:0:0:
182,229,78205,2,0,P|108:214|57:233,1,93.5000028533936,14|8,0:2|0:2,0:0:0:0:
12,275,78446,1,8,0:2:0:0:
12,275,78527,6,0,L|31:395,1,110.499994941712,6|0,3:2|3:2,0:0:0:0:
270,350,78850,1,8,0:2:0:0:
127,298,79011,1,0,0:0:0:0:
383,227,79172,2,0,L|364:347,1,110.499994941712,2|0,3:2|3:2,0:0:0:0:
245,167,79495,1,8,0:2:0:0:
489,107,79656,1,0,0:0:0:0:
489,107,79737,1,8,0:0:0:0:
489,107,79817,5,2,3:2:0:0:
331,20,79979,1,0,3:2:0:0:
282,260,80140,2,0,B|250:270|250:270|142:244,1,110.499994941712,10|0,0:2|0:0,0:0:0:0:
47,89,80463,5,8,0:0:0:0:
102,96,80543,1,8,0:0:0:0:
157,103,80624,1,8,0:0:0:0:
211,109,80704,1,8,0:0:0:0:
247,143,80785,5,2,3:0:0:0:
291,137,80865,1,2,3:0:0:0:
335,132,80946,1,2,3:0:0:0:
378,126,81026,1,2,3:0:0:0:
424,118,81108,6,0,P|430:176|411:234,1,110.499994941712,6|0,3:2|3:2,0:0:0:0:
303,373,81430,1,10,0:2:0:0:
178,252,81592,1,2,0:2:0:0:
178,252,81672,1,8,0:2:0:0:
178,252,81753,2,0,L|52:228,1,110.499994941712,6|0,3:2|3:2,0:0:0:0:
342,289,82075,2,0,L|462:260,1,110.499994941712,10|0,0:2|0:0,0:0:0:0:
147,57,82398,6,0,B|133:100|133:100|153:187,1,110.499994941712,2|0,3:2|3:2,0:0:0:0:
365,25,82721,2,0,B|379:68|379:68|359:155,1,110.499994941712,10|0,0:2|0:0,0:0:0:0:
364,131,82963,1,8,0:2:0:0:
364,131,83043,1,2,3:2:0:0:
54,95,83205,1,0,3:2:0:0:
259,22,83366,1,10,0:2:0:0:
199,261,83527,1,8,0:2:0:0:
199,261,83608,1,8,0:2:0:0:
199,261,83688,6,0,L|177:144,1,110.499994941712,6|0,3:2|3:2,0:0:0:0:
363,60,84011,1,8,0:2:0:0:
314,348,84172,1,2,0:2:0:0:
314,348,84253,1,8,0:2:0:0:
314,348,84334,2,0,L|336:231,1,110.499994941712,2|0,3:2|3:2,0:0:0:0:
278,116,84656,1,8,0:2:0:0:
458,177,84817,1,2,0:2:0:0:
458,177,84898,1,8,0:2:0:0:
458,177,84979,5,2,3:2:0:0:
279,15,85140,1,0,3:0:0:0:
121,175,85301,2,0,P|57:197|7:172,1,110.499994941712,14|0,0:0|0:0,0:0:0:0:
167,68,85624,1,8,0:0:0:0:
205,96,85704,1,8,0:0:0:0:
229,137,85784,1,8,0:0:0:0:
231,184,85865,1,8,0:0:0:0:
211,226,85945,1,8,0:0:0:0:
189,269,86027,1,8,0:0:0:0:
187,316,86108,1,8,0:0:0:0:
207,358,86188,1,8,0:0:0:0:
248,384,86269,6,0,L|283:258,1,110.499994941712,6|0,3:2|3:2,0:0:0:0:
454,132,86592,2,0,L|476:243,1,110.499994941712,8|0,0:2|0:0,0:0:0:0:
475,240,86834,1,8,0:2:0:0:
475,240,86914,1,0,3:2:0:0:
356,79,87075,1,0,3:2:0:0:
272,252,87237,2,0,L|253:391,1,110.499994941712,8|0,0:2|0:0,0:0:0:0:
350,176,87559,6,0,P|287:152|227:153,1,110.499994941712,2|0,3:2|3:2,0:0:0:0:
60,218,87882,1,10,0:2:0:0:
95,39,88043,1,0,0:0:0:0:
95,39,88124,1,8,0:2:0:0:
95,39,88205,1,2,3:2:0:0:
244,150,88366,1,0,3:2:0:0:
77,327,88527,2,0,L|58:207,1,110.499994941712,14|8,0:2|0:2,0:0:0:0:
30,109,88769,5,8,0:2:0:0:
30,109,88850,2,0,P|88:134|142:123,1,110.499994941712,6|0,3:2|3:2,0:0:0:0:
226,3,89172,1,8,0:2:0:0:
230,272,89334,1,0,0:0:0:0:
230,272,89414,1,8,0:2:0:0:
230,272,89495,2,0,P|288:248|319:202,1,110.499994941712,0|0,3:2|3:2,0:0:0:0:
95,39,89817,1,8,0:2:0:0:
485,171,89979,1,0,0:0:0:0:
485,171,90059,1,8,0:0:0:0:
485,171,90140,6,0,P|510:112|499:59,1,110.499994941712,2|0,3:2|3:2,0:0:0:0:
273,92,90463,2,0,L|385:104,1,110.499994941712,10|0,0:2|0:0,0:0:0:0:
382,103,90705,1,8,0:0:0:0:
382,103,90785,1,0,3:0:0:0:
172,7,90946,1,0,3:0:0:0:
61,222,91108,1,14,3:0:0:0:
89,254,91188,1,8,3:0:0:0:
130,271,91269,1,8,3:0:0:0:
173,268,91349,1,8,3:0:0:0:
207,239,91430,6,0,L|194:121,1,110.499994941712,6|0,3:2|0:0,0:0:0:0:
456,255,91753,1,10,0:0:0:0:
428,287,91833,1,8,0:0:0:0:
387,304,91914,1,8,0:0:0:0:
344,301,91994,1,8,0:0:0:0:
310,272,92075,6,0,L|323:154,1,110.499994941712,14|0,0:0|0:0,0:0:0:0:
73,331,92398,1,10,0:0:0:0:
101,363,92478,1,8,0:0:0:0:
142,380,92559,1,8,0:0:0:0:
185,377,92639,1,8,0:0:0:0:
219,348,92720,6,0,L|206:230,1,110.499994941712,14|0,0:0|0:0,0:0:0:0:
295,33,93043,1,10,0:0:0:0:
330,18,93123,1,8,0:0:0:0:
368,13,93204,1,8,0:0:0:0:
406,20,93284,1,8,0:0:0:0:
441,37,93366,2,0,L|454:98,3,55.2499974708558,6|4|4|4,3:0|3:0|3:0|3:0,0:0:0:0:
354,160,93688,2,0,L|365:105,3,55.2499974708558,6|4|4|4,3:0|3:0|3:0|3:0,0:0:0:0:
452,191,94011,6,0,L|476:300,1,110.499994941712,6|0,3:2|3:0,0:0:0:0:
276,110,94334,1,8,0:0:0:0:
365,271,94495,1,8,0:0:0:0:
365,271,94575,1,8,0:0:0:0:
365,271,94656,2,0,P|304:248|237:252,1,110.499994941712,0|0,3:0|3:0,0:0:0:0:
69,341,94979,2,0,P|123:338|174:317,1,110.499994941712,8|0,0:0|0:0,0:0:0:0:
75,78,95301,5,10,0:0:0:0:
35,97,95382,1,8,0:0:0:0:
10,133,95462,1,8,0:0:0:0:
3,176,95543,1,8,0:0:0:0:
21,216,95624,1,10,0:0:0:0:
58,241,95704,1,8,0:0:0:0:
102,245,95785,1,8,0:0:0:0:
143,229,95866,1,8,0:0:0:0:
173,199,95946,1,2,3:0:0:0:
214,182,96027,1,2,3:0:0:0:
258,176,96107,1,2,3:0:0:0:
302,181,96188,1,2,3:0:0:0:
343,197,96269,2,0,L|355:255,3,55.2499974708558,2|2|2|2,3:0|3:0|3:0|3:0,0:0:0:0:
377,337,96592,5,6,3:2:0:0:
256,275,96753,1,0,3:2:0:0:
458,284,96914,1,8,0:2:0:0:
236,296,97075,1,0,3:2:0:0:
433,189,97237,2,0,P|460:142|460:68,1,110.499994941712,8|0,0:2|3:2,0:0:0:0:
189,13,97559,5,12,0:2:0:0:
356,102,97721,2,0,L|245:91,1,110.499994941712,12|2,0:2|3:2,0:0:0:0:
92,301,98043,5,12,0:2:0:0:
259,212,98205,2,0,L|148:222,1,110.499994941712,12|2,0:2|3:2,0:0:0:0:
148,222,98446,1,2,3:2:0:0:
148,222,98527,1,8,0:2:0:0:
165,381,98688,1,2,3:2:0:0:
165,381,98769,1,2,3:2:0:0:
165,381,98850,1,8,0:2:0:0:
58,215,99011,1,2,3:2:0:0:
58,215,99092,1,2,3:2:0:0:
58,215,99172,6,0,P|47:154|61:107,1,110.499994941712,6|0,3:2|3:2,0:0:0:0:
166,10,99495,1,8,0:2:0:0:
317,135,99656,2,0,B|361:141|361:141|443:115,1,110.499994941712,0|8,3:2|0:2,0:0:0:0:
296,23,99979,1,0,3:2:0:0:
233,294,100140,5,12,0:2:0:0:
182,120,100301,2,0,L|151:244,1,110.499994941712,12|2,0:2|3:2,0:0:0:0:
333,349,100624,5,12,0:2:0:0:
384,175,100785,2,0,L|415:299,1,110.499994941712,12|2,0:2|3:2,0:0:0:0:
410,282,101027,1,2,3:2:0:0:
410,282,101108,1,8,0:2:0:0:
278,197,101269,1,2,3:2:0:0:
278,197,101350,1,2,3:2:0:0:
278,197,101430,1,8,0:2:0:0:
155,365,101592,1,2,3:2:0:0:
155,365,101672,1,2,3:2:0:0:
155,365,101753,6,0,P|88:371|48:348,1,110.499994941712,8|0,0:2|3:2,0:0:0:0:
263,324,102075,1,8,0:2:0:0:
27,249,102237,1,0,3:2:0:0:
278,197,102398,1,8,0:2:0:0:
117,288,102559,1,0,3:2:0:0:
42,87,102721,5,12,0:2:0:0:
187,190,102882,2,0,L|63:170,1,110.499994941712,12|2,0:2|3:2,0:0:0:0:
356,5,103205,5,12,0:2:0:0:
211,108,103366,2,0,L|335:88,1,110.499994941712,12|2,0:2|3:2,0:0:0:0:
320,90,103608,1,2,3:2:0:0:
320,90,103688,1,8,0:2:0:0:
134,41,103850,1,2,3:2:0:0:
134,41,103930,1,2,3:2:0:0:
134,41,104011,1,8,0:2:0:0:
187,190,104172,1,2,3:2:0:0:
187,190,104253,1,2,3:2:0:0:
187,190,104334,5,8,0:2:0:0:
259,29,104495,1,0,3:2:0:0:
242,272,104656,1,8,0:2:0:0:
115,131,104817,1,0,3:2:0:0:
320,225,104979,1,8,0:2:0:0:
40,190,105140,1,0,3:2:0:0:
40,190,105221,1,0,3:0:0:0:
40,190,105301,2,0,P|15:135|24:83,1,110.499994941712,12|12,0:2|0:2,0:0:0:0:
402,36,105624,5,0,3:2:0:0:
401,74,105704,1,0,3:2:0:0:
384,108,105785,1,0,3:2:0:0:
354,132,105865,1,0,3:2:0:0:
316,139,105946,1,10,0:2:0:0:
270,108,106026,1,8,0:0:0:0:
216,96,106107,1,0,3:2:0:0:
162,104,106187,1,0,3:2:0:0:
114,130,106269,6,0,L|129:211,1,55.2499974708558,2|2,3:2|3:2,0:0:0:0:
223,202,106430,2,0,L|213:257,1,55.2499974708558,2|2,3:2|3:2,0:0:0:0:
109,307,106592,5,8,0:0:0:0:
141,343,106672,1,8,0:0:0:0:
186,365,106753,1,8,0:0:0:0:
235,369,106833,1,8,0:0:0:0:
282,354,106914,6,0,P|371:328|481:360,1,170,6|8,3:2|0:2,0:0:0:0:
445,341,107559,2,0,L|436:257,1,85,2|0,3:2|0:0,0:0:0:0:
306,223,107882,2,0,L|315:138,1,85,8|0,0:2|0:0,0:0:0:0:
503,40,108205,6,0,P|438:78|340:22,1,170,2|8,3:2|0:2,0:0:0:0:
355,45,108850,2,0,L|263:31,1,85,2|0,3:2|0:0,0:0:0:0:
153,52,109172,2,0,P|191:84|207:138,1,89.2499972763062,4|0,0:0|0:0,0:0:0:0:
134,211,109495,6,0,L|124:127,1,85,2|0,3:2|0:0,0:0:0:0:
267,262,109817,2,0,L|277:177,1,85,8|0,0:2|0:0,0:0:0:0:
179,292,110140,1,0,3:2:0:0:
179,292,110301,1,2,0:0:0:0:
325,326,110463,1,10,0:2:0:0:
401,267,110624,1,2,0:0:0:0:
502,366,110785,6,0,P|418:348|324:351,1,170,0|8,3:2|0:2,0:0:0:0:
334,349,111430,2,0,P|285:355|198:324,1,127.5,6|0,3:2|0:0,0:0:0:0:
211,332,111753,2,0,P|274:332|331:305,1,127.5,2|0,3:2|0:0,0:0:0:0:
401,267,112075,6,0,L|409:142,1,93.5000028533936,6|0,3:2|0:0,0:0:0:0:
376,56,112398,2,0,P|331:93|300:94,1,85,8|0,0:2|0:0,0:0:0:0:
191,23,112721,2,0,P|122:11|38:90,1,170,2|8,3:2|0:2,0:0:0:0:
29,152,113205,1,0,0:0:0:0:
117,271,113366,6,0,P|135:153|138:89,1,170,2|8,3:2|0:2,0:0:0:0:
137,102,114011,2,0,L|158:203,1,85,2|0,3:2|0:0,0:0:0:0:
201,284,114334,2,0,P|160:266|116:269,1,89.2499972763062,6|0,0:0|0:0,0:0:0:0:
62,369,114656,6,0,L|153:354,1,85,2|0,3:2|0:0,0:0:0:0:
286,238,114979,1,10,0:2:0:0:
352,380,115140,1,2,0:0:0:0:
352,380,115301,2,0,L|265:370,1,85,0|0,3:2|0:0,0:0:0:0:
416,303,115624,5,8,0:2:0:0:
145,355,115785,1,8,0:2:0:0:
488,195,116108,6,0,L|480:236,2,31.8750012159348,2|2|2,0:0|0:0|0:0,0:0:0:0:
507,90,116430,1,2,0:0:0:0:
417,155,116592,2,0,P|373:160|308:139,1,95.6250036478044,2|0,0:0|0:0,0:0:0:0:
272,84,116914,2,0,P|279:113|292:198,1,95.6250036478044,2|0,0:0|0:0,0:0:0:0:
207,249,117237,6,0,L|83:230,1,101.999996887207,6|0,3:2|0:0,0:0:0:0:
0,95,117559,1,8,0:2:0:0:
170,153,117721,1,0,0:0:0:0:
38,313,117882,2,0,P|4:243|27:166,1,140.25000428009,2|0,3:2|0:0,0:0:0:0:
79,131,118205,2,0,L|188:120,1,93.5000028533936,8|0,0:2|0:0,0:0:0:0:
348,2,118527,6,0,B|321:19|302:40|302:40|309:91|328:178,1,187.000005706787,2|8,3:2|0:2,0:0:0:0:
443,312,119011,1,2,0:0:0:0:
512,239,119172,2,0,P|448:215|341:295,1,187.000005706787,2|8,3:2|0:2,0:0:0:0:
294,382,119656,1,0,0:0:0:0:
83,246,119817,6,0,B|56:232|41:216|41:216|94:169|179:205,1,187.000005706787,6|8,3:2|0:2,0:0:0:0:
267,254,120301,1,0,0:0:0:0:
181,376,120463,2,0,P|162:312|163:268,1,93.5000028533936,0|0,3:2|0:0,0:0:0:0:
230,119,120785,1,10,0:2:0:0:
230,119,120946,1,2,0:0:0:0:
345,308,121108,6,0,B|378:307|401:280|401:280|473:312|523:248,1,187.000005706787,2|8,3:2|0:2,0:0:0:0:
317,220,121592,1,0,0:0:0:0:
458,103,121753,2,0,L|446:196,1,93.5000028533936,2|0,3:2|0:0,0:0:0:0:
285,14,122075,2,0,L|297:106,1,93.5000028533936,10|0,0:2|0:0,0:0:0:0:
102,88,122398,6,0,L|68:277,1,187.000005706787,6|8,3:2|0:2,0:0:0:0:
125,361,122882,1,2,0:0:0:0:
234,275,123043,2,0,P|298:238|412:267,1,187.000005706787,2|8,3:2|0:2,0:0:0:0:
325,344,123527,1,2,0:0:0:0:
472,370,123688,6,0,B|501:346|515:319|515:319|495:183,1,187.000005706787,2|8,3:2|0:2,0:0:0:0:
441,83,124172,1,2,0:0:0:0:
417,173,124334,1,2,3:2:0:0:
383,19,124495,1,2,0:0:0:0:
357,105,124656,2,0,L|253:87,1,76.4999976654053,10|0,0:2|0:0,0:0:0:0:
30,222,124979,6,0,B|64:233|64:233|99:228|141:211,1,93.5000028533936,6|0,3:2|0:0,0:0:0:0:
33,111,125301,1,10,0:2:0:0:
144,314,125463,2,0,B|194:294|194:294|242:237|263:156,1,187.000005706787,14|0,0:2|0:0,0:0:0:0:
153,18,125946,2,0,P|150:82|162:124,1,93.5000028533936,10|2,0:2|0:0,0:0:0:0:
385,229,126269,6,0,L|499:204,1,93.5000028533936,14|0,0:2|0:0,0:0:0:0:
388,360,126592,5,10,0:2:0:0:
336,353,126672,1,8,0:2:0:0:
285,347,126753,1,8,0:2:0:0:
234,341,126833,1,8,0:2:0:0:
193,310,126914,5,2,3:0:0:0:
160,313,126994,1,2,3:0:0:0:
127,316,127075,1,2,3:0:0:0:
95,319,127155,1,2,3:0:0:0:
62,323,127237,2,0,L|46:372,3,46.7500014266968,2|2|2|2,3:0|3:0|3:0|3:0,0:0:0:0:
142,222,127559,5,6,3:2:0:0:
0,255,127721,1,2,3:2:0:0:
126,122,127882,2,0,P|186:128|216:153,1,93.5000028533936,10|0,0:2|0:0,0:0:0:0:
211,147,128124,1,0,3:0:0:0:
211,147,128205,1,2,3:2:0:0:
33,149,128366,1,2,3:2:0:0:
228,43,128527,1,8,0:2:0:0:
298,123,128688,1,0,0:0:0:0:
298,123,128769,1,0,3:2:0:0:
298,123,128850,6,0,P|346:122|383:98,1,93.5000028533936,2|2,3:2|3:2,0:0:0:0:
131,28,129172,1,8,0:2:0:0:
126,122,129334,2,0,L|139:241,1,93.5000028533936,6|0,3:2|0:0,0:0:0:0:
272,294,129656,5,2,3:2:0:0:
69,262,129817,1,10,0:2:0:0:
34,364,129979,1,2,0:0:0:0:
34,364,130060,1,0,3:2:0:0:
34,364,130140,6,0,L|136:349,1,93.5000028533936,6|2,3:2|3:2,0:0:0:0:
333,217,130463,2,0,P|284:197|231:202,1,93.5000028533936,8|0,0:2|0:0,0:0:0:0:
244,198,130705,1,0,3:0:0:0:
244,198,130785,1,2,3:2:0:0:
416,269,130946,1,2,3:2:0:0:
355,132,131108,1,8,0:2:0:0:
272,294,131269,1,2,3:2:0:0:
272,294,131350,1,0,3:2:0:0:
272,294,131430,6,0,P|259:352|269:391,1,93.5000028533936,2|0,3:2|3:2,0:0:0:0:
477,349,131753,1,10,0:2:0:0:
333,217,131914,2,0,L|353:130,1,46.7500014266968,2|0,3:2|0:0,0:0:0:0:
292,62,132075,1,8,0:2:0:0:
245,165,132237,5,2,3:2:0:0:
170,38,132398,1,2,3:2:0:0:
231,191,132559,1,2,3:2:0:0:
405,42,132721,6,0,P|479:23|523:26,1,93.5000028533936,6|0,3:2|3:2,0:0:0:0:
512,232,133043,2,0,L|407:212,1,93.5000028533936,10|0,0:2|0:0,0:0:0:0:
420,215,133285,1,0,3:2:0:0:
420,215,133366,1,2,3:2:0:0:
336,294,133527,1,2,3:2:0:0:
231,191,133688,1,8,0:2:0:0:
158,298,133850,1,0,3:2:0:0:
158,298,133930,1,0,3:2:0:0:
158,298,134011,6,0,L|263:278,1,93.5000028533936,2|0,3:2|3:2,0:0:0:0:
40,254,134334,1,10,0:2:0:0:
239,100,134495,2,0,B|247:132|247:132|222:219,1,93.5000028533936,6|0,0:0|3:2,0:0:0:0:
29,156,134817,5,2,3:2:0:0:
29,156,134898,1,2,3:2:0:0:
29,156,134979,2,0,P|82:117|172:135,1,152.999995330811,14|0,0:2|0:0,0:0:0:0:
354,292,135463,5,10,0:2:0:0:
283,36,135624,1,10,0:2:0:0:
293,9,135946,5,10,0:2:0:0:
182,299,136108,1,10,0:2:0:0:
163,325,136430,6,0,P|144:242|163:164,1,152.999995330811,14|0,0:2|0:0,0:0:0:0:
212,76,136753,5,10,0:2:0:0:
367,152,136914,1,10,0:2:0:0:
106,231,137075,1,10,0:2:0:0:
438,272,137237,5,8,0:2:0:0:
468,245,137317,1,8,0:2:0:0:
491,210,137398,1,8,0:2:0:0:
502,171,137478,1,8,0:2:0:0:
502,130,137559,1,8,0:2:0:0:
489,90,137640,1,8,0:2:0:0:
467,56,137720,1,8,0:2:0:0:
435,30,137801,1,8,0:2:0:0:
397,14,137882,6,0,L|255:32,1,114.750000437737,6|0,3:2|3:2,0:0:0:0:
50,169,138205,2,0,P|17:113|27:53,1,114.750000437737,8|0,0:2|0:0,0:0:0:0:
21,65,138446,1,8,0:2:0:0:
21,65,138527,1,2,3:2:0:0:
286,191,138688,1,0,3:2:0:0:
195,306,138850,2,0,L|179:185,1,114.750000437737,8|0,0:2|0:0,0:0:0:0:
128,97,139092,1,8,0:0:0:0:
128,97,139172,6,0,P|184:88|248:121,1,114.750000437737,2|0,3:2|3:2,0:0:0:0:
395,0,139495,2,0,P|440:33|462:101,1,114.750000437737,10|0,0:2|0:0,0:0:0:0:
461,86,139737,1,8,0:2:0:0:
461,86,139817,1,2,3:2:0:0:
275,15,139979,1,0,3:2:0:0:
326,213,140140,2,0,L|472:196,1,114.750000437737,14|8,0:2|0:2,0:0:0:0:
503,338,140382,1,8,0:2:0:0:
503,338,140463,6,0,P|440:302|360:288,1,114.750000437737,6|0,3:2|3:2,0:0:0:0:
147,300,140785,1,8,0:2:0:0:
246,384,140946,1,0,0:0:0:0:
246,384,141027,1,8,0:2:0:0:
246,384,141108,2,0,L|266:249,1,114.750000437737,2|0,3:2|3:2,0:0:0:0:
311,41,141430,1,8,0:2:0:0:
37,154,141592,1,0,0:0:0:0:
37,154,141672,1,8,0:0:0:0:
37,154,141753,6,0,P|100:190|180:204,1,114.750000437737,2|0,3:2|3:2,0:0:0:0:
425,107,142075,2,0,B|449:66|449:66|438:-7,1,114.750000437737,10|0,0:2|0:0,0:0:0:0:
247,112,142398,1,8,0:0:0:0:
231,142,142479,1,8,0:0:0:0:
229,176,142559,1,8,0:0:0:0:
236,209,142640,1,8,0:0:0:0:
251,241,142721,1,2,3:0:0:0:
264,272,142801,1,2,3:0:0:0:
268,305,142882,1,2,3:0:0:0:
264,339,142962,1,2,3:0:0:0:
253,372,143044,6,0,L|132:352,1,97.7500018644333,6|0,3:2|3:2,0:0:0:0:
76,155,143366,1,10,0:2:0:0:
334,184,143527,1,2,0:2:0:0:
334,184,143608,1,8,0:2:0:0:
334,184,143688,2,0,L|455:164,1,97.7500018644333,6|0,3:2|3:2,0:0:0:0:
158,0,144011,2,0,P|141:73|157:124,1,97.7500018644333,10|0,0:2|0:0,0:0:0:0:
179,185,144253,1,8,0:2:0:0:
179,185,144334,6,0,P|181:136|165:90,1,97.7500018644333,2|0,3:2|3:2,0:0:0:0:
97,256,144656,2,0,P|137:282|185:291,1,97.7500018644333,10|0,0:2|0:0,0:0:0:0:
404,205,144979,2,0,P|363:231|315:240,1,97.7500018644333,2|0,3:2|3:2,0:0:0:0:
466,98,145301,1,10,0:2:0:0:
497,335,145463,1,8,0:2:0:0:
497,335,145543,1,8,0:2:0:0:
497,335,145624,6,0,L|392:318,1,97.7500018644333,6|0,3:2|3:2,0:0:0:0:
232,369,145946,1,8,0:2:0:0:
165,179,146108,1,2,0:2:0:0:
54,310,146269,2,0,L|159:293,1,97.7500018644333,2|0,3:2|3:2,0:0:0:0:
352,237,146592,2,0,P|383:183|382:134,1,97.7500018644333,8|2,0:2|0:2,0:0:0:0:
171,33,146914,5,2,3:2:0:0:
463,12,147075,1,0,3:0:0:0:
206,120,147237,2,0,B|168:130|168:130|90:107,1,97.7500018644333,14|0,0:0|0:0,0:0:0:0:
271,18,147559,5,8,0:0:0:0:
308,48,147639,1,8,0:0:0:0:
328,92,147720,1,8,0:0:0:0:
325,140,147800,1,8,0:0:0:0:
300,182,147881,1,8,0:0:0:0:
283,227,147962,1,8,0:0:0:0:
288,275,148043,1,8,0:0:0:0:
314,316,148123,1,8,0:0:0:0:
355,342,148205,6,0,L|379:225,1,106.25,6|0,3:2|3:2,0:0:0:0:
444,35,148527,1,8,0:2:0:0:
512,136,148688,1,0,0:0:0:0:
512,136,148769,1,8,0:2:0:0:
512,136,148850,2,0,P|440:161|391:147,1,106.25,0|0,3:2|3:2,0:0:0:0:
288,275,149172,2,0,P|219:241|194:195,1,106.25,8|0,0:2|0:0,0:0:0:0:
52,48,149495,6,0,L|161:32,1,106.25,2|0,3:2|3:2,0:0:0:0:
296,168,149817,1,10,0:2:0:0:
415,35,149979,1,2,0:0:0:0:
415,35,150059,1,8,0:2:0:0:
415,35,150140,1,2,3:2:0:0:
186,124,150301,1,0,3:2:0:0:
432,163,150463,1,14,0:2:0:0:
161,257,150624,1,8,0:2:0:0:
161,257,150705,1,8,0:2:0:0:
160,256,150785,6,0,P|105:243|69:199,1,114.750000437737,6|0,3:2|3:2,0:0:0:0:
332,63,151108,1,8,0:2:0:0:
342,317,151269,1,0,0:0:0:0:
342,317,151350,1,8,0:2:0:0:
342,317,151430,2,0,P|294:346|238:342,1,114.750000437737,0|0,3:2|3:2,0:0:0:0:
145,35,151753,1,8,0:2:0:0:
512,164,151914,1,0,0:0:0:0:
512,164,151995,1,8,0:0:0:0:
512,164,152075,6,0,P|499:218|456:254,1,114.750000437737,2|0,3:2|3:2,0:0:0:0:
171,120,152398,2,0,L|288:108,1,114.750000437737,10|0,0:2|0:0,0:0:0:0:
285,108,152640,1,8,0:0:0:0:
285,108,152721,1,0,3:0:0:0:
398,7,152882,1,0,3:0:0:0:
209,231,153043,1,14,3:0:0:0:
171,243,153123,1,8,3:0:0:0:
131,243,153204,1,8,3:0:0:0:
94,228,153284,1,8,3:0:0:0:
64,202,153366,6,0,L|43:82,1,114.750000437737,6|0,3:2|0:0,0:0:0:0:
300,288,153688,1,10,0:0:0:0:
337,300,153768,1,8,0:0:0:0:
377,300,153849,1,8,0:0:0:0:
414,285,153929,1,8,0:0:0:0:
444,259,154011,6,0,L|465:138,1,114.750000437737,14|0,0:0|0:0,0:0:0:0:
215,341,154334,1,10,0:0:0:0:
177,353,154414,1,8,0:0:0:0:
137,353,154495,1,8,0:0:0:0:
100,338,154575,1,8,0:0:0:0:
70,312,154657,6,0,L|48:191,1,114.750000437737,14|0,0:0|0:0,0:0:0:0:
443,48,154979,1,10,0:0:0:0:
446,98,155060,1,8,0:0:0:0:
418,140,155140,1,8,0:0:0:0:
372,154,155221,1,8,0:0:0:0:
329,130,155302,1,6,3:0:0:0:
287,107,155382,1,4,3:0:0:0:
239,97,155463,1,4,3:0:0:0:
191,104,155543,1,4,3:0:0:0:
146,124,155624,2,0,L|139:190,3,57.3750002188683,6|4|4|4,3:0|3:0|3:0|3:0,0:0:0:0:
250,303,155946,6,0,L|234:186,1,114.750000437737,6|0,3:2|3:0,0:0:0:0:
40,40,156269,1,8,0:0:0:0:
100,265,156430,1,0,0:0:0:0:
100,265,156511,1,8,0:0:0:0:
100,265,156592,1,0,3:0:0:0:
329,130,156753,1,0,3:0:0:0:
146,124,156914,1,8,0:0:0:0:
286,226,157075,1,0,0:0:0:0:
286,226,157156,1,0,3:0:0:0:
286,226,157237,6,0,P|348:234|418:204,1,114.750000437737,2|0,3:2|3:2,0:0:0:0:
467,40,157559,1,8,0:0:0:0:
244,109,157721,1,0,0:0:0:0:
500,170,157882,2,0,L|475:294,1,114.750000437737,2|0,3:2|3:2,0:0:0:0:
217,345,158205,1,8,0:0:0:0:
182,314,158285,1,8,0:0:0:0:
158,273,158366,1,8,0:0:0:0:
149,227,158446,1,8,0:0:0:0:
155,181,158527,6,0,L|135:64,1,114.750000437737,6|0,3:2|0:0,0:0:0:0:
286,229,158850,1,8,0:0:0:0:
49,142,159011,1,8,0:0:0:0:
267,23,159172,1,8,0:0:0:0:
182,314,159334,1,8,0:0:0:0:
129,66,159495,1,8,0:0:0:0:
409,237,159656,1,8,0:0:0:0:
89,242,159817,5,8,0:0:0:0:
349,109,159979,1,8,0:0:0:0:
336,375,160140,1,8,0:0:0:0:
166,164,160301,1,8,0:0:0:0:
500,178,160463,1,8,0:0:0:0:
244,280,160624,1,8,0:0:0:0:
256,19,160785,1,8,0:0:0:0:
409,237,160946,1,8,0:0:0:0:
139,87,161108,5,14,0:0:0:0:
369,77,161269,1,0,3:0:0:0:
85,189,161430,1,0,3:0:0:0:
357,167,161592,5,14,0:0:0:0:
112,80,161753,1,0,3:0:0:0:
403,21,161914,1,0,3:0:0:0:
193,177,162075,6,0,L|176:321,1,114.750000437737,14|0,0:0|0:0,0:0:0:0:
353,367,162398,5,2,3:2:0:0:
95,298,162559,1,0,3:0:0:0:
449,263,162721,5,0,3:0:0:0:
245,299,162882,1,0,3:0:0:0:
433,119,163043,5,0,3:0:0:0:
335,212,163205,1,0,3:0:0:0:
284,34,163366,5,0,3:0:0:0:
341,109,163527,1,0,3:0:0:0:
107,47,163688,5,6,3:2:0:0:
176,105,164011,1,0,3:0:0:0:
106,163,164334,1,8,0:0:0:0:
173,247,164656,1,8,0:0:0:0:
173,247,164737,1,8,0:0:0:0:
173,247,164817,1,8,0:0:0:0:
173,247,164898,1,8,0:0:0:0:
173,247,164979,6,0,L|151:368,2,110.499994941712,0|0|8,3:2|3:0|0:0,0:0:0:0:
271,198,165946,1,8,0:0:0:0:
271,198,166027,1,8,0:0:0:0:
271,198,166107,1,8,0:0:0:0:
271,198,166188,1,8,0:0:0:0:
271,198,166269,6,0,L|281:320,2,110.499994941712,0|0|8,3:2|3:0|0:0,0:0:0:0:
370,128,167237,1,8,0:0:0:0:
370,128,167318,1,8,0:0:0:0:
370,128,167398,1,8,0:0:0:0:
370,128,167479,1,8,0:0:0:0:
370,128,167560,6,0,L|411:243,2,110.499994941712,0|0|8,3:2|3:0|0:0,0:0:0:0:
421,24,168527,5,8,0:0:0:0:
256,67,168688,1,8,0:0:0:0:
512,140,168850,5,6,3:2:0:0:
434,109,169172,1,0,3:0:0:0:
351,79,169495,1,8,0:0:0:0:
313,157,169817,1,8,0:0:0:0:
313,162,169897,1,8,0:0:0:0:
314,167,169978,1,8,0:0:0:0:
314,172,170058,1,8,0:0:0:0:
315,177,170140,6,0,L|293:302,1,110.499994941712,0|0,3:2|3:0,0:0:0:0:
281,365,170785,1,8,0:0:0:0:
164,112,171108,1,8,0:0:0:0:
164,117,171188,1,8,0:0:0:0:
163,122,171269,1,8,0:0:0:0:
163,127,171349,1,8,0:0:0:0:
162,132,171431,6,0,L|184:257,1,110.499994941712,0|0,3:2|3:0,0:0:0:0:
196,320,172076,1,8,0:0:0:0:
347,62,172398,1,8,0:0:0:0:
347,67,172478,1,8,0:0:0:0:
348,72,172559,1,8,0:0:0:0:
348,77,172639,1,8,0:0:0:0:
349,82,172721,6,0,L|327:207,1,110.499994941712,0|0,3:2|3:0,0:0:0:0:
315,270,173366,1,8,0:0:0:0:
182,57,173688,5,8,0:0:0:0:
418,21,173850,1,8,0:0:0:0:
237,181,174011,5,6,3:2:0:0:
20,152,174334,1,0,3:0:0:0:
126,128,174656,1,8,0:0:0:0:
78,291,174979,1,8,0:0:0:0:
89,298,175059,1,8,0:0:0:0:
102,304,175140,1,8,0:0:0:0:
115,307,175220,1,8,0:0:0:0:
129,308,175301,6,0,L|123:238,1,55.2499974708558,0|0,3:2|3:0,0:0:0:0:
212,273,175624,2,0,L|206:203,1,55.2499974708558,0|0,3:0|3:0,0:0:0:0:
199,128,175946,1,8,0:0:0:0:
434,269,176269,1,8,0:0:0:0:
423,276,176349,1,8,0:0:0:0:
410,282,176430,1,8,0:0:0:0:
397,285,176510,1,8,0:0:0:0:
383,286,176592,6,0,L|388:216,1,55.2499974708558,0|0,3:2|3:0,0:0:0:0:
300,251,176915,2,0,L|305:181,1,55.2499974708558,0|0,3:0|3:0,0:0:0:0:
313,106,177237,1,8,0:0:0:0:
72,343,177560,1,8,0:0:0:0:
83,350,177640,1,8,0:0:0:0:
96,356,177721,1,8,0:0:0:0:
109,359,177801,1,8,0:0:0:0:
123,360,177882,6,0,L|117:290,1,55.2499974708558,0|0,3:2|3:0,0:0:0:0:
206,325,178205,2,0,L|200:255,1,55.2499974708558,0|0,3:0|3:0,0:0:0:0:
193,180,178527,1,8,0:0:0:0:
421,52,178850,5,8,0:0:0:0:
153,15,179011,1,8,0:0:0:0:
342,111,179172,5,0,3:2:0:0:
73,175,179495,1,0,3:0:0:0:
398,230,179817,1,8,0:0:0:0:
156,341,180140,1,8,0:0:0:0:
128,337,180220,1,8,0:0:0:0:
101,333,180301,1,8,0:0:0:0:
73,329,180381,1,8,0:0:0:0:
46,325,180463,6,0,L|37:264,1,55.2499974708558,0|0,3:2|3:0,0:0:0:0:
217,207,180785,2,0,L|209:261,1,55.2499974708558,0|0,3:0|3:0,0:0:0:0:
16,87,181108,1,8,0:0:0:0:
334,145,181430,6,0,L|424:129,1,72.2500013780594,8|8,0:0|0:0,0:0:0:0:
467,63,181753,1,0,3:2:0:0:
170,24,182075,6,0,P|170:69|185:103,1,72.2500013780594,8|0,0:0|0:0,0:0:0:0:
94,140,182398,2,0,P|125:171|168:188,1,89.2499972763062,8|0,0:0|0:0,0:0:0:0:
141,294,182721,2,0,P|186:294|241:268,1,106.25,8|0,0:0|0:0,0:0:0:0:
341,357,183043,2,0,P|372:325|392:251,1,114.750000437737,8|0,0:0|0:0,0:0:0:0:
291,84,183366,2,0,L|311:207,1,114.750000437737,12|0,0:0|0:0,0:0:0:0:
366,9,183688,5,0,3:0:0:0:
181,114,183850,1,0,3:0:0:0:
419,180,184011,1,0,3:0:0:0:
263,163,184172,1,0,3:0:0:0:
462,69,184334,6,0,L|439:168,1,102,6|0,3:2|0:0,0:0:0:0:
419,180,184656,2,0,L|435:261,1,68,0|0,3:0|3:0,0:0:0:0:
366,9,184979,1,8,0:0:0:0:
67,238,185463,5,0,3:0:0:0:
67,238,185624,2,0,L|191:215,1,102,2|0,3:2|0:0,0:0:0:0:
249,203,185946,1,2,3:2:0:0:
111,133,186108,1,0,3:2:0:0:
68,331,186269,1,10,0:2:0:0:
314,44,186753,5,0,3:0:0:0:
314,44,186914,2,0,B|307:80|307:80|306:106|335:186,1,136,6|0,3:2|3:0,0:0:0:0:
388,3,187398,1,0,3:0:0:0:
388,3,187559,2,0,P|306:4|239:19,1,136,8|0,0:0|3:0,0:0:0:0:
130,134,188043,5,0,3:0:0:0:
130,134,188205,2,0,P|96:126|52:97,1,68,2|0,3:2|3:2,0:0:0:0:
227,110,188527,2,0,L|211:203,1,68,2|0,3:2|3:2,0:0:0:0:
138,37,188850,5,10,0:2:0:0:
446,75,189172,1,8,0:0:0:0:
332,287,189495,6,0,P|309:243|326:179,1,102,6|0,3:2|0:0,0:0:0:0:
368,135,189817,2,0,L|350:208,1,68,0|0,3:0|3:0,0:0:0:0:
314,375,190140,1,8,0:0:0:0:
47,170,190624,5,0,3:0:0:0:
47,170,190785,2,0,L|168:152,1,102,2|0,3:2|0:0,0:0:0:0:
231,189,191108,1,2,3:2:0:0:
68,77,191269,1,0,3:2:0:0:
300,12,191430,1,10,0:2:0:0:
152,246,191914,1,0,3:0:0:0:
152,246,192075,6,0,P|147:313|191:368,1,136,6|0,3:2|3:0,0:0:0:0:
325,365,192559,2,0,P|365:312|360:246,1,136,0|0,3:0|0:0,0:0:0:0:
189,158,193043,1,0,3:0:0:0:
189,158,193205,2,0,B|257:179|257:179|326:157,1,136,0|0,3:0|3:2,0:0:0:0:
387,90,193688,1,2,3:2:0:0:
125,90,194011,1,10,0:2:0:0:
71,184,194172,1,0,3:0:0:0:
71,184,194253,1,0,3:0:0:0:
71,184,194334,2,0,L|88:257,1,68,0|0,3:0|3:0,0:0:0:0:
84,354,194656,6,0,P|118:326|170:317,1,76.4999976654053,6|0,3:2|0:0,0:0:0:0:
211,215,194979,2,0,P|254:219|297:249,1,76.4999976654053,2|2,3:2|0:0,0:0:0:0:
388,216,195301,2,0,P|416:250|425:302,1,76.4999976654053,2|0,3:2|0:0,0:0:0:0:
256,353,195624,1,0,3:2:0:0:
443,132,195946,6,0,L|457:44,1,76.4999976654053,2|0,3:2|0:0,0:0:0:0:
256,86,196269,2,0,L|256:1,1,76.4999976654053,2|2,3:2|0:0,0:0:0:0:
69,132,196592,2,0,L|55:44,1,76.4999976654053,2|0,3:2|0:0,0:0:0:0:
256,192,196914,1,0,3:2:0:0:
58,236,197237,6,0,P|97:234|144:211,1,76.4999976654053,6|0,3:2|0:0,0:0:0:0:
217,294,197559,2,0,L|314:294,1,76.4999976654053,2|0,3:2|0:0,0:0:0:0:
454,236,197882,2,0,P|415:234|368:211,1,76.4999976654053,2|0,3:2|0:0,0:0:0:0:
293,90,198205,2,0,L|217:90,1,76.4999976654053,2|2,3:2|0:0,0:0:0:0:
95,114,198527,5,0,3:2:0:0:
417,114,198850,1,0,3:2:0:0:
182,234,199172,1,2,3:2:0:0:
330,234,199334,2,0,L|315:346,1,76.4999976654053,2|0,0:0|3:2,0:0:0:0:
199,367,199656,2,0,L|190:318,1,38.2499988327027,2|0,0:0|0:0,0:0:0:0:
129,158,199817,6,0,P|94:201|90:262,1,85,6|0,3:2|0:0,0:0:0:0:
143,58,200140,2,0,P|87:63|41:103,1,85,0|0,3:2|0:0,0:0:0:0:
383,158,200463,2,0,P|418:201|422:262,1,85,0|0,3:2|0:0,0:0:0:0:
369,58,200786,2,0,P|424:63|470:103,1,85,0|0,3:2|0:0,0:0:0:0:
295,111,201108,6,0,L|280:21,1,85,2|0,3:2|0:0,0:0:0:0:
241,264,201430,2,0,L|256:174,1,85,0|0,3:2|0:0,0:0:0:0:
332,365,201753,1,2,3:2:0:0:
332,365,201914,2,0,L|317:275,1,85,2|0,0:0|3:2,0:0:0:0:
0,181,202237,6,0,B|44:216|44:216|175:193,1,187.000005706787,2|0,0:0|0:0,0:0:0:0:
258,20,202721,1,2,3:2:0:0:
512,202,202882,2,0,B|468:237|468:237|337:214,1,187.000005706787,2|0,0:0|0:0,0:0:0:0:
156,26,203366,2,0,P|110:36|69:58,1,93.5000028533936,0|0,3:2|0:0,0:0:0:0:
64,315,203688,2,0,P|109:304|150:282,1,93.5000028533936,0|0,3:2|0:0,0:0:0:0:
356,26,204011,2,0,P|401:36|442:58,1,93.5000028533936,2|0,3:2|0:0,0:0:0:0:
448,315,204333,2,0,P|402:304|361:282,1,93.5000028533936,2|0,3:2|0:0,0:0:0:0:
256,138,204656,1,10,0:0:0:0:
166,322,205140,5,8,0:0:0:0:
352,281,205301,1,8,0:0:0:0:
369,297,205624,5,8,0:0:0:0:
139,204,205785,1,8,0:0:0:0:
118,225,206108,6,0,L|286:195,1,140.25000428009,12|0,0:0|0:0,0:0:0:0:
354,232,206430,5,8,0:0:0:0:
201,71,206592,1,8,0:0:0:0:
201,311,206753,1,8,0:0:0:0:
439,163,206914,1,8,0:0:0:0:
404,133,206994,1,8,0:0:0:0:
359,120,207075,1,8,0:0:0:0:
313,128,207155,1,8,0:0:0:0:
275,154,207236,1,8,0:0:0:0:
241,184,207317,1,8,0:0:0:0:
196,197,207398,1,8,0:0:0:0:
150,189,207478,1,8,0:0:0:0:
112,163,207559,6,0,L|95:76,2,63.7500024318696,2|2|2,0:0|0:0|0:0,0:0:0:0:
437,241,208043,2,0,L|449:178,2,63.7500024318696,2|2|2,0:0|0:0|0:0,0:0:0:0:
186,301,208527,2,0,L|179:223,2,63.7500024318696,2|2|2,0:0|0:0|0:0,0:0:0:0:
324,324,209011,2,0,L|331:246,2,63.7500024318696,2|2|2,0:0|0:0|0:0,0:0:0:0:
217,384,209495,5,14,0:0:0:0:
431,300,209656,1,14,0:0:0:0:
170,210,209817,1,14,0:0:0:0:
491,244,209979,1,14,0:0:0:0:
256,192,210059,12,0,211269,0:0:0:0:
127,139,211430,6,0,P|111:80|137:14,2,127.500004863739,6|0|2,3:2|3:2|3:2,0:0:0:0:
190,211,212398,1,0,3:2:0:0:
385,139,212721,6,0,P|401:80|375:14,2,127.500004863739,6|2|2,3:2|3:2|3:2,0:0:0:0:
322,211,213689,1,2,3:2:0:0:
179,319,214011,6,0,B|140:298|140:298|50:320,1,127.500004863739,6|0,3:2|3:2,0:0:0:0:
333,319,214656,2,0,B|372:298|372:298|462:320,1,127.500004863739,6|0,3:2|3:2,0:0:0:0:
255,373,215301,2,0,L|255:291,1,63.7500024318696,6|0,3:2|0:0,0:0:0:0:
198,191,215624,2,0,P|252:218|312:196,1,127.500004863739,2|0,3:2|3:2,0:0:0:0:
256,30,216269,1,2,3:2:0:0:
59,130,216592,6,0,L|72:236,1,97.7500018644333,6|0,3:2|0:0,0:0:0:0:
333,314,216914,1,10,0:0:0:0:
378,330,216994,1,8,0:0:0:0:
425,320,217075,1,8,0:0:0:0:
460,286,217155,1,8,0:0:0:0:
471,239,217236,1,10,0:0:0:0:
456,193,217317,1,8,0:0:0:0:
419,163,217397,1,8,0:0:0:0:
371,156,217478,1,8,0:0:0:0:
327,176,217559,1,10,0:0:0:0:
286,203,217639,1,8,0:0:0:0:
238,209,217720,1,8,0:0:0:0:
193,193,217800,1,8,0:0:0:0:
160,157,217882,6,0,L|185:56,1,97.7500018644333,14|0,0:0|0:0,0:0:0:0:
380,248,218205,1,10,0:0:0:0:
344,281,218285,1,8,0:0:0:0:
300,301,218366,1,8,0:0:0:0:
252,308,218446,1,8,0:0:0:0:
203,301,218527,1,10,0:0:0:0:
160,279,218608,1,8,0:0:0:0:
124,247,218688,1,8,0:0:0:0:
76,247,218769,1,8,0:0:0:0:
39,277,218849,1,2,3:0:0:0:
30,324,218930,1,2,3:0:0:0:
54,365,219011,1,2,3:0:0:0:
100,381,219091,1,2,3:0:0:0:
144,364,219172,5,14,0:0:0:0:
262,225,219334,1,0,3:3:0:0:
372,370,219495,2,0,L|484:346,1,97.7500018644333,8|10,0:0|0:0,0:0:0:0:
467,349,219737,1,8,0:0:0:0:
467,349,219817,1,2,3:2:0:0:
280,100,219979,1,0,3:0:0:0:
296,318,220140,1,8,0:0:0:0:
457,110,220301,1,2,0:0:0:0:
216,215,220463,5,10,0:0:0:0:
167,206,220543,1,8,0:0:0:0:
119,198,220624,1,8,0:0:0:0:
71,190,220704,1,8,0:0:0:0:
26,211,220785,5,14,0:0:0:0:
296,318,221108,6,0,L|316:208,1,95.6250036478044,2|0,0:0|0:0,0:0:0:0:
345,219,221430,2,0,L|338:155,1,63.7500024318696,2|0,0:0|0:0,0:0:0:0:
92,49,221753,6,0,P|148:99|215:103,1,118.999996368408,6|0,3:2|3:2,0:0:0:0:
411,27,222075,1,8,0:2:0:0:
85,177,222237,1,0,3:2:0:0:
85,177,222317,1,0,3:2:0:0:
85,177,222398,1,10,0:2:0:0:
363,279,222559,1,0,3:2:0:0:
262,45,222721,1,8,0:2:0:0:
203,268,222882,1,2,3:2:0:0:
203,268,222963,1,0,3:2:0:0:
203,268,223043,6,0,L|177:393,1,118.999996368408,14|0,0:2|3:2,0:0:0:0:
386,151,223366,1,10,0:2:0:0:
426,364,223527,1,2,3:2:0:0:
182,117,223688,2,0,P|115:102|59:107,1,118.999996368408,10|0,0:2|3:2,0:0:0:0:
318,55,224011,2,0,P|385:40|441:45,1,118.999996368408,10|0,0:2|3:2,0:0:0:0:
508,163,224253,1,0,3:2:0:0:
508,163,224334,6,0,L|481:316,1,118.999996368408,14|0,0:2|3:2,0:0:0:0:
218,317,224656,1,8,0:2:0:0:
366,238,224817,1,0,3:2:0:0:
81,95,224979,2,0,L|101:212,1,118.999996368408,14|0,0:2|3:2,0:0:0:0:
143,384,225301,1,8,0:2:0:0:
285,160,225463,1,0,3:2:0:0:
285,160,225543,1,0,3:2:0:0:
285,160,225624,6,0,P|220:137|164:141,1,110.499994941712,14|2,0:2|3:2,0:0:0:0:
70,346,225946,2,0,P|124:344|175:323,1,110.499994941712,10|0,0:2|3:2,0:0:0:0:
403,243,226269,2,0,L|384:123,1,110.499994941712,8|0,0:2|3:2,0:0:0:0:
326,0,226592,1,10,0:2:0:0:
116,70,226753,1,0,3:2:0:0:
116,70,226834,1,0,3:2:0:0:
116,70,226914,6,0,B|152:93|152:93|226:77,1,110.499994941712,14|0,0:2|0:0,0:0:0:0:
13,28,227237,1,8,0:2:0:0:
1,64,227317,1,8,0:2:0:0:
7,103,227398,1,8,0:2:0:0:
26,136,227478,1,8,0:2:0:0:
57,158,227559,6,0,L|192:133,1,110.499994941712,14|0,0:2|0:0,0:0:0:0:
462,137,227882,1,8,0:2:0:0:
474,173,227962,1,8,0:2:0:0:
468,212,228043,1,8,0:2:0:0:
449,245,228123,1,8,0:2:0:0:
418,267,228204,6,0,L|282:242,1,110.499994941712,14|0,0:2|0:0,0:0:0:0:
39,253,228527,1,8,0:2:0:0:
27,289,228607,1,8,0:2:0:0:
33,328,228688,1,8,0:2:0:0:
52,361,228768,1,8,0:2:0:0:
83,383,228849,6,0,L|218:358,1,110.499994941712,14|0,0:2|0:0,0:0:0:0:
310,145,229172,1,8,0:2:0:0:
274,130,229252,1,8,0:2:0:0:
235,130,229333,1,8,0:2:0:0:
199,143,229413,1,8,0:2:0:0:
170,168,229495,6,0,L|194:291,1,110.499994941712,14|0,0:2|0:0,0:0:0:0:
397,104,229817,1,10,0:2:0:0:
361,75,229897,1,8,0:2:0:0:
322,56,229978,1,8,0:2:0:0:
278,45,230058,1,8,0:2:0:0:
234,44,230139,1,10,0:2:0:0:
193,54,230220,1,8,0:2:0:0:
151,69,230300,1,8,0:2:0:0:
114,92,230382,1,8,0:2:0:0:
94,129,230462,1,10,0:2:0:0:
87,172,230543,1,8,0:2:0:0:
102,213,230623,1,8,0:2:0:0:
136,240,230704,1,8,0:2:0:0:
179,248,230785,5,10,0:0:0:0:
221,237,230865,1,8,0:0:0:0:
263,225,230946,1,8,0:0:0:0:
306,214,231027,1,8,0:0:0:0:
348,203,231107,1,10,0:0:0:0:
392,207,231188,1,8,0:0:0:0:
430,228,231269,1,8,0:0:0:0:
455,264,231350,1,8,0:0:0:0:
462,307,231430,5,2,3:0:0:0:
420,290,231511,1,2,3:0:0:0:
391,255,231592,1,2,3:0:0:0:
392,207,231673,1,2,3:0:0:0:
407,166,231753,1,2,3:0:0:0:
431,128,231834,1,2,3:0:0:0:
432,84,231914,1,2,3:0:0:0:
420,41,231995,1,2,3:0:0:0:
390,8,232075,6,0,P|433:-4|521:8,1,110.499994941712,6|0,3:2|3:2,0:0:0:0:
323,298,232398,1,10,0:0:0:0:
265,55,232559,1,2,3:2:0:0:
159,319,232721,2,0,P|116:331|32:319,1,110.499994941712,2|0,3:2|3:2,0:0:0:0:
239,143,233043,2,0,L|211:281,1,110.499994941712,10|0,0:0|0:0,0:0:0:0:
24,70,233366,6,0,B|60:44|60:44|190:65,1,165.749992412568,6|0,3:2|0:0,0:0:0:0:
239,143,233688,2,0,B|348:128,1,110.499994941712,6|0,3:2|0:0,0:0:0:0:
94,347,234011,6,0,P|44:300|68:210,1,165.749992412568,6|0,3:2|0:0,0:0:0:0:
217,251,234334,2,0,P|171:279|118:270,1,110.499994941712,6|0,3:2|0:0,0:0:0:0:
357,18,234656,6,0,L|347:145,1,110.499994941712,6|0,3:2|0:0,0:0:0:0:
288,335,234979,1,8,0:0:0:0:
166,74,235140,1,8,0:0:0:0:
407,256,235301,1,10,0:0:0:0:
132,201,235463,1,8,0:0:0:0:
437,87,235624,1,8,0:0:0:0:
378,344,235785,1,8,0:0:0:0:
89,119,235946,5,10,0:0:0:0:
381,166,236108,1,8,0:0:0:0:
101,296,236269,1,8,0:0:0:0:
419,255,236430,1,8,0:0:0:0:
65,207,236592,1,10,0:0:0:0:
378,344,236753,1,8,0:0:0:0:
39,369,236914,1,8,0:0:0:0:
317,266,237075,1,8,0:0:0:0:
81,115,237237,5,14,0:0:0:0:
195,344,237398,1,0,3:2:0:0:
257,31,237559,1,0,3:2:0:0:
96,312,237721,5,14,0:0:0:0:
179,89,237882,1,0,3:2:0:0:
289,349,238043,1,2,3:2:0:0:
357,73,238205,5,14,0:0:0:0:
154,240,238366,1,0,3:2:0:0:
65,9,238527,5,2,3:2:0:0:
377,215,238688,1,14,0:0:0:0:
61,174,238850,1,2,3:2:0:0:
380,102,239011,1,2,3:2:0:0:
224,359,239172,5,0,3:2:0:0:
176,350,239252,1,0,3:2:0:0:
128,341,239333,1,0,3:2:0:0:
79,332,239413,1,0,3:2:0:0:
31,323,239494,1,10,0:0:0:0:
364,345,239817,5,6,3:2:0:0:
197,253,239979,1,0,3:2:0:0:
421,197,240140,1,8,0:2:0:0:
307,257,240301,1,0,3:2:0:0:
481,353,240463,2,0,P|494:308|492:261,1,93.5000028533936,8|0,0:2|3:2,0:0:0:0:
441,48,240785,5,12,0:2:0:0:
200,154,240946,2,0,L|88:131,1,93.5000028533936,12|2,0:2|3:2,0:0:0:0:
343,130,241269,5,12,0:2:0:0:
121,238,241430,2,0,L|9:261,1,93.5000028533936,12|2,0:2|3:2,0:0:0:0:
29,256,241672,1,2,3:2:0:0:
29,256,241753,1,8,0:2:0:0:
217,352,241914,1,2,3:2:0:0:
217,352,241995,1,2,3:2:0:0:
217,352,242075,1,8,0:2:0:0:
297,206,242237,1,2,3:2:0:0:
297,206,242317,1,2,3:2:0:0:
297,206,242398,5,6,3:2:0:0:
114,336,242559,1,0,3:2:0:0:
326,308,242721,1,8,0:2:0:0:
199,246,242882,1,0,3:2:0:0:
443,136,243044,2,0,P|396:130|350:135,1,93.5000028533936,8|0,0:2|3:2,0:0:0:0:
117,198,243366,5,12,0:2:0:0:
282,12,243527,2,0,L|272:104,1,93.5000028533936,12|2,0:2|3:2,0:0:0:0:
240,336,243850,5,12,0:2:0:0:
26,167,244011,2,0,L|35:259,1,93.5000028533936,12|2,0:2|3:2,0:0:0:0:
35,259,244253,1,2,3:2:0:0:
35,259,244334,1,8,0:2:0:0:
142,86,244495,1,2,3:2:0:0:
142,86,244575,1,2,3:2:0:0:
142,86,244656,1,8,0:2:0:0:
269,259,244817,1,2,3:2:0:0:
269,259,244898,1,2,3:2:0:0:
269,259,244979,5,8,0:2:0:0:
338,152,245140,1,0,3:2:0:0:
182,206,245301,1,8,0:2:0:0:
372,343,245463,1,0,3:2:0:0:
181,296,245624,1,8,0:2:0:0:
433,281,245785,1,0,3:2:0:0:
277,66,245946,5,12,0:2:0:0:
324,244,246108,2,0,L|341:127,1,93.5000028533936,12|2,0:2|3:2,0:0:0:0:
179,9,246430,5,12,0:2:0:0:
132,187,246592,2,0,L|115:70,1,93.5000028533936,12|2,0:2|3:2,0:0:0:0:
118,94,246834,1,0,3:0:0:0:
118,94,246914,1,8,0:2:0:0:
39,254,247075,1,2,3:2:0:0:
39,254,247156,1,0,3:0:0:0:
39,254,247237,1,8,0:2:0:0:
191,347,247398,6,0,P|265:362|323:347,1,93.5000028533936,8|0,0:2|3:0,0:0:0:0:
437,203,247721,5,8,0:0:0:0:
155,264,247882,1,8,0:0:0:0:
133,276,248205,5,8,0:0:0:0:
484,303,248366,1,8,0:0:0:0:
491,320,248688,5,8,0:0:0:0:
190,169,248850,1,8,0:0:0:0:
172,178,249172,5,12,0:0:0:0:
445,98,249334,1,12,0:0:0:0:
462,114,249656,5,14,0:0:0:0:
308,315,249817,1,14,0:0:0:0:
206,28,249979,1,14,0:0:0:0:
