osu file format v14

[General]
AudioFilename: audio.mp3
AudioLeadIn: 0
PreviewTime: 85543
Countdown: 0
SampleSet: None
StackLeniency: 0.7
Mode: 0
LetterboxInBreaks: 0
WidescreenStoryboard: 0

[Editor]
Bookmarks: 32076,42398,52721,63043,75946,86269,96592,104334,114656
DistanceSpacing: 1.1
BeatDivisor: 4
GridSize: 32
TimelineZoom: 1.6

[Metadata]
Title:ReI
TitleUnicode:ReI
Artist:THE ORAL CIGARETTES
ArtistUnicode:THE ORAL CIGARETTES
Creator:Marianna
Version:777
Source:
Tags:
BeatmapID:1751205
BeatmapSetID:836216

[Difficulty]
HPDrainRate:6
CircleSize:3.8
OverallDifficulty:8.7
ApproachRate:9.3
SliderMultiplier:1.62
SliderTickRate:1

[Events]
//Background and Video events
0,0,"BG.jpg",0,0
//Break Periods
//Storyboard Layer 0 (Background)
//Storyboard Layer 1 (Fail)
//Storyboard Layer 2 (Pass)
//Storyboard Layer 3 (Foreground)
//Storyboard Sound Samples

[TimingPoints]
2075,468.75,4,2,1,52,1,0
32076,322.58064516129,4,2,1,52,1,0
41753,-71.4285714285714,4,2,1,52,0,0
42398,-100,4,2,1,55,0,0
52721,-90.9090909090909,4,2,1,55,0,0
63043,-100,4,2,1,71,0,0
75946,-76.9230769230769,4,2,1,80,0,1
85624,-333.333333333333,4,2,1,60,0,0
86269,-66.6666666666667,4,2,1,80,0,1
96592,-83.3333333333333,4,2,1,80,0,0
97882,-66.6666666666667,4,2,1,80,0,0
98205,-58.8235294117647,4,2,1,80,0,0
98527,-52.6315789473684,4,2,1,80,0,0
98850,-47.6190476190476,4,2,1,80,0,0
99172,-76.9230769230769,4,2,1,80,0,0
104334,-100,4,2,1,83,0,0

[Colours]
Combo1 : 74,149,193
Combo2 : 201,129,175
Combo3 : 137,169,180
Combo4 : 234,234,234
SliderBorder : 225,250,255
SliderTrackOverride : 0,35,43

[HitObjects]
168,122,32076,5,14,0:0:0:0:
185,240,32237,1,0,1:0:0:0:
351,32,32398,1,10,0:0:0:0:
334,150,32559,1,2,1:0:0:0:
90,101,32721,1,10,0:0:0:0:
351,32,32882,1,0,1:0:0:0:
185,240,33043,5,14,0:0:0:0:
334,150,33205,2,0,L|325:230,1,81,6|0,0:0|1:0,0:0:0:0:
90,101,33527,5,14,0:0:0:0:
349,33,33688,1,10,0:0:0:0:
158,21,33850,1,0,1:0:0:0:
158,21,33930,1,0,1:0:0:0:
158,21,34011,1,14,0:0:0:0:
179,149,34172,1,0,1:0:0:0:
393,56,34334,1,14,0:0:0:0:
63,97,34495,1,0,1:0:0:0:
63,97,34576,1,0,1:0:0:0:
63,97,34656,5,14,0:0:0:0:
214,155,34817,1,0,1:0:0:0:
367,12,34979,1,10,0:0:0:0:
216,70,35140,1,2,1:0:0:0:
440,130,35301,1,10,0:0:0:0:
140,56,35463,1,0,1:0:0:0:
140,56,35543,1,0,1:0:0:0:
140,56,35624,5,14,0:0:0:0:
378,2,35785,2,0,P|371:41|369:82,1,81,14|0,0:0|1:0,0:0:0:0:
450,295,36108,5,6,0:0:0:0:
244,164,36269,1,14,0:0:0:0:
459,148,36430,1,0,1:0:0:0:
459,148,36511,1,0,1:0:0:0:
459,148,36592,1,14,0:0:0:0:
366,359,36753,1,0,1:0:0:0:
322,198,36914,1,10,0:0:0:0:
504,360,37075,1,0,1:0:0:0:
504,360,37156,1,0,1:0:0:0:
504,360,37237,5,14,0:0:0:0:
253,289,37398,1,0,1:0:0:0:
427,122,37559,1,10,0:0:0:0:
392,238,37721,1,2,1:0:0:0:
228,38,37882,1,10,0:0:0:0:
263,154,38044,1,0,1:0:0:0:
448,18,38205,5,14,0:0:0:0:
184,70,38366,2,0,L|103:61,1,81,14|0,0:0|0:0,0:0:0:0:
364,6,38688,5,14,0:0:0:0:
260,230,38850,1,14,0:0:0:0:
194,80,39011,1,0,1:0:0:0:
194,80,39092,1,0,1:0:0:0:
194,80,39172,1,14,0:0:0:0:
350,152,39334,1,0,1:1:0:0:
145,205,39495,1,14,0:0:0:0:
341,286,39657,1,0,1:1:0:0:
194,80,39817,5,14,0:0:0:0:
235,288,39979,1,0,1:0:0:0:
366,47,40140,1,10,0:0:0:0:
145,205,40301,1,2,1:0:0:0:
350,152,40463,1,10,0:0:0:0:
206,3,40624,1,0,1:0:0:0:
235,288,40785,5,14,0:0:0:0:
301,37,40946,1,14,0:0:0:0:
123,246,41108,5,0,1:0:0:0:
123,246,41188,1,0,1:0:0:0:
123,246,41269,1,14,0:0:0:0:
90,3,41430,1,14,0:0:0:0:
192,158,41592,1,0,0:0:0:0:
393,37,41753,6,0,L|336:38,1,56.6999982696534,10|8,0:0|0:0,0:0:0:0:
287,129,41914,2,0,L|343:130,1,56.6999982696534,10|8,0:0|0:0,0:0:0:0:
501,237,42075,1,10,0:0:0:0:
452,198,42155,1,8,0:0:0:0:
391,191,42236,1,10,0:0:0:0:
335,217,42316,1,8,0:0:0:0:
302,267,42398,6,0,P|330:195|287:129,1,162,6|10,0:0|0:0,0:0:0:0:
243,204,42882,1,0,0:0:0:0:
395,124,43043,1,2,0:0:0:0:
287,129,43205,1,0,0:0:0:0:
440,32,43366,1,10,0:0:0:0:
332,27,43528,1,0,0:0:0:0:
505,147,43688,6,0,B|470:231|545:221|501:301,1,162,6|8,0:0|0:0,0:0:0:0:
441,367,44172,1,0,0:0:0:0:
372,199,44334,1,2,0:0:0:0:
439,257,44495,1,0,0:0:0:0:
301,136,44656,1,10,0:0:0:0:
234,194,44817,1,0,0:0:0:0:
508,89,44979,6,0,P|435:119|365:84,1,162,6|8,0:0|0:0,0:0:0:0:
311,13,45463,1,0,0:0:0:0:
340,200,45624,1,2,0:0:0:0:
365,84,45785,1,2,0:0:0:0:
252,211,45946,1,8,0:0:0:0:
419,191,46108,1,2,0:0:0:0:
173,59,46269,6,0,L|176:139,1,81,6|0,0:0|0:0,0:0:0:0:
176,229,46592,1,8,0:0:0:0:
259,88,46753,1,0,0:0:0:0:
95,232,46914,6,0,L|175:228,1,81,6|0,0:0|0:0,0:0:0:0:
265,223,47237,1,8,0:0:0:0:
174,100,47398,2,0,L|177:140,1,40.5,0|2,0:0|0:0,0:0:0:0:
314,292,47559,6,0,P|348:222|310:154,1,162,6|8,0:0|0:0,0:0:0:0:
265,223,48043,1,0,0:0:0:0:
399,324,48205,1,2,0:0:0:0:
484,298,48366,1,0,0:0:0:0:
314,292,48527,1,8,0:0:0:0:
229,266,48688,1,0,0:0:0:0:
392,53,48850,6,0,B|417:91|417:91|410:207,1,162,6|8,0:0|0:0,0:0:0:0:
405,296,49334,1,0,0:0:0:0:
336,146,49495,1,2,0:0:0:0:
302,228,49656,1,0,0:0:0:0:
223,47,49817,1,8,0:0:0:0:
257,129,49978,1,0,0:0:0:0:
9,121,50140,6,0,B|77:117|77:117|100:126|100:126|168:120,1,162,6|8,0:0|0:0,0:0:0:0:
126,42,50624,1,0,0:0:0:0:
66,200,50785,1,2,0:0:0:0:
154,198,50946,1,0,0:0:0:0:
256,122,51108,1,8,0:0:0:0:
168,120,51269,1,0,0:0:0:0:
251,337,51430,6,0,L|258:256,1,81,6|0,0:0|0:0,0:0:0:0:
273,96,51753,1,2,0:0:0:0:
164,253,51914,1,8,0:0:0:0:
352,191,52075,1,2,0:0:0:0:
196,76,52237,1,0,0:0:0:0:
258,256,52398,1,2,0:0:0:0:
315,23,52559,1,8,0:0:0:0:
164,253,52721,6,0,P|81:273|18:215,1,178.200005438233,4|8,0:0|0:0,0:0:0:0:
104,184,53205,1,0,0:0:0:0:
171,355,53366,1,2,0:0:0:0:
164,253,53527,1,0,0:0:0:0:
304,334,53688,1,8,0:0:0:0:
311,232,53849,1,0,0:0:0:0:
477,332,54011,6,0,B|436:350|436:350|303:333,1,178.200005438233,6|8,0:0|0:0,0:0:0:0:
420,160,54495,1,0,0:0:0:0:
426,172,54575,1,0,0:0:0:0:
430,183,54656,2,0,L|425:272,1,89.1000027191163,2|0,0:0|0:0,0:0:0:0:
307,144,54979,1,8,0:0:0:0:
311,232,55140,1,0,0:0:0:0:
512,25,55301,6,0,B|415:9|443:91|350:75,1,178.200005438233,6|8,0:0|0:0,0:0:0:0:
257,43,55785,1,0,0:0:0:0:
379,179,55946,1,2,0:0:0:0:
349,74,56108,2,0,P|346:52|347:30,1,44.5500013595581
228,148,56269,1,10,0:0:0:0:
257,43,56430,1,0,0:0:0:0:
467,185,56592,6,0,L|378:178,1,89.1000027191163,6|0,0:0|0:0,0:0:0:0:
205,162,56914,1,10,0:0:0:0:
349,74,57075,1,0,0:0:0:0:
198,250,57237,6,0,L|204:161,1,89.1000027191163,6|0,0:0|0:0,0:0:0:0:
280,302,57559,1,2,0:0:0:0:
112,154,57721,2,0,P|90:147|68:146,1,44.5500013595581,0|2,0:0|0:0,0:0:0:0:
226,74,57882,6,0,P|302:112|374:67,1,178.200005438233,6|8,0:0|0:0,0:0:0:0:
298,27,58366,1,2,0:0:0:0:
204,161,58527,1,2,0:0:0:0:
196,63,58688,1,0,0:0:0:0:
68,211,58850,1,8,0:0:0:0:
76,113,59011,1,2,0:0:0:0:
382,167,59172,6,0,L|203:160,1,178.200005438233,6|8,0:0|0:0,0:0:0:0:
105,159,59656,1,2,0:0:0:0:
223,80,59817,1,2,0:0:0:0:
160,240,59979,1,0,0:0:0:0:
121,39,60140,1,8,0:0:0:0:
105,159,60301,1,0,0:0:0:0:
278,29,60463,6,0,B|322:15|322:15|452:31,1,178.200005438233,6|8,0:0|0:0,0:0:0:0:
496,119,60946,1,0,0:0:0:0:
304,186,61108,1,2,0:0:0:0:
344,96,61269,1,0,0:0:0:0:
426,275,61430,1,14,0:0:0:0:
327,58,61591,1,0,0:0:0:0:
247,311,61753,5,8,0:0:0:0:
425,159,61914,1,0,0:0:0:0:
425,159,61995,1,0,0:0:0:0:
425,159,62075,1,8,0:0:0:0:
195,85,62237,1,8,0:0:0:0:
380,340,62398,5,8,3:0:0:0:
430,313,62478,1,8,3:0:0:0:
459,263,62559,1,8,3:0:0:0:
457,206,62639,1,8,3:0:0:0:
425,158,62721,1,0,1:0:0:0:
412,201,62802,1,0,1:0:0:0:
420,244,62882,1,0,1:0:0:0:
448,278,62963,1,0,1:0:0:0:
487,295,63043,6,0,P|448:286|408:290,1,81,4|2,1:0|0:0,0:0:0:0:
326,326,63366,1,8,0:0:0:0:
223,195,63527,1,8,0:3:0:0:
223,195,63608,1,0,1:3:0:0:
223,195,63688,2,0,L|228:275,1,81,2|2,0:0|0:0,0:0:0:0:
324,190,64011,1,8,0:0:0:0:
128,346,64172,6,0,P|88:353|49:342,1,81,4|0,0:0|0:0,0:0:0:0:
10,261,64495,1,0,1:0:0:0:
161,140,64656,2,0,L|156:180,1,40.5,8|0,0:0|0:0,0:0:0:0:
51,151,64817,1,8,1:3:0:0:
49,122,64897,1,0,1:3:0:0:
47,94,64978,1,0,1:3:0:0:
45,66,65058,1,0,1:3:0:0:
43,37,65139,1,0,1:3:0:0:
270,166,65301,1,8,0:0:0:0:
156,180,65463,1,0,0:0:0:0:
403,30,65624,6,0,L|397:111,1,81,4|0,0:0|0:0,0:0:0:0:
385,198,65946,1,8,0:0:0:0:
320,42,66108,1,0,1:0:0:0:
320,42,66188,1,8,1:3:0:0:
319,41,66269,2,0,P|279:34|238:42,1,81,0|0,1:3|0:0,0:0:0:0:
171,97,66592,1,8,0:0:0:0:
0,23,66753,6,0,P|39:16|79:24,1,81,4|0,0:0|0:0,0:0:0:0:
197,127,67075,1,0,0:0:0:0:
224,41,67237,1,8,0:0:0:0:
40,101,67398,1,0,1:0:0:0:
42,141,67478,1,8,1:3:0:0:
45,181,67559,1,2,1:0:0:0:
79,24,67721,1,0,0:0:0:0:
197,127,67882,1,8,0:0:0:0:
237,124,67962,1,8,0:0:0:0:
277,122,68043,1,8,0:0:0:0:
318,119,68123,1,8,0:0:0:0:
358,117,68204,5,6,0:0:0:0:
192,46,68366,2,0,L|196:126,1,81,2|8,0:0|0:0,0:0:0:0:
347,222,68688,1,0,1:0:0:0:
347,222,68769,1,8,1:3:0:0:
347,222,68850,1,0,1:0:0:0:
328,98,69011,1,2,0:0:0:0:
201,255,69172,1,8,0:0:0:0:
408,154,69334,6,0,P|447:145|486:155,1,81,4|0,0:0|0:0,0:0:0:0:
328,98,69656,1,2,0:0:0:0:
448,224,69817,1,8,0:0:0:0:
435,46,69979,1,0,1:0:0:0:
435,46,70059,1,8,1:3:0:0:
435,46,70140,1,0,1:0:0:0:
351,207,70301,1,0,0:0:0:0:
322,9,70463,1,8,0:0:0:0:
154,142,70624,2,0,P|173:145|194:144,1,40.5,0|8,1:0|0:0,0:0:0:0:
381,88,70785,6,0,P|350:159|392:226,1,162,4|8,0:0|0:0,0:0:0:0:
505,311,71269,1,0,1:0:0:0:
505,311,71350,1,8,1:3:0:0:
505,311,71430,1,0,1:0:0:0:
309,289,71592,1,0,0:0:0:0:
437,154,71753,1,12,0:0:0:0:
371,361,71914,1,0,1:0:0:0:
371,361,71995,1,8,1:3:0:0:
371,361,72075,5,0,1:0:0:0:
351,165,72237,1,0,0:0:0:0:
449,285,72398,1,0,1:0:0:0:
259,282,72559,1,0,0:0:0:0:
460,189,72721,1,8,0:0:0:0:
454,237,72801,1,8,0:0:0:0:
449,285,72882,1,8,0:0:0:0:
234,158,73043,1,8,0:0:0:0:
259,282,73205,1,0,0:0:0:0:
387,69,73366,5,12,0:0:0:0:
176,115,73527,1,0,0:0:0:0:
361,236,73688,1,0,0:0:0:0:
253,19,73850,5,12,0:0:0:0:
247,271,74011,1,0,0:0:0:0:
451,173,74172,1,0,0:0:0:0:
90,191,74334,5,12,0:0:0:0:
441,249,74495,1,8,0:0:0:0:
212,155,74656,5,0,1:0:0:0:
212,155,74737,1,0,1:0:0:0:
212,155,74817,1,14,0:0:0:0:
285,351,74979,2,0,P|281:310|280:270,1,81,14|0,0:0|0:0,0:0:0:0:
489,182,75301,1,8,0:0:0:0:
450,228,75381,1,8,0:0:0:0:
399,260,75462,1,8,0:0:0:0:
340,275,75542,1,8,0:0:0:0:
280,270,75623,1,8,0:0:0:0:
224,246,75704,1,8,0:0:0:0:
179,206,75784,1,8,0:0:0:0:
148,154,75865,1,8,0:0:0:0:
134,93,75946,6,0,P|143:170|94:229,1,157.949992769623,6|0,0:0|1:0,0:0:0:0:
47,251,76269,1,8,0:0:0:0:
228,318,76430,1,0,0:0:0:0:
228,318,76511,1,8,0:0:0:0:
228,318,76592,1,2,0:0:0:0:
94,337,76753,1,0,0:0:0:0:
300,263,76914,1,8,0:0:0:0:
434,282,77075,1,0,0:0:0:0:
179,206,77237,6,0,B|158:169|158:169|173:54,1,157.949992769623,6|0,0:0|0:0,0:0:0:0:
185,5,77559,1,8,0:0:0:0:
377,115,77721,1,0,0:0:0:0:
377,115,77801,1,8,0:0:0:0:
377,115,77882,1,2,0:0:0:0:
242,149,78043,1,0,0:0:0:0:
483,88,78205,1,10,0:0:0:0:
231,45,78366,1,8,0:0:0:0:
236,97,78446,1,8,0:0:0:0:
242,149,78527,6,0,P|170:121|99:153,1,157.949992769623,4|0,0:0|0:0,0:0:0:0:
57,193,78850,1,8,0:0:0:0:
172,28,79011,1,0,0:0:0:0:
306,241,79172,6,0,B|391:252|367:189|452:199,1,157.949992769623,6|0,0:0|1:0,0:0:0:0:
507,219,79495,1,8,0:0:0:0:
242,149,79656,1,0,0:0:0:0:
237,201,79736,1,8,0:0:0:0:
231,253,79817,6,0,B|197:276|197:276|80:265,1,157.949992769623,4|0,0:0|0:0,0:0:0:0:
21,260,80140,1,8,0:0:0:0:
169,170,80301,1,0,0:0:0:0:
313,296,80463,6,0,P|311:322|316:348,1,52.6499975898744,8|8,0:0|0:0,0:0:0:0:
484,263,80624,2,0,P|485:289|480:315,1,52.6499975898744,8|8,0:0|0:0,0:0:0:0:
394,144,80785,5,8,0:3:0:0:
364,166,80865,1,8,0:3:0:0:
329,174,80946,1,8,0:3:0:0:
293,169,81026,1,8,0:3:0:0:
261,148,81108,6,0,P|192:116|121:147,1,157.949992769623,4|0,0:0|0:0,0:0:0:0:
79,186,81430,1,8,0:0:0:0:
186,37,81592,1,0,0:0:0:0:
186,37,81672,1,8,0:0:0:0:
186,37,81753,1,4,0:0:0:0:
190,202,81914,1,0,0:0:0:0:
27,79,82075,1,8,0:0:0:0:
263,148,82237,2,0,P|289:146|313:136,1,52.6499975898744,0|8,0:0|0:0,0:0:0:0:
439,41,82398,5,4,0:0:0:0:
389,235,82559,1,0,0:0:0:0:
217,26,82721,5,8,0:0:0:0:
286,282,82882,2,0,P|286:255|290:229,1,52.6499975898744,0|8,0:0|0:0,0:0:0:0:
375,19,83043,5,4,0:0:0:0:
164,174,83205,1,0,0:0:0:0:
510,142,83366,5,10,0:0:0:0:
256,54,83527,1,8,0:0:0:0:
259,101,83607,1,8,0:0:0:0:
263,148,83688,5,4,0:0:0:0:
375,19,83850,1,0,0:0:0:0:
126,93,84011,1,10,0:0:0:0:
366,146,84172,1,0,0:0:0:0:
366,146,84253,1,8,0:0:0:0:
366,146,84334,1,0,0:0:0:0:
256,54,84495,1,0,0:0:0:0:
275,265,84656,1,10,0:0:0:0:
375,19,84817,1,0,0:0:0:0:
89,176,84979,5,8,0:3:0:0:
125,174,85059,1,0,1:3:0:0:
170,172,85140,2,0,L|226:166,1,52.6499975898744,0|0,1:3|1:0,0:0:0:0:
446,158,85301,5,6,0:0:0:0:
255,22,85624,6,0,P|250:45|254:69,1,48.5999985168458,2|2,0:0|0:0,0:0:0:0:
503,310,86269,5,14,0:0:0:0:
177,278,86430,1,0,0:0:0:0:
443,180,86592,5,10,0:0:0:0:
117,212,86753,1,0,0:0:0:0:
363,358,86914,5,10,0:0:0:0:
318,106,87075,1,0,0:0:0:0:
287,358,87237,5,10,0:0:0:0:
369,35,87398,1,2,0:0:0:0:
67,192,87559,5,14,0:0:0:0:
319,245,87721,1,0,0:0:0:0:
149,22,87882,2,0,P|156:51|153:82,1,60.7500023174287,10|0,0:0|0:0,0:0:0:0:
288,98,88043,2,0,P|273:124|267:154,1,60.7500023174287,2|0,0:0|0:0,0:0:0:0:
188,285,88205,5,10,0:0:0:0:
319,31,88366,1,0,0:0:0:0:
188,329,88527,1,10,0:0:0:0:
149,22,88688,2,0,L|209:29,1,60.7500023174287,0|0,1:0|1:0,0:0:0:0:
477,64,88850,5,14,0:0:0:0:
147,125,89011,1,0,0:0:0:0:
439,110,89172,5,10,0:0:0:0:
109,48,89333,1,0,0:0:0:0:
512,53,89495,5,14,0:0:0:0:
373,297,89656,1,0,0:0:0:0:
361,1,89817,5,10,0:0:0:0:
501,244,89979,2,0,P|474:229|444:227,1,60.7500023174287,0|0,1:0|1:0,0:0:0:0:
248,364,90140,5,14,0:0:0:0:
317,124,90301,1,0,0:0:0:0:
231,283,90463,5,10,0:0:0:0:
162,43,90624,1,0,0:0:0:0:
373,297,90785,5,14,0:0:0:0:
100,210,90946,1,0,0:0:0:0:
426,209,91108,5,10,0:0:0:0:
122,359,91269,2,0,P|131:330|131:300,1,60.7500023174287,0|0,1:0|1:0,0:0:0:0:
15,193,91430,6,0,P|99:213|159:151,1,182.250006952286,14|0,0:0|0:0,0:0:0:0:
218,17,91753,2,0,P|213:47|217:77,1,60.7500023174287,10|0,0:0|0:0,0:0:0:0:
342,142,91914,2,0,P|370:130|394:112,1,60.7500023174287,10|0,0:0|0:0,0:0:0:0:
512,289,92075,6,0,B|465:265|465:265|336:284,1,182.250006952286,14|0,0:0|0:0,0:0:0:0:
186,368,92398,2,0,L|179:307,1,60.7500023174287,10|0,0:0|0:0,0:0:0:0:
3,314,92559,2,0,L|9:253,1,60.7500023174287,10|0,0:0|0:0,0:0:0:0:
56,80,92721,6,0,B|63:128|112:149|112:149|153:127|160:78,1,182.250006952286,14|0,0:0|0:0,0:0:0:0:
280,10,93043,2,0,P|263:35|257:65,1,60.7500023174287,10|0,0:0|0:0,0:0:0:0:
412,126,93205,2,0,P|428:100|434:70,1,60.7500023174287,10|0,0:0|0:0,0:0:0:0:
192,221,93366,6,0,B|266:210|266:210|295:220|295:220|371:210,1,182.250006952286,14|0,0:0|0:0,0:0:0:0:
501,140,93688,2,0,L|495:200,1,60.7500023174287,10|0,0:0|0:0,0:0:0:0:
275,355,93850,2,0,L|269:294,1,60.7500023174287,10|0,0:0|0:0,0:0:0:0:
358,72,94011,6,0,P|289:100|305:27,1,182.250006952286,14|0,0:0|0:0,0:0:0:0:
166,1,94334,5,0,0:0:0:0:
149,33,94414,1,0,0:0:0:0:
141,69,94495,1,0,0:0:0:0:
149,104,94575,1,0,0:0:0:0:
168,134,94656,1,0,0:0:0:0:
188,165,94737,1,0,0:0:0:0:
196,200,94817,1,0,0:0:0:0:
191,236,94898,1,0,0:0:0:0:
176,269,94979,1,0,0:0:0:0:
201,235,95059,1,0,0:0:0:0:
235,210,95140,1,0,0:0:0:0:
275,197,95220,1,0,0:0:0:0:
318,197,95301,6,0,P|348:201|376:213,1,60.7500023174287
508,281,95463,2,0,P|496:253|492:223,1,60.7500023174287
483,47,95624,2,0,P|464:71|440:89,1,60.7500023174287
303,59,95785,2,0,P|291:31|287:1,1,60.7500023174287
190,60,95946,5,0,0:0:0:0:
191,84,96026,1,0,0:0:0:0:
193,108,96107,1,0,0:0:0:0:
195,132,96187,1,0,0:0:0:0:
228,161,96269,5,0,0:0:0:0:
227,185,96349,1,0,0:0:0:0:
225,209,96430,1,0,0:0:0:0:
223,233,96510,1,0,0:0:0:0:
219,254,96592,6,0,P|284:226|349:255,1,145.799995550537,6|0,0:0|0:0,0:0:0:0:
385,294,96914,1,8,0:0:0:0:
443,134,97075,1,0,0:0:0:0:
443,134,97156,1,8,0:0:0:0:
443,134,97237,1,0,0:0:0:0:
287,305,97398,1,0,0:0:0:0:
454,242,97559,1,8,0:0:0:0:
219,254,97721,1,0,0:0:0:0:
500,238,97882,6,0,P|528:155|472:88,1,182.250006952286,4|0,0:0|0:0,0:0:0:0:
440,82,98205,6,0,B|419:74|389:36|389:36|426:168,1,206.550003939629,4|0,0:0|0:0,0:0:0:0:
500,238,98527,6,0,P|398:199|324:279,1,230.84999383564,4|0,0:0|0:0,0:0:0:0:
421,296,98850,6,0,P|342:206|236:259,1,255.14999221344,4|0,0:0|0:0,0:0:0:0:
180,350,99172,5,4,0:0:0:0:
191,361,99495,5,8,0:0:0:0:
144,77,99656,1,8,0:0:0:0:
226,342,99817,5,8,0:0:0:0:
269,30,99978,1,8,0:0:0:0:
143,317,100140,5,8,0:0:0:0:
79,7,100301,1,8,0:0:0:0:
382,180,100463,5,8,0:0:0:0:
13,149,100624,1,8,0:0:0:0:
471,150,100785,5,8,0:0:0:0:
96,209,100946,1,8,0:0:0:0:
406,60,101108,5,8,0:0:0:0:
70,296,101269,1,8,0:0:0:0:
240,5,101430,5,8,0:0:0:0:
219,327,101592,1,8,0:0:0:0:
82,13,101753,5,14,0:0:0:0:
357,176,101914,1,0,0:0:0:0:
76,313,102075,1,8,0:0:0:0:
301,96,102237,5,14,0:0:0:0:
234,369,102398,1,0,0:0:0:0:
82,13,102559,1,0,0:0:0:0:
509,216,102721,5,14,0:0:0:0:
15,159,102882,1,0,0:0:0:0:
512,39,103043,1,0,0:0:0:0:
201,372,103205,5,14,0:0:0:0:
279,1,103366,1,0,0:0:0:0:
311,283,103527,1,0,0:0:0:0:
15,159,103688,5,8,1:3:0:0:
83,155,103768,1,0,1:0:0:0:
151,151,103850,2,0,L|203:147,1,52.6499975898744,0|0,1:0|1:0,0:0:0:0:
407,60,104011,2,0,P|390:135|427:203,1,157.949992769623,14|0,0:0|0:0,0:0:0:0:
457,237,104334,5,14,0:0:0:0:
320,197,104495,1,0,1:0:0:0:
214,333,104656,1,10,0:0:0:0:
351,293,104817,1,0,1:0:0:0:
239,218,104979,1,10,0:0:0:0:
293,365,105140,1,0,1:0:0:0:
344,121,105301,5,14,0:0:0:0:
133,344,105463,2,0,L|213:332,1,81,14|0,0:0|0:0,0:0:0:0:
437,303,105785,5,14,0:0:0:0:
214,201,105946,1,14,0:0:0:0:
338,361,106108,1,0,1:0:0:0:
338,361,106188,1,0,1:0:0:0:
338,361,106269,1,10,0:0:0:0:
353,183,106430,1,0,1:0:0:0:
213,332,106592,1,10,0:0:0:0:
198,154,106753,1,0,1:0:0:0:
437,303,106914,5,14,0:0:0:0:
309,274,107075,1,0,1:0:0:0:
481,154,107237,1,10,0:0:0:0:
353,183,107398,1,0,0:0:0:0:
437,303,107559,1,10,0:0:0:0:
409,100,107721,1,0,1:0:0:0:
309,274,107882,5,14,0:0:0:0:
237,116,108043,2,0,P|241:156|234:196,1,81,10|0,0:0|1:0,0:0:0:0:
90,353,108366,5,14,0:0:0:0:
299,279,108527,1,10,0:0:0:0:
72,192,108688,5,0,1:0:0:0:
72,192,108769,1,0,1:0:0:0:
72,192,108850,1,14,0:0:0:0:
92,329,109011,1,0,1:0:0:0:
237,116,109172,1,10,0:0:0:0:
217,253,109333,1,0,1:0:0:0:
19,69,109495,5,14,0:0:0:0:
157,38,109656,1,0,1:0:0:0:
0,167,109817,1,10,0:0:0:0:
138,136,109978,1,0,1:0:0:0:
6,35,110140,1,10,0:0:0:0:
72,224,110301,1,0,1:0:0:0:
154,14,110463,5,14,0:0:0:0:
335,99,110624,2,0,P|296:87|256:90,1,81,10|0,0:0|1:0,0:0:0:0:
0,167,110946,5,14,0:0:0:0:
107,50,111108,1,10,0:0:0:0:
120,321,111269,1,0,1:0:0:0:
120,321,111350,1,0,1:0:0:0:
120,321,111430,1,10,0:0:0:0:
229,156,111592,1,0,1:0:0:0:
233,196,111672,1,0,1:0:0:0:
237,236,111753,5,14,0:0:0:0:
0,167,111914,1,10,0:0:0:0:
398,73,112075,5,0,1:0:0:0:
398,73,112156,1,0,1:0:0:0:
398,73,112237,1,14,0:0:0:0:
295,328,112398,1,10,0:0:0:0:
154,60,112559,5,0,1:0:0:0:
154,60,112640,1,0,1:0:0:0:
154,60,112721,1,14,0:0:0:0:
495,155,112882,1,10,0:0:0:0:
52,328,113043,5,0,1:0:0:0:
52,328,113124,1,0,1:0:0:0:
52,328,113205,1,14,0:0:0:0:
261,47,113366,1,10,0:0:0:0:
323,368,113527,5,0,1:0:0:0:
323,368,113608,1,0,1:0:0:0:
323,368,113688,1,14,0:0:0:0:
139,39,113850,1,10,0:0:0:0:
471,322,114011,5,0,1:0:0:0:
471,322,114092,1,0,1:0:0:0:
471,322,114172,1,10,0:0:0:0:
68,192,114334,1,10,0:0:0:0:
512,0,114495,5,14,0:0:0:0:
