osu file format v14

[General]
AudioFilename: audio.mp3
AudioLeadIn: 0
PreviewTime: 85543
Countdown: 0
SampleSet: Soft
StackLeniency: 0.7
Mode: 2
LetterboxInBreaks: 0
WidescreenStoryboard: 1

[Editor]
Bookmarks: 32076,42398,63043,75946,96592,104334,112075
DistanceSpacing: 2.7
BeatDivisor: 4
GridSize: 8
TimelineZoom: 2.1

[Metadata]
Title:ReI
TitleUnicode:ReI
Artist:THE ORAL CIGARETTES
ArtistUnicode:THE ORAL CIGARETTES
Creator:Greaper
Version:Catzer's Rain
Source:
Tags:AJamez CatzerTM Chatie JeirYagtama yamanaka takuya suzuki shigenobu akirakani akira nakanishi masaya reiproject cut short version
BeatmapID:2039803
BeatmapSetID:973008

[Difficulty]
HPDrainRate:6
CircleSize:4
OverallDifficulty:9
ApproachRate:9
SliderMultiplier:1.8
SliderTickRate:2

[Events]
//Background and Video events
0,0,"bg.jpg",0,0
//Break Periods
//Storyboard Layer 0 (Background)
//Storyboard Layer 1 (Fail)
//Storyboard Layer 2 (Pass)
//Storyboard Layer 3 (Foreground)
//Storyboard Sound Samples

[TimingPoints]
2075,468.75,4,2,6,60,1,0
4887,-100,4,2,6,65,0,0
5825,-100,4,2,6,68,0,0
6996,-100,4,2,6,60,0,0
10512,465.116279069767,4,2,6,65,1,0
10512,-100,4,2,6,65,0,0
12387,468.75,4,2,6,60,1,0
12387,-100,4,2,6,60,0,0
13325,-100,4,2,6,65,0,0
16137,-100,4,2,6,60,0,0
17075,-100,4,2,6,65,0,0
18012,-100,4,2,6,70,0,0
19028,468.75,4,2,6,60,1,0
19965,-100,4,2,6,70,0,0
20903,-100,4,2,6,75,0,0
22074,-100,4,2,6,65,0,0
22771,465.116279069767,4,2,6,65,1,0
23701,-100,4,2,6,60,0,0
25561,-100,4,2,6,65,0,0
28352,-100,4,2,6,60,0,0
32076,322.58064516129,4,2,6,80,1,0
33043,-100,4,2,6,85,0,0
33366,-100,4,2,6,80,0,0
33527,-100,4,2,6,85,0,0
33850,-100,4,2,6,80,0,0
35624,-100,4,2,6,85,0,0
35946,-100,4,2,6,80,0,0
36108,-100,4,2,6,85,0,0
36430,-100,4,2,6,80,0,0
38205,-100,4,2,6,85,0,0
38527,-100,4,2,6,80,0,0
38688,-100,4,2,6,85,0,0
39011,-100,4,2,6,80,0,0
40785,-100,4,2,6,85,0,0
41108,-100,4,2,6,80,0,0
41269,-100,4,2,6,85,0,0
41592,-100,4,2,6,80,0,0
41753,-100,4,3,7,80,0,0
42075,-100,4,3,7,80,0,0
42398,-100,4,2,6,70,0,0
51430,-100,4,2,6,65,0,0
52721,-100,4,2,6,70,0,0
61672,-100,4,2,6,5,0,0
61753,-100,4,2,6,65,0,0
62398,-100,4,3,7,60,0,0
63043,-100,4,2,6,70,0,0
70785,-100,4,2,6,75,0,0
73366,-100,4,2,6,80,0,0
75301,-100,4,2,6,75,0,0
75946,-100,4,2,6,90,0,1
80382,-100,4,2,6,5,0,1
80463,-80,4,2,6,80,0,1
80785,-80,4,3,7,80,0,1
81108,-100,4,2,6,85,0,1
84979,-80,4,3,7,80,0,1
85301,-100,4,2,6,80,0,0
86269,-100,4,2,6,90,0,1
94334,-80,4,2,6,80,0,1
95301,-80,4,2,6,85,0,1
96592,-100,4,2,6,80,0,0
98124,-100,4,2,6,5,0,0
98205,-100,4,2,6,80,0,0
98446,-100,4,2,6,5,0,0
98527,-100,4,2,6,80,0,0
99495,-80,4,2,6,82,0,0
99656,-80,4,2,6,32,0,0
99817,-80,4,2,6,42,0,0
99979,-80,4,2,6,52,0,0
100140,-80,4,2,6,62,0,0
100301,-80,4,2,6,72,0,0
100463,-100,4,2,6,82,0,0
100785,-100,4,2,6,92,0,0
101108,-100,4,2,6,88,0,0
101430,-100,4,2,6,98,0,0
101753,-80,4,2,6,90,0,0
103688,-80,4,2,6,80,0,0
104011,-100,4,2,6,85,0,0
104253,-100,4,2,6,5,0,0
104334,-100,4,2,6,80,0,0
105301,-100,4,2,6,85,0,0
105624,-100,4,2,6,80,0,0
105785,-100,4,2,6,85,0,0
106108,-100,4,2,6,80,0,0
107882,-100,4,2,6,85,0,0
108205,-100,4,2,6,80,0,0
108366,-100,4,2,6,85,0,0
108688,-100,4,2,6,80,0,0
110463,-100,4,2,6,85,0,0
110785,-100,4,2,6,80,0,0
110946,-100,4,2,6,85,0,0
111269,-100,4,2,6,80,0,0
111753,-100,4,2,6,90,0,0
112075,-100,4,2,6,80,0,0
114172,-100,4,2,6,90,0,0
114656,-100,4,2,6,50,0,0
114979,-100,4,2,6,40,0,0
115301,-100,4,2,6,35,0,0
115624,-100,4,2,6,30,0,0
115946,-100,4,2,6,25,0,0
116269,-100,4,2,6,20,0,0
116592,-100,4,2,6,15,0,0
116914,-100,4,2,6,10,0,0
117237,-100,4,2,6,5,0,0

[Colours]
Combo1 : 255,149,202
Combo2 : 151,151,255
Combo3 : 255,140,140
Combo4 : 74,165,255

[HitObjects]
192,280,2075,5,2,0:0:0:0:
72,280,2309,1,0,0:0:0:0:
192,280,2543,1,0,0:0:0:0:
448,288,2778,2,0,P|317:304|214:123,1,360
472,272,3950,5,2,0:0:0:0:
368,272,4184,1,0,0:0:0:0:
472,272,4418,1,0,0:0:0:0:
368,272,4653,1,0,0:0:0:0:
112,264,4887,2,0,P|104:192|280:128,1,270,2|0,0:0|0:0,0:0:0:0:
464,256,5825,5,2,0:0:0:0:
360,256,6059,1,0,0:0:0:0:
256,256,6293,1,0,0:0:0:0:
400,32,6528,2,0,L|384:216,1,180
320,240,7231,5,0,0:0:0:0:
456,240,7465,1,0,0:0:0:0:
184,328,7700,1,2,0:0:0:0:
288,328,7934,1,0,0:0:0:0:
392,328,8168,1,0,0:0:0:0:
128,216,8637,5,2,0:0:0:0:
472,208,9106,1,0,0:0:0:0:
128,216,9575,5,2,0:0:0:0:
24,216,9809,1,0,0:0:0:0:
128,312,10043,1,0,0:0:0:0:
336,312,10278,1,0,0:0:0:0:
96,168,10512,2,0,P|176:88|304:168,1,270
328,288,11442,5,2,0:0:0:0:
176,232,11674,1,0,0:0:0:0:
328,288,11907,1,0,0:0:0:0:
480,336,12139,1,0,0:0:0:0:
200,208,12387,6,0,L|16:216,1,180,2|0,0:0|0:0,0:0:0:0:
464,216,13325,1,2,0:0:0:0:
360,216,13559,1,0,0:0:0:0:
256,216,13793,1,0,0:0:0:0:
480,216,14028,2,0,P|400:170|448:1,1,270
288,40,14965,1,0,0:0:0:0:
480,184,15200,5,2,0:0:0:0:
376,184,15434,1,0,0:0:0:0:
272,184,15668,1,0,0:0:0:0:
8,184,15903,1,0,0:0:0:0:
152,264,16137,2,0,L|360:272,1,180,2|0,0:0|0:0,0:0:0:0:
112,208,17075,5,2,0:0:0:0:
216,208,17309,1,0,0:0:0:0:
96,208,17543,1,0,0:0:0:0:
224,208,17778,1,0,0:0:0:0:
16,208,18012,2,0,P|40:104|192:88,1,270
424,232,19028,5,2,0:0:0:0:
320,232,19262,1,0,0:0:0:0:
216,232,19496,1,0,0:0:0:0:
336,160,19731,1,0,0:0:0:0:
80,168,19965,6,0,P|112:80|328:136,1,360,2|2,0:0|0:0,0:0:0:0:
224,200,21137,1,0,0:0:0:0:
328,200,21371,1,0,0:0:0:0:
224,200,21606,1,0,0:0:0:0:
488,232,22074,1,0,0:0:0:0:
376,232,22309,1,0,0:0:0:0:
272,232,22543,1,0,0:0:0:0:
8,192,22771,5,2,0:0:0:0:
112,192,23003,1,0,0:0:0:0:
224,192,23236,1,0,0:0:0:0:
480,208,23701,5,2,0:0:0:0:
280,208,23933,1,0,0:0:0:0:
480,208,24166,1,0,0:0:0:0:
176,224,24631,5,2,0:0:0:0:
56,216,24864,1,0,0:0:0:0:
176,224,25096,1,0,0:0:0:0:
368,232,25329,1,0,0:0:0:0:
144,200,25561,2,0,P|136:104|352:128,1,360,0|2,0:0|0:0,0:0:0:0:
192,136,26957,5,0,0:0:0:0:
72,136,27189,1,0,0:0:0:0:
464,232,27422,1,2,0:0:0:0:
288,224,27654,1,0,0:0:0:0:
464,232,27887,1,0,0:0:0:0:
112,128,28352,6,0,L|304:144,1,180,2|0,0:0|0:0,0:0:0:0:
40,200,29050,2,0,P|47:280|213:296,1,270,0|2,0:0|0:0,0:0:0:0:
480,200,30212,2,0,L|288:200,1,180,0|2,0:0|0:0,0:0:0:0:
152,304,31026,2,0,L|104:80,1,225,0|2,0:0|0:0,0:0:0:0:
8,104,31840,1,0,0:0:0:0:
328,224,32076,6,0,L|432:224,1,90,12|0,0:0|1:0,0:0:0:0:
508,224,32398,2,0,L|404:224,1,90,8|0,0:0|1:0,0:0:0:0:
256,224,32721,1,8,0:0:0:0:
416,216,32882,1,0,1:0:0:0:
176,176,33043,1,12,0:0:0:0:
328,176,33205,5,4,1:0:0:0:
176,248,33366,1,0,1:0:0:0:
416,264,33527,2,0,L|432:168,1,90,12|12,0:0|0:0,0:0:0:0:
280,112,33849,1,0,1:0:0:0:
328,112,33930,1,0,1:0:0:0:
376,112,34011,2,0,L|480:112,1,90,12|0,0:0|1:0,0:0:0:0:
312,160,34334,2,0,L|272:264,1,90,12|0,0:0|1:0,0:0:0:0:
40,272,34656,6,0,L|136:288,1,90,8|0,0:0|1:0,0:0:0:0:
280,232,34979,2,0,L|320:136,1,90,8|0,0:0|1:0,0:0:0:0:
160,104,35301,2,0,L|120:200,1,90,8|0,0:0|1:0,0:0:0:0:
352,272,35624,1,12,0:0:0:0:
192,288,35785,2,0,L|192:184,1,90,4|8,1:0|0:0,0:0:0:0:
424,264,36108,1,12,0:0:0:0:
264,256,36269,1,12,0:0:0:0:
424,264,36430,1,0,1:0:0:0:
208,144,36592,2,0,L|176:248,1,90,12|0,0:0|1:0,0:0:0:0:
344,248,36914,2,0,L|376:152,1,90,12|0,0:0|1:0,0:0:0:0:
104,112,37237,5,8,0:0:0:0:
240,112,37398,1,0,1:0:0:0:
80,104,37559,2,0,L|80:224,1,90,8|0,0:0|1:0,0:0:0:0:
232,144,37882,2,0,L|136:160,1,90,8|0,0:0|1:0,0:0:0:0:
376,232,38205,1,4,0:0:0:0:
216,232,38366,6,0,L|320:232,1,90,4|2,1:0|0:0,0:0:0:0:
72,160,38688,1,12,0:0:0:0:
232,160,38850,1,12,0:0:0:0:
80,208,39011,1,0,1:0:0:0:
112,208,39092,1,0,1:0:0:0:
136,208,39172,2,0,L|232:208,1,90,12|0,0:0|1:0,0:0:0:0:
384,256,39495,2,0,L|280:256,1,90,12|0,0:0|1:0,0:0:0:0:
48,256,39817,6,0,L|152:256,1,90,8|0,0:0|1:0,0:0:0:0:
296,288,40140,2,0,L|312:184,1,90,8|0,0:0|1:0,0:0:0:0:
152,176,40463,1,8,0:0:0:0:
304,120,40623,1,0,1:0:0:0:
72,184,40785,1,12,0:0:0:0:
232,200,40946,6,0,L|232:104,1,90,4|2,0:0|0:0,0:0:0:0:
512,208,41269,1,12,0:0:0:0:
384,208,41430,2,0,L|275:210,1,90,4|8,0:0|0:0,0:0:0:0:
184,200,41753,1,8,0:0:0:0:
143,191,41834,5,8,0:0:0:0:
103,172,41914,1,8,0:0:0:0:
84,130,41995,1,8,0:0:0:0:
304,72,42075,2,0,L|368:72,1,45,4|4,0:0|0:0,0:0:0:0:
128,72,42237,2,0,L|80:72,1,45,4|4,0:0|0:0,0:0:0:0:
468,292,42398,6,0,P|448:205|362:162,1,180,6|8,0:0|0:0,0:0:0:0:
224,232,42882,1,0,0:0:0:0:
352,136,43043,2,0,L|392:40,1,90,0|0,1:0|1:0,0:0:0:0:
512,88,43366,2,0,L|472:192,1,90,8|0,0:0|0:0,0:0:0:0:
240,216,43688,6,0,P|200:144|264:64,1,180,2|8,1:2|0:0,0:0:0:0:
392,136,44172,1,0,0:0:0:0:
248,216,44334,2,0,L|152:216,2,90,0|0|8,1:0|1:0|0:0,0:0:0:0:
408,208,44817,1,0,0:0:0:0:
184,72,44979,6,0,L|-8:88,1,180,0|8,1:0|0:0,0:0:0:0:
128,224,45463,1,0,0:0:0:0:
163,304,45624,1,0,1:0:0:0:
246,328,45785,1,0,1:0:0:0:
318,281,45946,1,8,0:0:0:0:
168,216,46108,1,0,0:0:0:0:
464,304,46269,6,0,L|488:96,1,180,0|8,1:0|0:0,0:0:0:0:
352,120,46753,1,0,0:0:0:0:
200,168,46914,2,0,L|144:264,1,90,0|0,1:0|1:0,0:0:0:0:
312,296,47237,2,0,L|360:208,1,90,8|0,0:0|0:0,0:0:0:0:
112,208,47559,6,0,P|80:120|144:56,1,180,4|8,1:2|0:0,0:0:0:0:
280,56,48043,1,0,0:0:0:0:
136,144,48205,1,0,1:0:0:0:
24,144,48366,1,0,1:0:0:0:
152,232,48527,2,0,L|248:248,1,90,8|0,0:0|0:0,0:0:0:0:
512,112,48850,6,0,L|320:136,1,180,0|8,1:0|0:0,0:0:0:0:
168,128,49334,1,0,0:0:0:0:
312,64,49495,2,0,L|408:64,1,90,0|0,1:0|1:0,0:0:0:0:
508,64,49817,2,0,L|404:64,1,90,8|0,0:0|0:0,0:0:0:0:
192,184,50140,6,0,P|176:112|248:32,1,180,0|8,1:0|0:0,0:0:0:0:
400,104,50624,1,0,0:0:0:0:
476,143,50785,1,0,1:0:0:0:
485,229,50946,1,0,1:0:0:0:
419,284,51107,1,8,0:0:0:0:
224,288,51269,1,0,0:0:0:0:
448,200,51430,6,0,L|256:216,1,180,4|2,1:2|0:0,0:0:0:0:
416,152,51914,1,8,0:0:0:0:
264,104,52075,2,0,L|216:208,1,90,0|0,1:0|1:0,0:0:0:0:
384,224,52398,2,0,L|432:128,1,90,2|8,0:0|0:0,0:0:0:0:
160,248,52721,6,0,P|128:176|216:104,1,180,6|8,0:0|0:0,0:0:0:0:
40,48,53205,1,0,0:0:0:0:
224,48,53366,2,0,L|120:48,1,90,0|0,1:0|1:0,0:0:0:0:
256,200,53688,2,0,L|272:288,1,90,8|0,0:0|0:0,0:0:0:0:
496,184,54011,6,0,L|304:176,1,180,0|8,1:0|0:0,0:0:0:0:
440,72,54495,1,0,0:0:0:0:
280,64,54656,2,0,L|176:64,1,90,0|0,1:0|1:0,0:0:0:0:
296,184,54979,2,0,L|392:184,1,90,8|0,0:0|0:0,0:0:0:0:
144,216,55301,6,0,L|336:224,1,180,0|8,1:0|0:0,0:0:0:0:
424,224,55785,1,0,0:0:0:0:
280,152,55946,2,0,L|176:160,1,90,0|0,1:0|1:0,0:0:0:0:
24,168,56269,1,8,0:0:0:0:
152,264,56430,1,0,0:0:0:0:
392,280,56592,6,0,P|408:176|328:120,1,180,0|8,1:0|0:0,0:0:0:0:
456,104,57075,1,0,0:0:0:0:
296,72,57237,2,0,L|200:72,1,90,0|0,1:0|1:0,0:0:0:0:
360,128,57559,2,0,L|472:128,1,90,8|0,0:0|0:0,0:0:0:0:
208,184,57882,6,0,L|392:168,1,180,0|8,1:0|0:0,0:0:0:0:
264,104,58366,1,0,0:0:0:0:
88,248,58527,2,0,L|48:344,1,90,0|0,1:0|1:0,0:0:0:0:
200,368,58850,2,0,L|240:272,1,90,8|0,0:0|0:0,0:0:0:0:
480,240,59172,6,0,P|496:152|424:88,1,180,0|8,1:0|0:0,0:0:0:0:
512,56,59656,1,0,0:0:0:0:
352,80,59817,1,0,1:0:0:0:
311,156,59978,1,0,1:0:0:0:
355,230,60139,1,8,0:0:0:0:
440,264,60300,1,0,0:0:0:0:
184,176,60463,6,0,L|0:192,1,180,0|8,1:0|0:0,0:0:0:0:
104,272,60946,1,0,0:0:0:0:
256,280,61108,2,0,L|344:312,1,90,0|0,1:0|1:0,0:0:0:0:
8,176,61430,2,0,L|152:160,1,135,4|0,0:0|0:0,0:0:0:0:
304,88,61753,6,0,L|192:88,1,90,0|8,1:0|2:0,0:0:0:0:
176,88,61995,1,8,0:0:0:0:
136,88,62075,1,8,1:2:0:0:
280,168,62237,1,8,0:0:0:0:
128,232,62398,2,0,L|224:232,1,90,8|8,0:0|0:0,0:0:0:0:
368,176,62721,1,4,3:0:0:0:
328,176,62801,1,4,3:0:0:0:
288,176,62882,1,4,3:0:0:0:
16,240,63043,5,0,1:0:0:0:
112,240,63205,1,0,1:0:0:0:
288,248,63366,2,0,L|176:248,1,90,8|0,0:0|0:0,0:0:0:0:
328,168,63688,2,0,L|424:168,2,90,0|0|8,1:0|1:0|0:0,0:0:0:0:
144,176,64172,1,0,0:0:0:0:
248,96,64334,5,0,1:0:0:0:
136,24,64495,1,0,1:0:0:0:
320,96,64656,1,0,0:0:0:0:
160,165,64817,1,8,3:0:0:0:
104,165,64898,1,8,3:0:0:0:
168,109,64979,1,4,3:0:0:0:
304,192,65140,1,4,3:0:0:0:
168,232,65301,1,8,0:0:0:0:
96,192,65463,1,0,0:0:0:0:
400,216,65624,6,0,L|496:216,1,90,4|0,1:2|1:0,0:0:0:0:
336,184,65946,1,0,0:0:0:0:
448,240,66108,1,8,3:0:0:0:
496,240,66188,1,8,3:0:0:0:
448,191,66269,1,0,1:0:0:0:
296,240,66430,1,0,1:0:0:0:
448,168,66592,2,0,L|352:168,1,90,8|0,0:0|0:0,0:0:0:0:
216,168,66914,6,0,L|112:168,2,90,0|0|8,1:0|1:0|0:0,0:0:0:0:
88,306,67398,1,8,3:0:0:0:
40,290,67479,1,8,3:0:0:0:
88,258,67559,1,0,1:0:0:0:
208,320,67721,1,0,1:0:0:0:
24,320,67882,5,8,0:0:0:0:
14,276,67962,1,8,0:0:0:0:
30,235,68043,1,8,0:0:0:0:
66,210,68123,1,8,0:0:0:0:
288,216,68205,6,0,L|192:216,1,90,0|0,1:0|1:0,0:0:0:0:
320,296,68527,2,0,L|432:296,1,90,8|0,0:0|0:0,0:0:0:0:
448,296,68769,1,8,3:0:0:0:
488,296,68850,1,0,1:0:0:0:
368,224,69011,2,0,L|360:112,1,90,0|8,1:0|0:0,0:0:0:0:
64,328,69334,1,0,0:0:0:0:
184,232,69495,5,0,1:0:0:0:
64,232,69656,1,0,1:0:0:0:
208,88,69817,1,8,0:0:0:0:
42,192,69979,1,8,3:0:0:0:
2,168,70059,1,8,3:0:0:0:
42,144,70140,1,4,3:0:0:0:
208,216,70301,1,4,3:0:0:0:
48,272,70463,2,0,L|144:272,1,90,8|0,0:0|0:0,0:0:0:0:
400,304,70785,5,0,1:0:0:0:
280,304,70946,1,0,1:0:0:0:
416,248,71108,2,0,L|456:144,1,90,8|0,0:0|0:0,0:0:0:0:
288,120,71430,2,0,L|248:208,1,90,0|0,1:0|1:0,0:0:0:0:
392,272,71753,1,8,0:0:0:0:
280,272,71914,1,0,0:0:0:0:
448,224,72075,5,0,1:0:0:0:
336,224,72236,1,0,1:0:0:0:
176,232,72398,2,0,L|272:232,1,90,8|0,0:0|0:0,0:0:0:0:
112,272,72721,1,8,0:0:0:0:
55,272,72801,1,0,1:0:0:0:
112,272,72882,1,0,1:0:0:0:
280,192,73043,2,0,L|184:192,1,90,8|0,0:0|1:0,0:0:0:0:
352,192,73366,5,8,0:0:0:0:
112,200,73527,1,0,1:0:0:0:
48,200,73688,1,0,1:0:0:0:
336,208,73850,5,8,0:0:0:0:
224,208,74011,1,0,1:0:0:0:
336,208,74172,1,0,1:0:0:0:
48,216,74334,5,8,0:0:0:0:
144,216,74495,1,0,1:0:0:0:
224,216,74656,1,0,1:0:0:0:
168,216,74737,1,0,1:0:0:0:
112,216,74817,1,8,0:0:0:0:
400,224,74979,1,8,0:0:0:0:
248,256,75301,5,8,0:0:0:0:
292,258,75381,1,8,0:0:0:0:
327,232,75462,1,8,0:0:0:0:
338,190,75542,1,8,0:0:0:0:
192,128,75624,2,0,L|136:128,1,45,8|8,0:0|0:0,0:0:0:0:
424,128,75785,2,0,L|472:128,1,45,8|8,0:0|0:0,0:0:0:0:
216,304,75946,6,0,L|176:208,1,90,4|0,1:2|1:0,0:0:0:0:
296,224,76269,2,0,P|328:176|296:104,1,135,8|8,0:0|0:0,0:0:0:0:
192,80,76592,2,0,L|120:160,1,90,0|0,1:0|1:0,0:0:0:0:
320,224,76914,2,0,L|384:144,1,90,8|0,0:0|0:0,0:0:0:0:
272,80,77237,5,0,1:0:0:0:
184,80,77398,1,0,1:0:0:0:
440,200,77559,2,0,L|376:328,1,135,8|8,0:0|0:0,0:0:0:0:
280,344,77882,2,0,L|184:344,1,90,0|0,1:0|1:0,0:0:0:0:
352,344,78205,2,0,L|472:344,1,90,4|0,0:0|0:0,0:0:0:0:
96,272,78527,6,0,L|-8:304,2,90,4|0|8,0:0|1:0|0:0,0:0:0:0:
232,240,79011,1,0,0:0:0:0:
96,184,79172,2,0,L|-8:184,1,90,0|0,1:0|1:0,0:0:0:0:
168,256,79495,2,0,L|280:256,1,90,8|0,0:0|0:0,0:0:0:0:
504,256,79817,1,0,1:0:0:0:
344,272,79979,1,0,1:0:0:0:
472,256,80140,6,0,L|336:264,1,135,8|0,0:0|0:0,0:0:0:0:
248,256,80463,1,8,0:0:0:0:
231,203,80543,1,8,0:0:0:0:
251,151,80624,1,8,0:0:0:0:
298,122,80704,1,8,0:0:0:0:
440,192,80785,2,8,L|520:192,1,56.25
248,208,80946,2,8,L|176:208,1,56.25
416,336,81108,6,0,L|520:336,2,90,4|0|8,1:2|1:0|0:0,0:0:0:0:
328,336,81592,1,0,0:0:0:0:
16,352,81753,2,0,L|136:352,1,90,4|0,1:2|1:0,0:0:0:0:
264,352,82075,2,0,L|176:312,1,90,8|0,0:0|0:0,0:0:0:0:
480,216,82398,5,4,1:2:0:0:
344,304,82559,1,0,1:0:0:0:
472,296,82720,2,0,L|368:296,1,90,8|0,0:0|0:0,0:0:0:0:
216,296,83043,2,0,L|336:296,1,90,0|0,1:0|1:0,0:0:0:0:
464,320,83366,2,0,L|472:208,1,90,8|0,0:0|0:0,0:0:0:0:
96,176,83688,6,0,L|0:128,2,90,0|0|8,1:0|1:0|0:0,0:0:0:0:
216,184,84172,1,0,0:0:0:0:
96,280,84334,2,0,L|-8:280,2,90,0|0|8,1:0|1:0|0:0,0:0:0:0:
240,256,84817,1,0,0:0:0:0:
488,296,84979,1,4,0:0:0:0:
435,281,85059,1,4,0:0:0:0:
410,232,85140,1,4,0:0:0:0:
427,180,85220,1,4,0:0:0:0:
477,157,85301,1,4,0:0:0:0:
280,120,85624,6,0,L|96:136,1,180
488,216,86269,2,0,L|392:216,1,90,12|0,0:0|1:0,0:0:0:0:
232,216,86592,2,0,L|336:216,1,90,8|0,0:0|1:0,0:0:0:0:
480,224,86914,1,8,0:0:0:0:
322,216,87075,1,0,1:0:0:0:
472,296,87237,2,0,L|368:296,1,90,8|0,0:0|1:0,0:0:0:0:
144,248,87559,6,0,L|48:248,1,90,12|0,0:0|1:0,0:0:0:0:
192,328,87882,2,0,L|296:328,1,90,8|0,0:0|1:0,0:0:0:0:
448,336,88205,1,8,0:0:0:0:
288,328,88366,1,0,1:0:0:0:
408,216,88527,2,0,L|288:216,1,90,8|0,0:0|1:0,0:0:0:0:
496,304,88850,6,0,L|496:192,1,90,12|0,0:0|1:0,0:0:0:0:
336,208,89172,1,8,0:0:0:0:
496,208,89334,1,0,1:0:0:0:
176,200,89495,2,0,L|280:200,1,90,12|0,0:0|1:0,0:0:0:0:
440,288,89817,2,0,L|336:288,1,90,8|0,0:0|1:0,0:0:0:0:
88,280,90140,6,0,L|-16:280,2,90,12|0|8,0:0|1:0|0:0,0:0:0:0:
8,200,90624,1,0,1:0:0:0:
184,208,90785,2,0,L|64:208,1,90,8|0,0:0|1:0,0:0:0:0:
288,208,91108,1,8,0:0:0:0:
160,208,91269,1,0,1:0:0:0:
480,240,91430,6,0,L|296:256,1,180,12|8,0:0|0:0,0:0:0:0:
224,272,91834,1,8,0:0:0:0:
214,228,91914,1,8,0:0:0:0:
229,187,91995,1,8,0:0:0:0:
266,161,92075,1,8,0:0:0:0:
96,288,92398,5,8,0:0:0:0:
122,252,92478,1,8,0:0:0:0:
127,208,92559,1,8,0:0:0:0:
107,168,92639,1,8,0:0:0:0:
69,145,92720,1,8,0:0:0:0:
384,256,93043,1,8,0:0:0:0:
346,233,93123,1,8,0:0:0:0:
328,192,93204,1,8,0:0:0:0:
337,149,93284,1,8,0:0:0:0:
369,119,93365,1,8,0:0:0:0:
80,152,93688,5,8,0:0:0:0:
87,196,93768,1,8,0:0:0:0:
76,239,93849,1,8,0:0:0:0:
50,275,93929,1,8,0:0:0:0:
12,298,94010,1,8,0:0:0:0:
416,280,94334,5,8,0:0:0:0:
365,256,94414,1,8,0:0:0:0:
339,208,94495,1,8,0:0:0:0:
349,153,94575,1,8,0:0:0:0:
389,116,94656,5,8,0:0:0:0:
464,88,94737,1,8,0:0:0:0:
499,130,94817,1,8,0:0:0:0:
503,185,94898,1,8,0:0:0:0:
472,231,94978,5,8,0:0:0:0:
420,250,95059,1,8,0:0:0:0:
336,256,95140,1,8,0:0:0:0:
363,207,95220,1,8,0:0:0:0:
365,152,95301,5,8,0:0:0:0:
341,102,95381,1,8,0:0:0:0:
296,69,95462,1,8,0:0:0:0:
232,120,95543,1,8,0:0:0:0:
239,175,95623,5,8,0:0:0:0:
272,219,95704,1,8,0:0:0:0:
324,241,95784,1,8,0:0:0:0:
379,234,95865,1,8,0:0:0:0:
400,176,95946,5,8,3:0:0:0:
398,120,96026,1,8,3:0:0:0:
360,80,96107,1,8,3:0:0:0:
306,49,96187,1,8,3:0:0:0:
176,48,96269,2,4,L|96:48,1,56.25,4|4,3:0|3:0,3:0:0:0:
368,48,96430,2,4,L|448:48,1,56.25,4|4,3:0|3:0,3:0:0:0:
152,80,96592,6,0,L|48:80,2,90,4|0|8,1:2|1:0|0:0,0:0:0:0:
296,56,97075,1,0,0:0:0:0:
264,120,97156,1,8,0:0:0:0:
224,176,97237,2,0,L|320:176,1,90,0|0,1:0|1:0,0:0:0:0:
440,176,97559,2,0,L|336:176,1,90,8|0,0:0|0:0,0:0:0:0:
16,232,97882,6,0,L|160:248,1,135,4|0,1:2|0:0,0:0:0:0:
216,336,98205,2,0,L|192:176,1,135,12|0,0:0|0:0,0:0:0:0:
104,112,98527,2,0,L|240:32,1,135,4|0,1:2|0:0,0:0:0:0:
296,120,98850,2,0,L|375:-3,1,135,12|0,0:0|0:0,0:0:0:0:
184,64,99172,6,0,L|0:80,1,180,4|8,1:2|0:0,0:0:0:0:
160,160,99656,1,8,0:0:0:0:
88,160,99817,1,8,0:0:0:0:
192,160,99979,1,8,0:0:0:0:
64,160,100140,1,8,0:0:0:0:
224,160,100301,1,8,0:0:0:0:
72,184,100463,6,0,L|168:184,1,90,8|8,0:0|0:0,0:0:0:0:
304,184,100785,2,0,L|192:184,1,90,8|8,0:0|0:0,0:0:0:0:
24,192,101108,2,0,L|120:192,1,90,8|8,0:0|0:0,0:0:0:0:
272,200,101430,2,0,L|160:200,1,90,8|0,0:0|1:0,0:0:0:0:
464,208,101753,5,12,0:0:0:0:
368,208,101914,1,0,1:0:0:0:
272,200,102075,1,0,1:0:0:0:
32,240,102237,5,12,0:0:0:0:
160,168,102398,1,0,1:0:0:0:
24,112,102559,1,0,1:0:0:0:
360,200,102721,5,12,0:0:0:0:
232,200,102882,1,0,1:0:0:0:
360,200,103043,1,0,1:0:0:0:
16,216,103205,1,12,0:0:0:0:
120,224,103366,1,0,1:0:0:0:
224,224,103527,1,0,1:0:0:0:
504,272,103688,5,8,0:0:0:0:
488,240,103768,1,8,3:0:0:0:
472,200,103849,1,4,3:0:0:0:
456,168,103929,1,0,1:0:0:0:
304,104,104011,2,0,L|160:104,1,135,4|0,0:0|0:0,0:0:0:0:
8,208,104334,6,0,L|104:208,1,90,8|0,0:0|1:0,0:0:0:0:
208,208,104656,2,0,L|88:208,1,90,8|0,0:0|1:0,0:0:0:0:
232,144,104979,1,8,0:0:0:0:
128,144,105140,1,0,1:0:0:0:
368,152,105301,1,4,0:0:0:0:
232,240,105463,6,0,L|248:144,1,90,4|0,1:0|1:0,0:0:0:0:
24,240,105785,1,12,0:0:0:0:
184,240,105946,1,12,0:0:0:0:
344,216,106108,1,0,1:0:0:0:
304,216,106188,1,0,1:0:0:0:
256,216,106269,2,0,L|152:216,1,90,12|0,0:0|1:0,0:0:0:0:
8,216,106592,2,0,L|120:216,1,90,12|0,0:0|1:0,0:0:0:0:
360,168,106914,5,8,0:0:0:0:
240,168,107075,1,0,1:0:0:0:
352,216,107237,2,0,L|320:312,1,90,8|0,0:0|1:0,0:0:0:0:
176,240,107559,2,0,L|216:144,1,90,8|0,0:0|1:0,0:0:0:0:
456,136,107882,1,12,0:0:0:0:
296,136,108043,6,0,L|200:136,1,90,4|0,1:0|1:0,0:0:0:0:
432,232,108366,1,12,0:0:0:0:
264,248,108527,1,12,0:0:0:0:
408,312,108688,1,0,1:0:0:0:
168,304,108850,2,0,L|248:216,1,90,12|0,0:0|1:0,0:0:0:0:
376,296,109172,2,0,L|296:384,1,90,12|0,0:0|1:0,0:0:0:0:
112,232,109495,6,0,L|-8:232,2,90,12|0|8,0:0|1:0|0:0,0:0:0:0:
272,224,109979,1,0,1:0:0:0:
432,232,110140,2,0,L|432:128,1,90,8|0,0:0|1:0,0:0:0:0:
128,224,110463,1,12,0:0:0:0:
288,224,110624,5,4,1:0:0:0:
152,312,110785,1,0,1:0:0:0:
384,248,110946,1,12,0:0:0:0:
224,248,111108,1,8,0:0:0:0:
368,176,111269,1,0,1:0:0:0:
328,176,111350,1,0,1:0:0:0:
280,176,111430,2,0,L|168:176,1,90,12|0,0:0|1:0,0:0:0:0:
24,176,111753,2,0,L|144:176,1,90,12|0,0:0|1:0,0:0:0:0:
272,176,112075,1,0,1:0:0:0:
16,240,112237,5,8,0:0:0:0:
16,136,112398,1,8,0:0:0:0:
368,280,112721,1,8,0:0:0:0:
376,152,112882,1,8,0:0:0:0:
112,224,113205,1,8,0:0:0:0:
40,224,113366,1,8,0:0:0:0:
432,232,113688,1,8,0:0:0:0:
504,232,113849,1,8,0:0:0:0:
40,256,114172,1,8,0:0:0:0:
136,256,114334,1,8,0:0:0:0:
416,264,114495,5,12,0:0:0:0:
256,192,114656,12,2,117237,0:0:0:0:
