osu file format v14

[General]
AudioFilename: audio.mp3
AudioLeadIn: 0
PreviewTime: 85543
Countdown: 0
SampleSet: Soft
StackLeniency: 0.7
Mode: 2
LetterboxInBreaks: 0
WidescreenStoryboard: 1

[Editor]
Bookmarks: 32076,42398,63043,75946,96592,104334,112075
DistanceSpacing: 0.7
BeatDivisor: 4
GridSize: 32
TimelineZoom: 2.1

[Metadata]
Title:ReI
TitleUnicode:ReI
Artist:THE ORAL CIGARETTES
ArtistUnicode:THE ORAL CIGARETTES
Creator:Greaper
Version:AJamez's Ameagari
Source:
Tags:AJamez CatzerTM Chatie JeirYagtama yamanaka takuya suzuki shigenobu akirakani akira nakanishi masaya reiproject cut short version
BeatmapID:2073815
BeatmapSetID:973008

[Difficulty]
HPDrainRate:7
CircleSize:4
OverallDifficulty:9.5
ApproachRate:9.5
SliderMultiplier:1.95
SliderTickRate:2

[Events]
//Background and Video events
0,0,"bg.jpg",0,0
//Break Periods
//Storyboard Layer 0 (Background)
//Storyboard Layer 1 (Fail)
//Storyboard Layer 2 (Pass)
//Storyboard Layer 3 (Foreground)
//Storyboard Sound Samples

[TimingPoints]
2075,468.75,4,2,22,60,1,0
4887,-100,4,2,22,65,0,0
5825,-100,4,2,22,68,0,0
6996,-100,4,2,22,60,0,0
10512,465.116279069767,4,2,22,65,1,0
10512,-100,4,2,22,65,0,0
12387,468.75,4,2,22,60,1,0
12387,-100,4,2,22,60,0,0
13325,-100,4,2,22,65,0,0
16137,-100,4,2,22,60,0,0
17075,-100,4,2,22,65,0,0
18012,-100,4,2,22,70,0,0
19028,468.75,4,2,22,60,1,0
19965,-100,4,2,22,70,0,0
20903,-100,4,2,22,75,0,0
22074,-100,4,2,22,65,0,0
22771,465.116279069767,4,2,22,65,1,0
23701,-100,4,2,22,60,0,0
25561,-100,4,2,22,65,0,0
28352,-100,4,2,22,60,0,0
28468,-100,4,2,22,40,0,0
30212,-100,4,2,22,20,0,0
31026,-100,4,2,22,10,0,0
31840,-100,4,2,22,5,0,0
32076,322.58064516129,4,2,22,80,1,0
32076,-83.3333333333333,4,2,22,80,0,0
33043,-83.3333333333333,4,2,22,85,0,0
33366,-83.3333333333333,4,2,22,80,0,0
33527,-83.3333333333333,4,2,22,85,0,0
33850,-83.3333333333333,4,2,22,80,0,0
35624,-83.3333333333333,4,2,22,85,0,0
35946,-83.3333333333333,4,2,22,80,0,0
36108,-83.3333333333333,4,2,22,85,0,0
36430,-83.3333333333333,4,2,22,80,0,0
38205,-83.3333333333333,4,2,22,85,0,0
38527,-83.3333333333333,4,2,22,80,0,0
38688,-83.3333333333333,4,2,22,85,0,0
39011,-83.3333333333333,4,2,22,80,0,0
40785,-83.3333333333333,4,2,22,85,0,0
41108,-83.3333333333333,4,2,22,80,0,0
41269,-83.3333333333333,4,2,22,85,0,0
41592,-83.3333333333333,4,2,22,80,0,0
41753,-83.3333333333333,4,3,22,80,0,0
42075,-83.3333333333333,4,3,22,80,0,0
42398,-100,4,2,22,70,0,0
51430,-100,4,2,22,65,0,0
52721,-100,4,2,22,70,0,0
61753,-100,4,3,22,65,0,0
62398,-100,4,3,22,60,0,0
63043,-100,4,2,22,70,0,0
70785,-100,4,2,22,75,0,0
73366,-100,4,2,22,80,0,0
75301,-83.3333333333333,4,2,22,75,0,0
75946,-76.9230769230769,4,2,22,90,0,1
80463,-76.9230769230769,4,3,22,80,0,1
80785,-76.9230769230769,4,3,22,80,0,1
81108,-76.9230769230769,4,2,22,85,0,1
84979,-76.9230769230769,4,3,22,80,0,1
85301,-100,4,2,22,80,0,0
86269,-76.9230769230769,4,2,22,90,0,1
94334,-76.9230769230769,4,2,22,80,0,1
95301,-76.9230769230769,4,2,22,85,0,1
96592,-80,4,2,22,80,0,0
99495,-80,4,2,22,82,0,0
100463,-80,4,2,22,85,0,0
101108,-80,4,2,22,88,0,0
101753,-80,4,2,22,90,0,0
103688,-80,4,2,22,80,0,0
104011,-80,4,2,22,85,0,0
104334,-83.3333333333333,4,2,22,80,0,0
105301,-83.3333333333333,4,2,22,85,0,0
105624,-83.3333333333333,4,2,22,80,0,0
105785,-83.3333333333333,4,2,22,85,0,0
106108,-83.3333333333333,4,2,22,80,0,0
107882,-83.3333333333333,4,2,22,85,0,0
108205,-83.3333333333333,4,2,22,80,0,0
108366,-83.3333333333333,4,2,22,85,0,0
108688,-83.3333333333333,4,2,22,80,0,0
110463,-83.3333333333333,4,2,22,85,0,0
110785,-83.3333333333333,4,2,22,80,0,0
110946,-83.3333333333333,4,2,22,85,0,0
111269,-83.3333333333333,4,2,22,80,0,0
111753,-83.3333333333333,4,2,22,90,0,0
112075,-83.3333333333333,4,2,22,80,0,0
114172,-83.3333333333333,4,2,22,90,0,0
114656,-100,4,2,22,50,0,0
114979,-100,4,2,22,40,0,0
115301,-100,4,2,22,35,0,0
115624,-100,4,2,22,30,0,0
115946,-100,4,2,22,25,0,0
116269,-100,4,2,22,20,0,0
116592,-100,4,2,22,15,0,0
116914,-100,4,2,22,10,0,0
117237,-100,4,2,22,5,0,0

[Colours]
Combo1 : 255,149,202
Combo2 : 151,151,255
Combo3 : 255,140,140
Combo4 : 74,165,255

[HitObjects]
434,181,2075,6,0,P|485:120|386:70,1,195,0|0,0:0|0:0,0:0:0:0:
287,65,2778,1,0,0:0:0:0:
71,221,3012,2,0,P|122:284|255:310,1,195,0|0,0:0|0:0,0:0:0:0:
87,350,3715,1,0,0:0:0:0:
380,336,3950,6,0,L|505:331,3,97.5,0|0|0|0,0:0|0:0|0:0|0:0,0:0:0:0:
265,236,4887,2,0,P|218:160|309:145,1,195,0|0,0:0|0:0,0:0:0:0:
470,170,5590,1,0,0:0:0:0:
165,27,5825,6,0,P|77:40|28:138,1,195,0|0,0:0|0:0,0:0:0:0:
205,179,6528,2,0,L|316:191,1,97.5,0|0,0:0|0:0,0:0:0:0:
106,278,6996,2,0,L|244:289,1,97.5,0|0,0:0|0:0,0:0:0:0:
28,129,7465,1,0,0:0:0:0:
379,148,7700,5,0,0:0:0:0:
247,108,7934,1,0,0:0:0:0:
108,49,8168,2,0,L|130:-62,1,97.5,0|0,0:0|0:0,0:0:0:0:
343,242,8637,1,0,0:0:0:0:
211,202,8871,1,0,0:0:0:0:
72,143,9105,2,0,L|162:64,1,97.5,0|0,0:0|0:0,0:0:0:0:
457,53,9575,5,0,0:0:0:0:
296,57,9809,1,0,0:0:0:0:
464,152,10043,2,0,L|475:283,1,97.5,0|0,0:0|0:0,0:0:0:0:
235,317,10512,2,0,P|278:254|470:150,1,292.5
141,73,11442,6,0,L|18:69,3,97.5
236,154,12387,2,0,L|345:159,1,97.5,0|0,0:0|0:0,0:0:0:0:
125,260,12856,2,0,L|17:268,1,97.5,0|0,0:0|0:0,0:0:0:0:
356,326,13325,6,0,L|472:331,2,97.5,0|0|0,0:0|0:0|0:0,0:0:0:0:
140,304,14028,2,0,P|134:235|254:182,1,195,0|0,0:0|0:0,0:0:0:0:
57,88,14731,2,0,L|194:71,1,97.5,0|0,0:0|0:0,0:0:0:0:
462,30,15200,5,0,0:0:0:0:
336,67,15434,1,0,0:0:0:0:
288,187,15668,1,0,0:0:0:0:
351,300,15903,1,0,0:0:0:0:
150,351,16137,2,0,L|117:219,1,97.5,0|0,0:0|0:0,0:0:0:0:
333,187,16606,2,0,L|362:76,1,97.5,0|0,0:0|0:0,0:0:0:0:
29,40,17075,6,0,P|83:98|208:116,1,195,0|0,0:0|0:0,0:0:0:0:
41,186,17778,1,0,0:0:0:0:
267,303,18012,2,0,P|320:243|222:206,1,195,0|0,0:0|0:0,0:0:0:0:
78,272,18715,1,0,0:0:0:0:
379,238,19028,5,0,0:0:0:0:
337,151,19262,1,0,0:0:0:0:
257,98,19496,1,0,0:0:0:0:
160,95,19731,1,0,0:0:0:0:
470,304,19965,2,0,P|383:267|492:173,1,292.5,0|0,0:0|0:0,0:0:0:0:
158,82,20903,6,0,P|100:106|181:162,1,195,0|0,0:0|0:0,0:0:0:0:
332,229,21606,1,0,0:0:0:0:
185,277,21840,1,0,0:0:0:0:
375,334,22074,2,0,L|508:349,2,97.5,0|0|0,0:0|0:0|0:0,0:0:0:0:
58,320,22771,5,0,0:0:0:0:
202,278,23003,1,0,0:0:0:0:
48,196,23236,2,0,L|160:169,1,97.5,0|0,0:0|0:0,0:0:0:0:
369,150,23701,1,0,0:0:0:0:
214,112,23933,1,0,0:0:0:0:
390,26,24166,2,0,L|510:37,1,97.5,0|0,0:0|0:0,0:0:0:0:
159,309,24631,6,0,P|100:287|178:231,1,195,0|0,0:0|0:0,0:0:0:0:
303,231,25329,1,0,0:0:0:0:
84,154,25561,2,0,P|157:121|34:68,1,292.5,0|0,0:0|0:0,0:0:0:0:
341,46,26491,6,0,P|419:72|368:174,1,195,0|0,0:0|0:0,0:0:0:0:
215,199,27189,1,0,0:0:0:0:
392,276,27422,2,0,L|521:293,1,97.5,0|0,0:0|0:0,0:0:0:0:
293,351,27887,2,0,L|420:364,1,97.5,0|0,0:0|0:0,0:0:0:0:
41,296,28352,5,0,0:0:0:0:
256,192,28468,12,0,31840,0:0:0:0:
450,348,32076,6,0,L|483:197,1,116.999996429443,14|0,0:0|1:0,0:0:0:0:
194,186,32398,2,0,L|172:66,1,116.999996429443,10|2,0:0|1:0,0:0:0:0:
353,4,32721,2,0,L|379:129,1,116.999996429443,8|2,0:0|1:0,0:0:0:0:
40,180,33043,1,14,0:0:0:0:
194,186,33205,6,0,L|216:304,1,116.999996429443,10|0,0:0|1:0,0:0:0:0:
489,347,33527,1,14,0:0:0:0:
229,371,33688,2,0,L|254:247,1,116.999996429443,10|2,0:0|1:0,0:0:0:0:
313,241,33930,1,0,1:0:0:0:
105,172,34011,2,0,P|33:134|24:72,1,116.999996429443,14|2,0:0|1:0,0:0:0:0:
294,49,34334,1,14,0:0:0:0:
142,23,34495,1,2,1:0:0:0:
412,141,34656,6,0,P|478:171|497:221,1,116.999996429443,14|0,0:0|1:0,0:0:0:0:
225,286,34979,1,10,0:0:0:0:
366,357,35140,2,0,L|478:309,1,116.999996429443,2|8,1:0|0:0,0:0:0:0:
343,206,35463,1,2,1:0:0:0:
34,153,35624,5,14,0:0:0:0:
169,60,35785,2,0,L|26:71,1,116.999996429443,10|0,0:0|1:0,0:0:0:0:
317,289,36108,1,14,0:0:0:0:
156,333,36269,2,0,L|135:195,1,116.999996429443,10|2,0:0|1:0,0:0:0:0:
199,198,36511,1,0,1:0:0:0:
409,125,36592,2,0,L|280:108,1,116.999996429443,14|2,0:0|1:0,0:0:0:0:
31,36,36914,2,0,L|162:23,1,116.999996429443,10|2,0:0|1:0,0:0:0:0:
447,223,37237,6,0,L|426:373,1,116.999996429443,14|0,0:0|1:0,0:0:0:0:
137,364,37559,1,10,0:0:0:0:
294,294,37721,2,0,L|166:276,1,116.999996429443,2|8,1:0|0:0,0:0:0:0:
357,219,38043,1,2,1:0:0:0:
85,163,38205,5,14,0:0:0:0:
249,136,38366,2,0,L|366:95,1,116.999996429443,10|0,0:0|1:0,0:0:0:0:
86,53,38688,1,14,0:0:0:0:
359,97,38850,2,0,L|478:129,1,116.999996429443,10|2,0:0|1:0,0:0:0:0:
406,152,39092,1,0,1:0:0:0:
201,234,39172,2,0,L|337:256,1,116.999996429443,14|2,0:0|1:0,0:0:0:0:
148,335,39495,1,14,0:0:0:0:
328,358,39656,1,2,1:0:0:0:
35,235,39817,6,0,L|64:74,1,116.999996429443,14|0,0:0|1:0,0:0:0:0:
318,88,40140,1,10,0:0:0:0:
163,17,40301,2,0,L|307:-3,1,116.999996429443,2|8,1:0|0:0,0:0:0:0:
114,77,40624,1,2,1:0:0:0:
414,151,40785,5,14,0:0:0:0:
262,180,40946,2,0,L|124:208,1,116.999996429443,10|0,0:0|1:0,0:0:0:0:
213,233,41188,1,0,1:0:0:0:
450,298,41269,1,14,0:0:0:0:
174,351,41430,2,0,L|300:338,1,116.999996429443,14|0,0:0|0:0,0:0:0:0:
44,236,41753,6,0,L|21:179,1,58.4999982147217,10|8,0:0|0:0,0:0:0:0:
173,40,41914,2,0,L|172:105,1,58.4999982147217,8|8,0:0|0:0,0:0:0:0:
324,72,42075,2,0,L|327:9,1,58.4999982147217,8|8,3:0|3:0,0:0:0:0:
481,156,42237,2,0,L|504:214,1,58.4999982147217,8|0,3:0|0:0,0:0:0:0:
272,195,42398,6,0,P|192:217|143:322,1,195,6|8,1:0|0:0,0:0:0:0:
266,342,42882,1,0,0:0:0:0:
90,173,43043,1,2,1:0:0:0:
18,229,43204,1,0,1:0:0:0:
50,315,43365,1,8,0:0:0:0:
141,311,43526,1,0,0:0:0:0:
453,69,43688,6,0,L|215:42,1,195,6|8,1:0|0:0,0:0:0:0:
384,105,44172,1,2,0:0:0:0:
215,155,44334,2,0,L|90:167,1,97.5,2|0,1:0|1:0,0:0:0:0:
372,252,44656,2,0,L|258:259,1,97.5,8|0,0:0|0:0,0:0:0:0:
27,359,44979,6,0,P|63:300|207:250,1,195,6|8,1:0|0:0,0:0:0:0:
343,186,45463,1,0,0:0:0:0:
159,148,45624,2,0,L|39:140,1,97.5,0|2,1:0|1:0,0:0:0:0:
234,73,45946,1,10,0:0:0:0:
65,46,46108,1,2,0:0:0:0:
365,26,46269,6,0,P|430:55|343:116,1,195,4|8,1:0|0:0,0:0:0:0:
219,129,46753,1,0,3:0:0:0:
485,251,46914,2,0,L|364:266,1,97.5,6|0,1:0|1:0,0:0:0:0:
227,331,47237,1,10,0:0:0:0:
391,303,47398,2,0,L|470:314,1,48.75,0|0,3:0|0:0,0:0:0:0:
227,331,47559,6,0,P|143:326|95:211,1,195,6|8,1:0|0:0,0:0:0:0:
202,179,48043,1,2,0:0:0:0:
369,88,48205,2,0,L|252:80,1,97.5,2|0,1:0|1:0,0:0:0:0:
100,32,48527,2,0,L|215:18,1,97.5,8|0,0:0|0:0,0:0:0:0:
465,118,48850,6,0,P|435:180|293:211,1,195,6|8,1:0|0:0,0:0:0:0:
194,229,49334,1,0,0:0:0:0:
359,336,49495,2,0,L|472:349,1,97.5,2|0,1:0|1:0,0:0:0:0:
194,229,49817,2,0,L|66:244,1,97.5,10|0,0:0|0:0,0:0:0:0:
392,229,50140,6,0,P|455:186|377:137,1,195,6|8,1:0|0:0,0:0:0:0:
310,78,50624,1,2,0:0:0:0:
347,0,50785,1,0,1:0:0:0:
436,12,50946,1,0,1:0:0:0:
177,165,51108,1,10,0:0:0:0:
313,188,51269,1,2,0:0:0:0:
46,339,51430,5,4,1:0:0:0:
93,326,51510,1,0,0:0:0:0:
112,281,51591,1,0,0:0:0:0:
86,239,51671,1,0,0:0:0:0:
37,235,51752,1,0,1:0:0:0:
313,188,51914,1,8,0:0:0:0:
147,107,52075,2,0,L|275:91,1,97.5,2|0,1:0|3:0,0:0:0:0:
484,349,52398,2,0,L|356:333,1,97.5,2|8,1:0|0:0,0:0:0:0:
85,293,52721,6,0,L|320:258,1,195,6|8,1:0|0:0,0:0:0:0:
140,182,53205,1,0,0:0:0:0:
386,168,53366,1,2,1:0:0:0:
449,101,53527,1,0,1:0:0:0:
412,17,53688,1,8,0:0:0:0:
320,19,53849,1,2,0:0:0:0:
56,167,54011,6,0,L|35:275,1,97.5,6|0,1:0|0:0,0:0:0:0:
212,322,54334,1,8,0:0:0:0:
73,355,54495,1,2,0:0:0:0:
347,221,54656,2,0,L|215:196,1,97.5,2|0,1:0|1:0,0:0:0:0:
20,61,54979,2,0,L|136:43,1,97.5,8|0,0:0|0:0,0:0:0:0:
402,71,55301,6,0,L|174:35,1,195,6|8,1:0|0:0,0:0:0:0:
116,46,55785,1,0,0:0:0:0:
74,129,55946,1,0,1:0:0:0:
126,207,56107,1,2,1:0:0:0:
373,302,56269,1,10,0:0:0:0:
228,321,56430,1,2,0:0:0:0:
493,199,56592,6,0,P|472:144|339:101,1,195,4|8,1:0|0:0,0:0:0:0:
475,60,57075,1,0,0:0:0:0:
191,43,57237,2,0,L|319:28,1,97.5,6|0,1:0|1:0,0:0:0:0:
124,153,57559,1,10,0:0:0:0:
295,189,57721,2,0,L|374:194,1,48.75,0|0,3:0|0:0,0:0:0:0:
124,153,57882,6,0,P|76:189|160:244,1,195,6|8,1:0|0:0,0:0:0:0:
295,189,58366,1,2,0:0:0:0:
124,153,58527,1,2,1:0:0:0:
44,195,58688,1,0,1:0:0:0:
67,283,58849,1,8,0:0:0:0:
157,281,59010,1,0,0:0:0:0:
422,372,59172,6,0,L|220:332,1,195,6|8,1:0|0:0,0:0:0:0:
353,288,59656,1,2,0:0:0:0:
85,181,59817,2,0,L|205:161,1,97.5,2|2,1:0|1:0,0:0:0:0:
413,41,60140,2,0,L|306:33,1,97.5,10|0,0:0|0:0,0:0:0:0:
65,177,60463,6,0,P|101:243|253:256,1,195,6|10,1:0|0:0,0:0:0:0:
39,353,60946,2,0,L|144:355,2,97.5,2|0|0,0:0|1:0|1:0,0:0:0:0:
313,220,61430,1,14,0:0:0:0:
165,183,61592,1,0,0:0:0:0:
452,160,61753,5,8,0:0:0:0:
304,168,61914,1,8,0:0:0:0:
296,119,61994,1,8,0:0:0:0:
288,71,62075,1,8,0:0:0:0:
452,160,62237,1,8,0:0:0:0:
150,208,62398,6,0,L|139:273,1,48.75,8|8,1:3|0:3,0:0:0:0:
348,336,62559,2,0,L|361:265,1,48.75,8|8,0:3|0:3,0:0:0:0:
160,342,62721,1,0,1:0:0:0:
112,337,62801,1,8,0:3:0:0:
74,308,62882,1,8,0:3:0:0:
58,262,62962,1,8,0:3:0:0:
327,47,63043,6,0,L|449:38,1,97.5,4|0,1:0|1:0,0:0:0:0:
194,131,63366,1,8,0:0:0:0:
350,164,63527,1,10,0:3:0:0:
366,209,63607,1,8,0:3:0:0:
352,255,63688,2,0,L|236:249,1,97.5,2|2,1:0|1:0,0:0:0:0:
486,332,64011,1,8,0:0:0:0:
194,349,64172,6,0,L|320:358,1,97.5,2|0,0:0|1:0,0:0:0:0:
123,207,64495,2,0,L|9:213,1,97.5,2|8,1:0|0:0,0:0:0:0:
287,132,64817,2,0,L|350:122,1,48.75,10|8,0:3|0:3,0:0:0:0:
394,140,64979,2,0,L|411:28,1,97.5,0|2,1:0|1:0,0:0:0:0:
150,36,65301,2,0,L|330:22,1,146.25,10|0,0:0|0:0,0:0:0:0:
71,158,65624,6,0,L|43:271,1,97.5,6|0,1:0|1:0,0:0:0:0:
157,310,65946,1,10,0:0:0:0:
404,236,66108,2,0,L|349:214,1,48.75,10|8,0:3|0:3,0:0:0:0:
298,196,66269,2,0,L|165:200,1,97.5,0|0,1:0|1:0,0:0:0:0:
434,113,66592,1,10,0:0:0:0:
197,55,66753,2,0,L|142:48,1,48.75,2|0,0:0|0:0,0:0:0:0:
381,26,66914,6,0,L|497:13,1,97.5,0|0,1:0|1:0,0:0:0:0:
321,107,67237,1,10,0:0:0:0:
491,175,67398,2,0,L|474:232,1,48.75,10|8,0:3|0:3,0:0:0:0:
437,256,67559,2,0,L|331:271,1,97.5,0|0,1:0|1:0,0:0:0:0:
94,132,67882,2,0,L|165:124,1,48.75,10|8,0:0|0:0,0:0:0:0:
340,269,68043,2,0,L|285:267,1,48.75,10|8,0:0|0:0,0:0:0:0:
57,357,68205,6,0,L|40:244,1,97.5,4|0,1:0|1:0,0:0:0:0:
270,150,68527,1,8,0:0:0:0:
142,126,68688,2,0,L|152:58,1,48.75,10|8,0:3|0:3,0:0:0:0:
367,73,68850,1,2,1:0:0:0:
297,176,69011,1,2,1:0:0:0:
176,201,69172,1,8,0:0:0:0:
458,351,69334,6,0,L|478:245,1,97.5,2|0,0:0|1:0,0:0:0:0:
317,211,69656,2,0,L|300:107,1,97.5,2|8,1:0|0:0,0:0:0:0:
37,37,69979,2,0,L|88:44,1,48.75,10|8,0:3|0:3,0:0:0:0:
143,43,70140,2,0,L|12:69,1,97.5,0|2,1:0|1:0,0:0:0:0:
317,211,70463,1,10,0:0:0:0:
70,226,70624,2,0,L|17:234,1,48.75,0|8,1:0|0:0,0:0:0:0:
266,320,70785,6,0,L|388:325,1,97.5,6|0,1:0|1:0,0:0:0:0:
119,341,71108,1,10,0:0:0:0:
266,320,71269,1,10,0:3:0:0:
283,274,71349,1,8,0:3:0:0:
264,227,71430,2,0,L|161:213,1,97.5,0|0,1:0|1:0,0:0:0:0:
387,142,71753,2,0,L|519:120,1,97.5,10|2,0:0|1:0,0:0:0:0:
190,79,72075,6,0,L|53:69,2,97.5,0|0|8,1:0|1:0|0:0,0:0:0:0:
468,249,72559,1,0,0:0:0:0:
319,331,72721,1,8,0:0:0:0:
271,322,72802,1,8,0:0:0:0:
235,291,72882,1,0,1:0:0:0:
483,125,73043,2,0,L|366:143,1,97.5,8|0,0:0|0:0,0:0:0:0:
99,230,73366,5,10,0:0:0:0:
255,169,73527,1,0,1:0:0:0:
67,109,73688,1,2,1:0:0:0:
372,260,73850,1,10,0:0:0:0:
237,150,74011,1,0,1:0:0:0:
90,123,74172,1,2,1:0:0:0:
367,86,74334,2,0,L|503:69,1,97.5,10|8,0:0|0:0,0:0:0:0:
299,24,74656,2,0,L|233:16,1,48.75,2|0,1:0|1:0,0:0:0:0:
456,190,74817,5,8,0:0:0:0:
181,233,74979,2,0,P|135:274|219:293,1,146.25,10|0,0:0|0:0,0:0:0:0:
385,343,75301,2,0,L|450:348,1,58.4999982147217,8|8,1:2|0:0,0:0:0:0:
243,201,75463,2,0,L|147:211,1,58.4999982147217,10|8,0:0|0:0,0:0:0:0:
254,170,75624,2,0,L|330:165,1,58.4999982147217,8|8,1:2|0:0,0:0:0:0:
80,87,75785,2,0,L|3:88,1,58.4999982147217,8|8,0:0|0:0,0:0:0:0:
246,34,75946,6,0,P|301:71|227:143,1,190.124991296769,6|0,1:0|0:0,0:0:0:0:
46,210,76269,1,8,0:0:0:0:
201,272,76430,2,0,L|283:287,1,63.3749970989229,0|8,1:0|0:0,0:0:0:0:
52,360,76592,2,0,L|32:218,1,126.749994197846,2|0,1:0|1:0,0:0:0:0:
191,184,76914,2,0,P|137:131|19:115,1,190.124991296769,8|0,0:0|0:0,0:0:0:0:
267,72,77237,5,6,1:0:0:0:
402,58,77398,1,0,1:0:0:0:
257,32,77559,2,0,L|106:28,1,126.749994197846,10|0,0:0|1:0,0:0:0:0:
189,60,77801,1,8,0:0:0:0:
372,166,77882,2,0,L|517:145,1,126.749994197846,2|0,1:0|1:0,0:0:0:0:
223,262,78205,1,10,0:0:0:0:
377,333,78366,2,0,L|306:346,1,63.3749970989229,8|8,0:0|0:0,0:0:0:0:
100,289,78527,6,0,P|131:204|282:157,1,253.499988395691,6|8,1:0|0:0,0:0:0:0:
412,181,79011,1,2,0:0:0:0:
107,42,79172,2,0,P|42:85|156:156,1,253.499988395691,6|8,1:0|0:0,0:0:0:0:
312,231,79656,2,0,L|246:245,1,63.3749970989229,2|8,1:0|0:0,0:0:0:0:
31,343,79817,2,0,L|58:208,1,126.749994197846,2|2,1:0|1:0,0:0:0:0:
337,13,80140,6,0,P|304:81|173:93,1,190.124991296769,14|0,0:0|0:0,0:0:0:0:
389,178,80463,2,0,L|465:190,1,63.3749970989229,8|8,1:2|0:0,0:0:0:0:
204,245,80624,2,0,L|118:264,1,63.3749970989229,8|8,0:0|0:0,0:0:0:0:
340,321,80785,2,0,L|412:331,1,63.3749970989229,8|8,1:3|0:3,0:0:0:0:
147,353,80946,2,0,L|77:354,1,63.3749970989229,8|8,0:3|0:3,0:0:0:0:
313,221,81108,6,0,P|400:196|442:101,1,190.124991296769,6|0,1:0|0:0,0:0:0:0:
213,64,81430,1,10,0:0:0:0:
361,34,81592,2,0,L|442:24,1,63.3749970989229,2|0,1:0|0:0,0:0:0:0:
216,173,81753,2,0,L|86:146,1,126.749994197846,6|0,1:0|1:0,0:0:0:0:
346,319,82075,2,0,L|496:306,1,126.749994197846,10|0,0:0|1:0,0:0:0:0:
409,279,82317,1,0,0:0:0:0:
184,277,82398,6,0,P|246:198|384:193,1,190.124991296769,6|0,1:0|0:0,0:0:0:0:
123,124,82721,1,10,0:0:0:0:
266,99,82882,2,0,L|276:28,1,63.3749970989229,0|8,1:0|0:0,0:0:0:0:
57,36,83043,2,0,L|70:197,1,126.749994197846,2|0,1:0|1:0,0:0:0:0:
321,247,83366,1,10,0:0:0:0:
66,313,83527,2,0,L|135:326,1,63.3749970989229,8|8,0:0|0:0,0:0:0:0:
348,350,83688,6,0,P|426:310|386:225,1,190.124991296769,6|0,1:0|0:0,0:0:0:0:
185,189,84011,1,8,0:0:0:0:
331,115,84172,2,0,L|247:98,1,63.3749970989229,2|0,1:0|0:0,0:0:0:0:
480,42,84334,2,0,L|490:177,1,126.749994197846,2|0,1:0|1:0,0:0:0:0:
233,299,84656,1,8,0:0:0:0:
379,291,84817,1,2,0:0:0:0:
115,216,84979,2,0,L|37:211,1,63.3749970989229,10|8,1:2|0:3,0:0:0:0:
267,108,85140,2,0,L|343:100,1,63.3749970989229,8|8,0:3|0:3,0:0:0:0:
98,60,85301,5,12,0:0:0:0:
69,188,85624,1,2,0:0:0:0:
38,322,85946,1,2,0:0:0:0:
474,334,86269,6,0,L|314:312,1,126.749994197846,14|0,0:0|1:0,0:0:0:0:
203,196,86592,2,0,L|354:182,1,126.749994197846,8|0,0:0|1:0,0:0:0:0:
44,61,86914,1,10,0:0:0:0:
348,36,87075,1,0,1:0:0:0:
201,29,87237,1,8,0:0:0:0:
479,129,87398,1,0,1:0:0:0:
222,214,87559,5,14,0:0:0:0:
363,191,87721,1,0,1:0:0:0:
113,283,87882,1,10,0:0:0:0:
267,316,88043,1,2,1:0:0:0:
16,189,88205,2,0,L|152:155,1,126.749994197846,10|0,0:0|0:0,0:0:0:0:
294,64,88527,2,0,L|147:48,1,126.749994197846,10|0,0:0|1:0,0:0:0:0:
230,89,88769,1,0,0:0:0:0:
445,135,88850,6,0,L|459:270,1,126.749994197846,14|0,0:0|1:0,0:0:0:0:
290,328,89172,2,0,L|432:349,1,126.749994197846,8|2,0:0|1:0,0:0:0:0:
109,244,89495,1,14,0:0:0:0:
375,196,89656,1,0,1:0:0:0:
237,174,89817,1,8,0:0:0:0:
488,113,89979,1,2,1:0:0:0:
179,74,90140,5,14,0:0:0:0:
336,49,90301,1,2,1:0:0:0:
55,44,90463,2,0,L|32:196,1,126.749994197846,10|0,0:0|1:0,0:0:0:0:
352,189,90785,2,0,L|380:323,1,126.749994197846,8|0,0:0|1:0,0:0:0:0:
143,325,91108,1,10,0:0:0:0:
395,345,91269,2,0,L|486:350,1,63.3749970989229,0|0,1:0|1:0,0:0:0:0:
247,219,91430,6,0,P|187:179|30:170,1,190.124991296769,14|0,1:2|0:0,0:0:0:0:
104,106,91752,1,10,0:0:0:0:
153,67,91833,1,8,0:0:0:0:
214,48,91913,1,10,0:0:0:0:
276,52,91994,1,8,0:0:0:0:
44,42,92075,6,0,P|18:107|133:140,1,190.124991296769,14|0,1:2|0:0,0:0:0:0:
290,219,92398,2,0,L|375:224,1,63.3749970989229,10|8,0:0|0:0,0:0:0:0:
154,294,92559,2,0,L|78:306,1,63.3749970989229,8|8,0:0|0:0,0:0:0:0:
300,342,92721,6,0,P|384:289|326:213,1,190.124991296769,14|0,1:2|0:0,0:0:0:0:
174,167,93043,2,0,L|100:158,1,63.3749970989229,10|8,0:0|0:0,0:0:0:0:
335,79,93205,2,0,L|250:65,1,63.3749970989229,8|8,0:0|0:0,0:0:0:0:
81,23,93366,6,0,P|130:98|269:114,1,190.124991296769,14|0,1:2|0:0,0:0:0:0:
33,200,93688,2,0,L|62:261,1,63.3749970989229,10|8,0:0|0:0,0:0:0:0:
237,331,93850,2,0,L|303:342,1,63.3749970989229,8|8,0:0|0:0,0:0:0:0:
489,321,94011,6,0,P|455:248|330:200,1,190.124991296769,6|0,1:2|0:0,0:0:0:0:
293,160,94334,2,0,L|214:147,1,63.3749970989229,8|8,1:2|0:0,0:0:0:0:
431,76,94495,2,0,L|510:66,1,63.3749970989229,10|8,0:0|0:0,0:0:0:0:
254,51,94656,1,10,1:2:0:0:
194,65,94736,1,8,0:0:0:0:
172,122,94817,1,8,0:0:0:0:
205,173,94897,1,8,0:0:0:0:
265,176,94979,2,0,L|348:170,1,63.3749970989229,8|8,1:2|0:0,0:0:0:0:
111,267,95140,2,0,L|43:264,1,63.3749970989229,10|8,0:0|0:0,0:0:0:0:
284,337,95301,6,0,L|297:271,1,63.3749970989229,10|8,1:2|0:0,0:0:0:0:
210,260,95463,2,0,L|186:198,1,63.3749970989229,10|8,0:0|0:0,0:0:0:0:
389,201,95624,2,0,L|364:131,1,63.3749970989229,10|8,1:2|0:0,0:0:0:0:
288,127,95785,2,0,L|249:73,1,63.3749970989229,10|8,0:0|0:0,0:0:0:0:
466,62,95946,2,0,L|416:16,1,63.3749970989229,10|8,3:3|3:3,0:0:0:0:
345,14,96108,2,0,L|273:-2,1,63.3749970989229,8|0,3:3|0:0,0:0:0:0:
78,123,96269,2,0,L|149:137,1,63.3749970989229,14|12,3:0|3:0,0:0:0:0:
340,239,96430,2,0,L|412:233,1,63.3749970989229,12|12,3:0|3:0,0:0:0:0:
166,335,96592,6,0,P|106:314|171:238,1,182.8125,4|0,1:0|0:0,0:0:0:0:
362,264,96914,1,8,0:0:0:0:
226,342,97075,2,0,L|135:330,1,60.9375,0|8,1:0|0:0,0:0:0:0:
383,293,97237,2,0,L|509:327,1,121.875,0|0,1:0|1:0,0:0:0:0:
215,195,97559,2,0,L|355:178,1,121.875,8|0,0:0|0:0,0:0:0:0:
50,376,97882,6,0,P|85:309|212:260,1,182.8125,4|0,1:0|0:0,0:0:0:0:
410,217,98205,2,0,P|344:147|248:119,1,182.8125,4|0,1:0|0:0,0:0:0:0:
54,40,98527,2,0,L|242:14,1,182.8125,4|0,1:0|0:0,0:0:0:0:
469,346,98850,2,0,L|267:321,1,182.8125,4|0,1:0|0:0,0:0:0:0:
19,206,99172,5,4,1:0:0:0:
298,178,99495,1,8,0:0:0:0:
149,138,99656,1,8,0:0:0:0:
468,88,99817,1,8,0:0:0:0:
320,43,99979,1,8,0:0:0:0:
169,125,100140,1,8,0:0:0:0:
442,244,100301,1,8,0:0:0:0:
166,329,100463,5,8,0:0:0:0:
310,309,100624,1,8,0:0:0:0:
34,249,100785,1,8,0:0:0:0:
185,193,100946,1,8,0:0:0:0:
342,171,101108,1,8,0:0:0:0:
58,106,101269,1,8,0:0:0:0:
360,51,101430,1,8,0:0:0:0:
185,33,101592,1,8,0:0:0:0:
487,213,101753,5,8,0:0:0:0:
322,266,101914,1,0,1:0:0:0:
483,331,102075,1,0,1:0:0:0:
172,184,102237,1,8,0:0:0:0:
322,266,102398,1,0,1:0:0:0:
35,340,102559,1,0,1:0:0:0:
322,266,102721,5,8,0:0:0:0:
172,184,102882,1,0,1:0:0:0:
460,152,103043,1,0,1:0:0:0:
115,81,103205,1,8,0:0:0:0:
259,60,103366,1,0,1:0:0:0:
403,35,103527,1,0,1:0:0:0:
132,209,103688,2,0,L|59:207,1,60.9375,8|8,0:0|3:0,0:0:0:0:
279,294,103850,2,0,L|366:296,1,60.9375,8|0,3:0|0:0,0:0:0:0:
44,325,104011,5,12,0:0:0:0:
294,317,104334,2,0,L|315:190,1,116.999996429443,14|0,0:0|1:0,0:0:0:0:
59,158,104656,2,0,L|39:36,1,116.999996429443,10|2,0:0|1:0,0:0:0:0:
186,33,104979,1,8,0:0:0:0:
42,26,105140,1,2,1:0:0:0:
330,27,105301,5,14,0:0:0:0:
176,145,105463,2,0,L|225:258,1,116.999996429443,10|0,0:0|1:0,0:0:0:0:
470,289,105785,1,14,0:0:0:0:
209,348,105946,2,0,L|356:355,1,116.999996429443,10|2,0:0|1:0,0:0:0:0:
270,318,106188,1,0,1:0:0:0:
49,253,106269,2,0,L|59:112,1,116.999996429443,14|2,0:0|1:0,0:0:0:0:
123,111,106511,1,0,0:0:0:0:
344,49,106592,1,14,0:0:0:0:
185,17,106753,2,0,L|276:15,1,58.4999982147217,2|0,1:0|0:0,0:0:0:0:
465,121,106914,6,0,L|436:264,1,116.999996429443,14|0,0:0|1:0,0:0:0:0:
165,288,107237,2,0,L|34:308,1,116.999996429443,10|2,0:0|1:0,0:0:0:0:
222,362,107559,2,0,L|372:371,1,116.999996429443,8|2,0:0|1:0,0:0:0:0:
93,205,107882,1,14,0:0:0:0:
246,183,108043,2,0,L|278:52,1,116.999996429443,10|0,0:0|1:0,0:0:0:0:
20,42,108366,5,14,0:0:0:0:
297,6,108527,2,0,L|140:18,1,116.999996429443,10|2,0:0|1:0,0:0:0:0:
244,49,108769,1,0,1:0:0:0:
461,133,108850,2,0,L|477:260,1,116.999996429443,14|2,0:0|1:0,0:0:0:0:
406,271,109092,1,0,0:0:0:0:
174,326,109172,1,10,0:0:0:0:
318,355,109334,2,0,L|217:355,1,58.4999982147217,2|0,1:0|0:0,0:0:0:0:
34,218,109495,6,0,L|157:202,1,116.999996429443,14|0,0:0|1:0,0:0:0:0:
398,139,109817,1,10,0:0:0:0:
255,81,109979,2,0,L|110:65,1,116.999996429443,2|8,1:0|0:0,0:0:0:0:
288,39,110301,1,2,1:0:0:0:
32,156,110463,5,14,0:0:0:0:
176,278,110624,2,0,L|191:149,1,116.999996429443,10|0,0:0|1:0,0:0:0:0:
475,87,110946,1,14,0:0:0:0:
316,187,111108,2,0,L|474:196,1,116.999996429443,10|2,0:0|1:0,0:0:0:0:
374,284,111350,1,0,1:0:0:0:
171,321,111430,1,14,0:0:0:0:
314,351,111592,2,0,L|405:366,1,58.4999982147217,2|0,1:0|0:0,0:0:0:0:
148,231,111753,1,14,0:0:0:0:
433,194,111914,5,8,0:0:0:0:
477,102,112237,1,12,0:0:0:0:
165,58,112398,1,12,0:0:0:0:
308,48,112559,2,0,L|372:61,1,58.4999982147217,0|0,1:0|1:0,0:0:0:0:
119,168,112721,1,12,0:0:0:0:
370,206,112882,2,0,L|336:326,1,116.999996429443,12|0,0:0|1:0,0:0:0:0:
279,327,113124,1,0,1:0:0:0:
42,318,113205,5,12,0:0:0:0:
314,335,113366,1,12,0:0:0:0:
173,328,113527,2,0,L|102:321,1,58.4999982147217,0|0,1:0|1:0,0:0:0:0:
363,227,113688,1,12,0:0:0:0:
66,176,113850,2,0,L|200:146,1,116.999996429443,12|0,0:0|0:0,0:0:0:0:
425,125,114172,5,12,0:0:0:0:
43,54,114334,5,12,0:0:0:0:
475,25,114495,5,12,0:0:0:0:
