osu file format v14

[General]
AudioFilename: audio.mp3
AudioLeadIn: 0
PreviewTime: 75946
Countdown: 1
SampleSet: Soft
StackLeniency: 0.7
Mode: 0
LetterboxInBreaks: 0
WidescreenStoryboard: 0

[Editor]
Bookmarks: 42398,63043,75946,85463,85624,96592
DistanceSpacing: 0.8
BeatDivisor: 4
GridSize: 32
TimelineZoom: 1.7

[Metadata]
Title:ReI
TitleUnicode:ReI
Artist:THE ORAL CIGARETTES
ArtistUnicode:THE ORAL CIGARETTES
Creator:Fixxis
Version:Remembrance
Source:
Tags:J-Pop
BeatmapID:1691158
BeatmapSetID:805665

[Difficulty]
HPDrainRate:6
CircleSize:4.2
OverallDifficulty:9
ApproachRate:9.3
SliderMultiplier:1.8
SliderTickRate:2

[Events]
//Background and Video events
0,0,"Pangchenp.jpg",0,0
//Break Periods
//Storyboard Layer 0 (Background)
//Storyboard Layer 1 (Fail)
//Storyboard Layer 2 (Pass)
//Storyboard Layer 3 (Foreground)
//Storyboard Sound Samples

[TimingPoints]
2075,468.75,4,2,1,80,1,0
32075,-86.9565217391304,4,2,1,80,0,0
32076,322.58064516129,4,2,1,80,1,0
42398,-133.333333333333,4,2,1,50,0,0
63043,-100,4,2,1,80,0,0
75946,-80,4,2,1,80,0,1
82398,-100,4,2,1,50,0,0
82640,-100,4,2,1,5,0,0
82721,-86.9565217391304,4,2,1,50,0,0
82963,-86.9565217391304,4,2,1,5,0,0
83043,-100,4,2,1,50,0,0
83285,-100,4,2,1,5,0,0
83366,-76.9230769230769,4,2,1,50,0,0
83527,-76.9230769230769,4,2,1,5,0,0
83688,-80,4,2,1,50,0,0
85624,-133.333333333333,4,2,1,50,0,0
85946,-100,4,2,1,50,0,0
86269,-80,4,2,1,80,0,1
91430,-80,4,2,1,50,0,1
96597,-80,4,2,1,80,0,1
98124,-80,4,2,1,5,0,1
98205,-74.0740740740741,4,2,1,80,0,1
98446,-74.0740740740741,4,2,1,5,0,1
98527,-68.9655172413793,4,2,1,80,0,1
98769,-68.9655172413793,4,2,1,5,0,1
98850,-62.5,4,2,1,80,0,1
99092,-62.5,4,2,1,5,0,1
99172,-80,4,2,1,80,0,1
104334,-80,4,2,1,80,0,0

[HitObjects]
105,68,32076,6,0,P|105:141|140:182,1,90
311,167,32398,2,0,P|306:215|260:271,1,90
63,270,32721,2,0,B|141:251|138:372|232:347,1,180
331,332,33205,5,0,0:0:0:0:
222,94,33366,1,0,0:0:0:0:
241,242,33527,1,0,0:0:0:0:
352,53,33688,1,0,0:0:0:0:
151,185,33850,1,0,0:0:0:0:
151,185,33930,1,0,0:0:0:0:
151,185,34011,1,0,0:0:0:0:
341,210,34172,6,0,L|384:175,2,45
184,306,34495,1,0,0:0:0:0:
184,306,34576,1,0,0:0:0:0:
184,306,34656,6,0,P|251:318|292:310,1,90
418,138,34979,2,0,P|376:117|296:124,1,90
165,62,35301,2,0,B|196:168|93:107|131:255,1,180
121,346,35785,5,0,0:0:0:0:
92,90,35946,1,0,0:0:0:0:
199,224,36108,1,0,0:0:0:0:
37,177,36269,1,0,0:0:0:0:
225,106,36430,6,0,L|262:57,2,45
112,242,36753,1,0,0:0:0:0:
112,242,36834,1,0,0:0:0:0:
112,242,36914,1,0,0:0:0:0:
287,180,37075,1,0,0:0:0:0:
287,180,37156,1,0,0:0:0:0:
287,180,37237,6,0,L|378:147,1,90
383,309,37559,2,0,L|275:353,1,90
130,325,37882,2,0,P|51:297|38:204,1,180
91,66,38366,2,0,L|178:102,1,90
306,125,38688,1,0,0:0:0:0:
160,202,38850,2,0,L|230:142,1,90
244,73,39092,1,0,0:0:0:0:
244,73,39172,1,0,0:0:0:0:
256,274,39334,6,0,L|279:330,2,45
175,24,39656,1,0,0:0:0:0:
287,201,39817,2,0,L|371:256,1,90
432,63,40140,2,0,L|342:117,1,90
193,223,40463,2,0,P|199:334|287:348,1,180
446,268,40946,1,0,0:0:0:0:
279,120,41108,1,0,0:0:0:0:
279,120,41188,1,0,0:0:0:0:
279,120,41269,1,0,0:0:0:0:
438,38,41430,6,0,B|420:147|420:147|348:191,1,180
216,195,41834,2,0,L|277:220,1,45
376,264,41995,2,0,L|304:290,1,45
226,289,42156,1,0,0:0:0:0:
177,282,42237,1,0,0:0:0:0:
141,245,42317,1,0,0:0:0:0:
127,197,42398,6,0,P|157:119|180:56,1,135.000005149842
309,61,42882,1,0,0:0:0:0:
373,168,43043,2,0,L|456:162,1,67.5000025749208
390,289,43366,2,0,L|319:303,1,67.5000025749208
257,227,43688,6,0,B|165:264|248:273|135:313,1,135.000005149842
70,213,44172,1,0,0:0:0:0:
284,315,44334,2,0,P|338:275|338:250,1,67.5000025749208
250,141,44656,2,0,P|216:150|186:194,1,67.5000025749208
70,213,44979,6,0,B|98:143|21:149|65:58,1,135.000005149842
159,69,45463,1,0,0:0:0:0:
238,218,45624,1,0,0:0:0:0:
227,108,45785,1,0,0:0:0:0:
166,266,45946,1,0,0:0:0:0:
293,156,46108,1,0,0:0:0:0:
159,69,46269,6,0,P|100:107|30:66,1,135.000005149842
49,235,46753,1,0,0:0:0:0:
227,108,46914,2,0,B|174:166|174:166|207:218,1,135.000005149842
92,30,47398,1,0,0:0:0:0:
127,228,47559,6,0,B|129:305|77:286|84:359,1,135.000005149842
223,277,48043,1,0,0:0:0:0:
385,275,48205,2,0,L|455:218,1,67.5000025749208
411,34,48527,2,0,L|337:93,1,67.5000025749208
116,101,48850,6,0,B|98:175|52:144|40:216,1,135.000005149842
206,177,49334,1,0,0:0:0:0:
333,60,49495,2,0,L|396:17,1,67.5000025749208
488,127,49817,2,0,L|423:174,1,67.5000025749208
332,172,50140,6,0,P|350:242|415:261,1,135.000005149842
415,105,50624,1,0,0:0:0:0:
262,258,50785,1,0,0:0:0:0:
467,194,50946,1,0,0:0:0:0:
225,158,51108,1,0,0:0:0:0:
388,282,51269,1,0,0:0:0:0:
289,85,51430,6,0,B|248:21|213:119|158:39,1,135.000005149842
66,140,51914,1,0,0:0:0:0:
238,204,52075,2,0,P|266:233|274:281,1,67.5000025749208
155,277,52398,2,0,P|154:319|186:359,1,67.5000025749208
314,349,52721,6,0,B|398:276|376:380|445:303,1,135.000005149842
381,194,53205,1,0,0:0:0:0:
430,92,53366,2,0,P|450:45|444:27,1,67.5000025749208
286,134,53688,2,0,P|271:95|287:49,1,67.5000025749208
271,245,54011,6,0,B|213:309|235:205|151:278,1,135.000005149842
55,348,54495,1,0,0:0:0:0:
127,187,54656,2,0,P|184:165|209:172,1,67.5000025749208
106,93,54979,2,0,P|49:71|24:78,1,67.5000025749208
281,49,55301,6,0,B|357:45|357:45|404:99,1,135.000005149842
440,223,55785,1,0,0:0:0:0:
217,139,55946,1,0,0:0:0:0:
287,300,56108,1,0,0:0:0:0:
325,118,56269,1,0,0:0:0:0:
394,309,56430,1,0,0:0:0:0:
217,139,56592,6,0,P|164:89|126:142,1,135.000005149842
60,185,57075,1,0,0:0:0:0:
165,235,57237,2,0,L|153:302,1,67.5000025749208
253,293,57559,2,0,L|276:366,1,67.5000025749208
288,150,57882,6,0,B|354:194|362:112|439:168,1,135.000005149842
371,258,58366,1,0,0:0:0:0:
185,234,58527,2,0,L|116:192,1,67.5000025749208
119,75,58850,2,0,L|196:120,1,67.5000025749208
401,211,59172,6,0,P|355:150|288:161,1,135.000005149842
164,236,59656,1,0,0:0:0:0:
328,225,59817,1,0,0:0:0:0:
230,313,59978,1,0,0:0:0:0:
374,308,60140,2,0,L|442:290,1,67.5000025749208
444,118,60463,6,0,B|349:161|395:80|294:143,1,135.000005149842
228,200,60947,1,0,0:0:0:0:
433,276,61108,2,0,L|417:363,1,67.5000025749208
302,363,61431,2,0,L|316:282,1,67.5000025749208
407,145,61753,5,0,0:0:0:0:
194,285,61914,1,0,0:0:0:0:
194,285,61995,1,0,0:0:0:0:
194,285,62075,1,0,0:0:0:0:
433,276,62237,1,0,0:0:0:0:
272,102,62398,5,0,0:0:0:0:
235,68,62479,1,0,0:0:0:0:
190,51,62559,1,0,0:0:0:0:
142,57,62640,1,0,0:0:0:0:
108,96,62721,5,0,0:0:0:0:
106,143,62802,1,0,0:0:0:0:
106,189,62882,1,0,0:0:0:0:
106,236,62963,1,0,0:0:0:0:
104,285,63043,6,0,L|203:285,1,90
297,201,63366,1,0,0:0:0:0:
401,302,63527,1,0,0:0:0:0:
375,327,63608,1,0,0:0:0:0:
344,346,63688,2,0,L|224:347,1,90
150,305,64011,1,0,0:0:0:0:
38,176,64172,6,0,B|11:266|61:283|38:354,1,180
191,185,64656,1,0,0:0:0:0:
118,107,64817,1,0,0:0:0:0:
145,83,64898,1,0,0:0:0:0:
172,59,64979,2,0,L|294:59,1,90
437,123,65301,2,0,L|337:161,1,90
231,249,65624,5,0,0:0:0:0:
335,72,65785,1,0,0:0:0:0:
422,245,65946,1,0,0:0:0:0:
234,113,66108,1,0,0:0:0:0:
234,113,66188,1,0,0:0:0:0:
234,113,66269,2,0,L|116:114,1,90
63,179,66592,1,0,0:0:0:0:
231,249,66753,6,0,P|246:336|352:344,1,180
426,242,67237,1,0,0:0:0:0:
274,179,67398,1,0,0:0:0:0:
274,179,67479,1,0,0:0:0:0:
274,179,67559,2,0,P|216:176|161:207,1,90
84,223,67882,5,0,0:0:0:0:
104,273,67963,1,0,0:0:0:0:
139,312,68043,1,0,0:0:0:0:
184,340,68124,1,0,0:0:0:0:
234,359,68205,2,0,L|354:354,1,90
416,287,68527,5,0,0:0:0:0:
353,166,68688,1,0,0:0:0:0:
353,166,68769,1,0,0:0:0:0:
353,166,68850,2,0,P|301:115|254:102,1,90
126,61,69172,1,0,0:0:0:0:
279,188,69334,6,0,P|214:278|135:297,1,180
54,126,69817,1,0,0:0:0:0:
187,132,69979,1,0,0:0:0:0:
187,132,70059,1,0,0:0:0:0:
187,132,70140,2,0,P|256:109|290:90,1,90
392,112,70463,5,0,0:0:0:0:
305,189,70624,1,0,0:0:0:0:
305,189,70705,1,0,0:0:0:0:
305,189,70785,2,0,P|263:259|276:356,1,180
174,289,71269,5,0,0:0:0:0:
174,289,71350,1,0,0:0:0:0:
174,289,71430,2,0,P|147:241|81:233,1,90
37,136,71753,2,0,L|150:136,1,90
214,62,72075,6,0,P|210:120|212:206,1,135
287,222,72398,2,0,L|256:271,1,45
172,288,72559,1,0,0:0:0:0:
172,288,72640,1,0,0:0:0:0:
172,288,72721,2,0,P|209:324|263:340,1,90
432,253,73043,2,0,P|431:139|444:113,1,135
480,57,73366,5,0,0:0:0:0:
243,258,73527,1,0,0:0:0:0:
170,45,73688,1,0,0:0:0:0:
324,124,73850,5,0,0:0:0:0:
58,183,74011,1,0,0:0:0:0:
165,364,74172,1,0,0:0:0:0:
303,275,74334,5,0,0:0:0:0:
36,301,74495,1,0,0:0:0:0:
218,115,74656,6,0,P|195:153|188:187,1,45
155,249,74817,1,0,0:0:0:0:
454,132,74979,6,0,B|434:222|351:149|322:239,1,180
303,275,75382,1,0,0:0:0:0:
264,298,75463,1,0,0:0:0:0:
219,298,75543,1,0,0:0:0:0:
184,269,75624,1,0,0:0:0:0:
155,233,75705,1,0,0:0:0:0:
116,210,75786,1,0,0:0:0:0:
71,210,75866,1,0,0:0:0:0:
38,234,75946,6,0,P|36:137|149:89,1,225
311,130,76430,1,0,0:0:0:0:
311,130,76511,1,0,0:0:0:0:
311,130,76592,2,0,L|214:191,1,112.5
53,321,76914,2,0,L|72:202,1,112.5
107,45,77237,6,0,B|255:98|174:17|347:52,1,225
470,155,77721,1,0,0:0:0:0:
470,155,77801,1,0,0:0:0:0:
470,155,77882,1,0,0:0:0:0:
288,222,78043,2,0,L|262:349,1,112.5
61,122,78366,5,0,0:0:0:0:
61,122,78446,1,0,0:0:0:0:
61,122,78527,2,0,B|59:229|59:229|149:322,1,225
287,219,79011,1,0,0:0:0:0:
167,78,79172,2,0,P|281:38|370:90,1,225
465,210,79656,5,0,0:0:0:0:
465,210,79737,1,0,0:0:0:0:
465,210,79817,2,0,L|461:329,1,112.5
287,219,80140,2,0,L|266:107,1,112.5
119,95,80463,1,0,0:0:0:0:
118,126,80543,1,0,0:0:0:0:
116,161,80624,1,0,0:0:0:0:
116,194,80705,1,0,0:0:0:0:
127,237,80785,5,0,0:0:0:0:
149,276,80866,1,0,0:0:0:0:
190,302,80946,1,0,0:0:0:0:
237,308,81027,1,0,0:0:0:0:
278,302,81108,2,0,B|328:256|417:283|417:283|383:200,1,225
350,59,81592,1,0,0:0:0:0:
119,95,81753,2,0,P|180:91|240:126,1,112.5
114,318,82075,2,0,L|6:278,1,112.5
20,143,82398,6,0,P|75:190|151:164,1,135
117,95,82721,2,0,B|167:127|224:74|224:74|264:120,1,155.250002961159
251,179,83043,2,0,P|317:147|324:91,1,135
282,27,83366,2,0,P|353:20|401:99,1,116.999994644165
471,247,83688,6,0,B|427:322|366:257|366:257|325:353|276:325,1,225
121,222,84172,1,0,0:0:0:0:
121,222,84253,1,0,0:0:0:0:
121,222,84334,2,0,L|37:307,1,112.5
48,88,84656,1,0,0:0:0:0:
270,192,84817,1,0,0:0:0:0:
198,38,84979,6,0,P|176:95|187:123,1,56.25
281,139,85140,2,0,P|276:183|251:204,1,56.25
188,270,85301,1,0,0:0:0:0:
295,56,85624,2,0,P|339:65|406:48,1,101.250003862381
431,35,85946,2,0,B|412:168,1,135
385,260,86269,5,0,0:0:0:0:
53,328,86430,1,0,0:0:0:0:
336,151,86592,5,0,0:0:0:0:
54,72,86753,1,0,0:0:0:0:
431,35,86914,5,0,0:0:0:0:
109,174,87075,1,0,0:0:0:0:
464,222,87237,5,0,0:0:0:0:
217,91,87398,1,0,0:0:0:0:
279,350,87559,5,0,0:0:0:0:
431,35,87721,1,0,0:0:0:0:
413,350,87882,5,0,0:0:0:0:
318,47,88043,1,0,0:0:0:0:
279,350,88205,5,0,0:0:0:0:
84,104,88366,1,0,0:0:0:0:
472,143,88527,5,0,0:0:0:0:
70,202,88688,1,0,0:0:0:0:
462,254,88850,5,0,0:0:0:0:
84,104,89011,1,0,0:0:0:0:
188,353,89173,5,0,0:0:0:0:
315,30,89334,1,0,0:0:0:0:
321,353,89495,5,0,0:0:0:0:
183,35,89656,1,0,0:0:0:0:
392,273,89818,5,0,0:0:0:0:
97,239,89979,1,0,0:0:0:0:
97,239,90059,1,0,0:0:0:0:
97,239,90140,5,0,0:0:0:0:
378,182,90301,1,0,0:0:0:0:
91,114,90463,5,0,0:0:0:0:
323,282,90624,1,0,0:0:0:0:
299,64,90785,5,0,0:0:0:0:
172,319,90946,1,0,0:0:0:0:
164,45,91108,5,0,0:0:0:0:
323,282,91269,1,0,0:0:0:0:
323,282,91350,1,0,0:0:0:0:
323,282,91430,2,0,B|351:347|411:253|474:339,1,168.75
473,237,91753,6,0,P|482:210|478:165,1,56.25
397,200,91914,2,0,P|361:167|309:165,1,56.25
254,177,92075,6,0,P|287:83|358:72,1,168.75
435,158,92398,2,0,L|379:218,1,56.25
418,279,92559,2,0,L|319:283,1,56.25
257,253,92721,6,0,B|175:262|154:175|154:175|91:173,1,168.75
60,230,93043,2,0,L|61:292,1,56.25
133,303,93205,2,0,P|160:328|198:337,1,56.25
258,254,93366,6,0,P|293:194|271:100,1,168.75
101,135,93688,2,0,L|164:123,1,56.25
270,98,93850,2,0,L|197:51,1,56.25
71,64,94011,2,0,P|27:115|35:181,1,112.5
49,266,94334,5,0,0:0:0:0:
83,310,94414,1,0,0:0:0:0:
136,327,94495,1,0,0:0:0:0:
190,314,94575,1,0,0:0:0:0:
229,273,94656,5,0,0:0:0:0:
271,235,94737,1,0,0:0:0:0:
326,226,94817,1,0,0:0:0:0:
375,252,94898,1,0,0:0:0:0:
406,299,94979,5,0,0:0:0:0:
446,337,95059,1,0,0:0:0:0:
466,284,95140,1,0,0:0:0:0:
453,229,95221,1,0,0:0:0:0:
424,180,95301,5,0,0:0:0:0:
379,144,95382,1,0,0:0:0:0:
324,127,95463,1,0,0:0:0:0:
268,136,95543,1,0,0:0:0:0:
253,161,95624,5,0,0:0:0:0:
237,184,95705,1,0,0:0:0:0:
214,200,95785,1,0,0:0:0:0:
185,203,95866,1,0,0:0:0:0:
158,193,95946,5,0,0:0:0:0:
138,172,96027,1,0,0:0:0:0:
117,152,96108,1,0,0:0:0:0:
91,140,96188,1,0,0:0:0:0:
63,144,96269,5,0,0:0:0:0:
40,162,96350,1,0,0:0:0:0:
28,187,96430,1,0,0:0:0:0:
26,213,96511,1,0,0:0:0:0:
26,241,96592,6,0,B|166:233|80:318|241:298,1,225
416,322,97075,1,0,0:0:0:0:
185,203,97237,2,0,L|302:198,1,112.5
438,64,97559,2,0,L|305:82,1,112.5
133,78,97882,6,0,B|150:167|71:189|71:189|70:251,1,168.75
116,288,98205,2,0,B|248:191|112:214|275:117,1,182.250000695229
272,215,98527,2,0,P|301:130|215:73,1,195.750005973816
228,150,98850,2,0,B|173:193|173:193|221:336,1,216
290,295,99172,1,0,0:0:0:0:
290,295,99495,5,0,0:0:0:0:
457,95,99656,1,0,0:0:0:0:
171,51,99817,1,0,0:0:0:0:
443,258,99979,1,0,0:0:0:0:
317,34,100140,1,0,0:0:0:0:
174,231,100301,1,0,0:0:0:0:
488,182,100463,5,0,0:0:0:0:
86,138,100624,1,0,0:0:0:0:
414,327,100785,1,0,0:0:0:0:
151,85,100946,1,0,0:0:0:0:
56,312,101108,1,0,0:0:0:0:
408,232,101269,1,0,0:0:0:0:
78,63,101430,1,0,0:0:0:0:
320,333,101592,1,0,0:0:0:0:
270,37,101753,5,0,0:0:0:0:
399,314,101914,1,0,0:0:0:0:
67,223,102075,1,0,0:0:0:0:
303,60,102237,5,0,0:0:0:0:
356,318,102398,1,0,0:0:0:0:
56,182,102559,1,0,0:0:0:0:
382,172,102721,5,0,0:0:0:0:
202,343,102882,1,0,0:0:0:0:
139,52,103043,1,0,0:0:0:0:
378,212,103205,5,0,0:0:0:0:
171,318,103366,1,0,0:0:0:0:
180,37,103527,1,0,0:0:0:0:
424,127,103688,5,0,0:0:0:0:
446,166,103769,1,0,0:0:0:0:
453,210,103850,1,0,0:0:0:0:
445,254,103930,1,0,0:0:0:0:
427,292,104011,2,0,P|352:290|234:325,1,168.75
184,348,104334,6,0,L|57:346,1,112.5
26,204,104656,2,0,L|172:206,1,112.5
304,130,104979,2,0,P|203:50|109:97,1,225
204,179,105463,6,0,P|229:229|323:238,1,112.5
458,317,105785,1,0,0:0:0:0:
303,127,105946,1,0,0:0:0:0:
473,195,106108,1,0,0:0:0:0:
473,195,106188,1,0,0:0:0:0:
473,195,106269,1,0,0:0:0:0:
321,309,106430,2,0,L|277:345,2,56.25
402,111,106753,5,0,0:0:0:0:
402,111,106834,1,0,0:0:0:0:
402,111,106914,2,0,P|361:48|283:49,1,112.5
124,119,107237,2,0,L|257:116,1,112.5
357,214,107559,2,0,B|248:162|327:254|127:229,1,225
31,255,108043,6,0,P|40:310|123:327,1,112.5
264,334,108366,1,0,0:0:0:0:
146,231,108527,1,0,0:0:0:0:
287,105,108688,1,0,0:0:0:0:
287,105,108769,1,0,0:0:0:0:
287,105,108850,1,0,0:0:0:0:
372,277,109011,2,0,L|437:304,2,56.25
173,126,109334,5,0,0:0:0:0:
173,126,109414,1,0,0:0:0:0:
173,126,109495,2,0,P|121:130|37:187,1,112.5
162,305,109817,2,0,L|278:306,1,112.5
371,115,110140,2,0,B|295:257|426:182|363:336,1,225
194,214,110624,6,0,P|112:231|80:260,1,112.5
274,305,110946,1,0,0:0:0:0:
226,103,111108,1,0,0:0:0:0:
90,245,111269,1,0,0:0:0:0:
90,245,111350,1,0,0:0:0:0:
90,245,111430,1,0,0:0:0:0:
348,222,111592,2,0,L|413:249,2,56.25
119,136,111914,1,0,0:0:0:0:
139,317,112237,5,0,0:0:0:0:
185,42,112398,1,0,0:0:0:0:
342,196,112559,5,0,0:0:0:0:
342,196,112640,1,0,0:0:0:0:
342,196,112721,1,0,0:0:0:0:
93,56,112882,1,0,0:0:0:0:
221,271,113043,5,0,0:0:0:0:
221,271,113124,1,0,0:0:0:0:
221,271,113205,1,0,0:0:0:0:
474,127,113366,1,0,0:0:0:0:
258,91,113527,5,0,0:0:0:0:
258,91,113608,1,0,0:0:0:0:
258,91,113688,1,0,0:0:0:0:
56,336,113850,1,0,0:0:0:0:
185,42,114172,5,0,0:0:0:0:
313,338,114333,1,0,0:0:0:0:
415,57,114495,1,0,0:0:0:0:
