osu file format v14

[General]
AudioFilename: audio.mp3
AudioLeadIn: 0
PreviewTime: 57663
Countdown: 0
SampleSet: Normal
StackLeniency: 0.7
Mode: 3
LetterboxInBreaks: 0
SpecialStyle: 0
WidescreenStoryboard: 1

[Editor]
Bookmarks: 7817,15202,29971,44740,59509,89048,103817
DistanceSpacing: 1.3
BeatDivisor: 12
GridSize: 32
TimelineZoom: 1.800001

[Metadata]
Title:Naked (Cut Ver.)
TitleUnicode:Naked (Cut Ver.)
Artist:THE ORAL CIGARETTES
ArtistUnicode:THE ORAL CIGARETTES
Creator:[ Decku ]
Version:Hard
Source:
Tags:japanese rock j-rock suck my world toc jrock 山中 拓也 Takuya Yamanaka 村上 彬 Akira Murakami 鈴木 重伸 Shigenobu Suzuki 中西 雅哉 Masaya Nakanishi geo_ooo darkistdeci
BeatmapID:3456995
BeatmapSetID:1691791

[Difficulty]
HPDrainRate:8
CircleSize:4
OverallDifficulty:8
ApproachRate:5
SliderMultiplier:1.4
SliderTickRate:1

[Events]
//Background and Video events
0,0,"bg.jpg",0,0
//Break Periods
//Storyboard Layer 0 (Background)
//Storyboard Layer 1 (Fail)
//Storyboard Layer 2 (Pass)
//Storyboard Layer 3 (Foreground)
//Storyboard Layer 4 (Overlay)
//Storyboard Sound Samples

[TimingPoints]
433,461.538461538462,4,1,1,40,1,0
59509,-100,4,1,1,40,0,1
89048,-100,4,1,1,40,0,0

[HitObjects]
320,192,7817,5,0,0:0:0:0:
192,192,8279,1,0,0:0:0:0:
320,192,8740,1,0,0:0:0:0:
192,192,9202,1,0,0:0:0:0:
320,192,9663,1,0,0:0:0:0:
192,192,10125,1,0,0:0:0:0:
320,192,10586,1,0,0:0:0:0:
192,192,11048,1,0,0:0:0:0:
320,192,11509,1,0,0:0:0:0:
320,192,11971,1,0,0:0:0:0:
320,192,12433,1,0,0:0:0:0:
320,192,12894,1,0,0:0:0:0:
320,192,13356,1,0,0:0:0:0:
320,192,13586,1,0,0:0:0:0:
320,192,13817,1,0,0:0:0:0:
320,192,14048,1,0,0:0:0:0:
320,192,14279,1,0,0:0:0:0:
192,192,14740,1,0,0:0:0:0:
448,192,15202,1,0,0:0:0:0:
320,192,15202,1,0,0:0:0:0:
64,192,15202,1,0,0:0:0:0:
320,192,15317,1,0,0:0:0:0:
192,192,15433,1,0,0:0:0:0:
448,192,15548,1,0,0:0:0:0:
192,192,15663,1,0,0:0:0:0:
64,192,15663,1,0,0:0:0:0:
320,192,15779,1,0,0:0:0:0:
64,192,15894,1,0,0:0:0:0:
448,192,16009,1,0,0:0:0:0:
64,192,16125,1,0,0:0:0:0:
192,192,16125,1,0,0:0:0:0:
320,192,16240,1,0,0:0:0:0:
192,192,16356,1,0,0:0:0:0:
320,192,16471,1,0,0:0:0:0:
448,192,16471,1,0,0:0:0:0:
64,192,16586,1,0,0:0:0:0:
320,192,16702,1,0,0:0:0:0:
192,192,16702,1,0,0:0:0:0:
448,192,16817,1,0,0:0:0:0:
64,192,16933,1,0,0:0:0:0:
192,192,16933,1,0,0:0:0:0:
448,192,17048,1,0,0:0:0:0:
320,192,17048,1,0,0:0:0:0:
192,192,17279,1,0,0:0:0:0:
320,192,17394,1,0,0:0:0:0:
448,192,17509,1,0,0:0:0:0:
192,192,17509,1,0,0:0:0:0:
64,192,17625,1,0,0:0:0:0:
320,192,17740,1,0,0:0:0:0:
192,192,17856,1,0,0:0:0:0:
320,192,17971,1,0,0:0:0:0:
64,192,17971,1,0,0:0:0:0:
448,192,18086,1,0,0:0:0:0:
64,192,18202,1,0,0:0:0:0:
448,192,18317,1,0,0:0:0:0:
192,192,18317,1,0,0:0:0:0:
320,192,18433,1,0,0:0:0:0:
64,192,18548,1,0,0:0:0:0:
448,192,18548,1,0,0:0:0:0:
192,192,18663,1,0,0:0:0:0:
448,192,18779,1,0,0:0:0:0:
320,192,18779,1,0,0:0:0:0:
192,192,18894,1,0,0:0:0:0:
64,192,18894,1,0,0:0:0:0:
448,192,19125,1,0,0:0:0:0:
64,192,19240,1,0,0:0:0:0:
320,192,19356,1,0,0:0:0:0:
448,192,19356,1,0,0:0:0:0:
192,192,19471,1,0,0:0:0:0:
320,192,19586,1,0,0:0:0:0:
64,192,19702,1,0,0:0:0:0:
320,192,19817,1,0,0:0:0:0:
448,192,19817,1,0,0:0:0:0:
192,192,19933,1,0,0:0:0:0:
448,192,20048,1,0,0:0:0:0:
192,192,20163,1,0,0:0:0:0:
320,192,20163,1,0,0:0:0:0:
64,192,20279,1,0,0:0:0:0:
320,192,20394,1,0,0:0:0:0:
448,192,20394,1,0,0:0:0:0:
192,192,20509,1,0,0:0:0:0:
64,192,20625,1,0,0:0:0:0:
448,192,20625,1,0,0:0:0:0:
320,192,20740,1,0,0:0:0:0:
192,192,20740,1,0,0:0:0:0:
64,192,20971,1,0,0:0:0:0:
448,192,21086,1,0,0:0:0:0:
192,192,21202,1,0,0:0:0:0:
64,192,21202,1,0,0:0:0:0:
320,192,21317,1,0,0:0:0:0:
192,192,21433,1,0,0:0:0:0:
448,192,21548,1,0,0:0:0:0:
192,192,21663,1,0,0:0:0:0:
64,192,21663,1,0,0:0:0:0:
320,192,21779,1,0,0:0:0:0:
64,192,21894,1,0,0:0:0:0:
320,192,22009,1,0,0:0:0:0:
448,192,22009,1,0,0:0:0:0:
192,192,22125,1,0,0:0:0:0:
64,192,22240,1,0,0:0:0:0:
448,192,22240,1,0,0:0:0:0:
320,192,22356,1,0,0:0:0:0:
192,192,22471,1,0,0:0:0:0:
64,192,22471,1,0,0:0:0:0:
448,192,22586,1,0,0:0:0:0:
192,192,22586,1,0,0:0:0:0:
320,192,22817,1,0,0:0:0:0:
64,192,22933,1,0,0:0:0:0:
320,192,23048,1,0,0:0:0:0:
448,192,23048,1,0,0:0:0:0:
192,192,23163,1,0,0:0:0:0:
448,192,23279,1,0,0:0:0:0:
64,192,23394,1,0,0:0:0:0:
448,192,23509,1,0,0:0:0:0:
320,192,23509,1,0,0:0:0:0:
192,192,23625,1,0,0:0:0:0:
320,192,23740,1,0,0:0:0:0:
192,192,23856,1,0,0:0:0:0:
64,192,23856,1,0,0:0:0:0:
448,192,23971,1,0,0:0:0:0:
192,192,24086,1,0,0:0:0:0:
320,192,24086,1,0,0:0:0:0:
64,192,24202,1,0,0:0:0:0:
448,192,24317,1,0,0:0:0:0:
320,192,24317,1,0,0:0:0:0:
64,192,24433,1,0,0:0:0:0:
192,192,24433,1,0,0:0:0:0:
320,192,24663,1,0,0:0:0:0:
192,192,24779,1,0,0:0:0:0:
64,192,24894,1,0,0:0:0:0:
320,192,24894,1,0,0:0:0:0:
448,192,25009,1,0,0:0:0:0:
192,192,25125,1,0,0:0:0:0:
320,192,25240,1,0,0:0:0:0:
192,192,25356,1,0,0:0:0:0:
448,192,25356,1,0,0:0:0:0:
64,192,25471,1,0,0:0:0:0:
448,192,25586,1,0,0:0:0:0:
64,192,25702,1,0,0:0:0:0:
320,192,25702,1,0,0:0:0:0:
192,192,25817,1,0,0:0:0:0:
448,192,25933,1,0,0:0:0:0:
64,192,25933,1,0,0:0:0:0:
320,192,26048,1,0,0:0:0:0:
64,192,26163,1,0,0:0:0:0:
192,192,26163,1,0,0:0:0:0:
320,192,26279,1,0,0:0:0:0:
448,192,26279,1,0,0:0:0:0:
64,192,26509,1,0,0:0:0:0:
448,192,26625,1,0,0:0:0:0:
192,192,26740,1,0,0:0:0:0:
64,192,26740,1,0,0:0:0:0:
320,192,26856,1,0,0:0:0:0:
192,192,26971,1,0,0:0:0:0:
448,192,27086,1,0,0:0:0:0:
192,192,27202,1,0,0:0:0:0:
64,192,27202,1,0,0:0:0:0:
320,192,27317,1,0,0:0:0:0:
64,192,27433,1,0,0:0:0:0:
320,192,27548,1,0,0:0:0:0:
448,192,27548,1,0,0:0:0:0:
192,192,27663,1,0,0:0:0:0:
64,192,27663,1,0,0:0:0:0:
320,192,27779,1,0,0:0:0:0:
448,192,27779,1,0,0:0:0:0:
192,192,27894,1,0,0:0:0:0:
64,192,27894,1,0,0:0:0:0:
448,192,28009,1,0,0:0:0:0:
320,192,28009,1,0,0:0:0:0:
192,192,28125,1,0,0:0:0:0:
64,192,28125,1,0,0:0:0:0:
320,192,28356,1,0,0:0:0:0:
448,192,28471,1,0,0:0:0:0:
64,192,28586,1,0,0:0:0:0:
192,192,28702,1,0,0:0:0:0:
320,192,28817,1,0,0:0:0:0:
64,192,28933,1,0,0:0:0:0:
192,192,29048,1,0,0:0:0:0:
448,192,29163,1,0,0:0:0:0:
320,192,29279,1,0,0:0:0:0:
192,192,29394,1,0,0:0:0:0:
448,192,29509,1,0,0:0:0:0:
64,192,29625,1,0,0:0:0:0:
320,192,29740,1,0,0:0:0:0:
192,192,29856,1,0,0:0:0:0:
448,192,29971,1,0,0:0:0:0:
64,192,29971,1,0,0:0:0:0:
320,192,30009,1,0,0:0:0:0:
192,192,30202,1,0,0:0:0:0:
320,192,30317,1,0,0:0:0:0:
192,192,30433,1,0,0:0:0:0:
64,192,30433,1,0,0:0:0:0:
64,192,30548,1,0,0:0:0:0:
448,192,30663,1,0,0:0:0:0:
448,192,30779,1,0,0:0:0:0:
64,192,30894,1,0,0:0:0:0:
320,192,30894,1,0,0:0:0:0:
192,192,31009,1,0,0:0:0:0:
448,192,31086,1,0,0:0:0:0:
64,192,31163,1,0,0:0:0:0:
448,192,31240,1,0,0:0:0:0:
320,192,31240,1,0,0:0:0:0:
192,192,31356,1,0,0:0:0:0:
64,192,31471,1,0,0:0:0:0:
320,192,31471,1,0,0:0:0:0:
448,192,31586,1,0,0:0:0:0:
64,192,31702,1,0,0:0:0:0:
192,192,31702,1,0,0:0:0:0:
448,192,31817,1,0,0:0:0:0:
320,192,31817,1,0,0:0:0:0:
192,192,31933,1,0,0:0:0:0:
320,192,32048,1,0,0:0:0:0:
320,192,32163,1,0,0:0:0:0:
64,192,32279,1,0,0:0:0:0:
448,192,32279,1,0,0:0:0:0:
192,192,32356,1,0,0:0:0:0:
320,192,32433,1,0,0:0:0:0:
64,192,32509,1,0,0:0:0:0:
192,192,32625,1,0,0:0:0:0:
320,192,32740,1,0,0:0:0:0:
448,192,32740,1,0,0:0:0:0:
64,192,32856,1,0,0:0:0:0:
448,192,32971,1,0,0:0:0:0:
320,192,33086,1,0,0:0:0:0:
192,192,33086,1,0,0:0:0:0:
64,192,33202,1,0,0:0:0:0:
320,192,33317,1,0,0:0:0:0:
448,192,33317,1,0,0:0:0:0:
192,192,33433,1,0,0:0:0:0:
448,192,33548,1,0,0:0:0:0:
64,192,33548,1,0,0:0:0:0:
320,192,33663,1,0,0:0:0:0:
192,192,33663,1,0,0:0:0:0:
64,192,33779,1,0,0:0:0:0:
448,192,33894,1,0,0:0:0:0:
320,192,34009,1,0,0:0:0:0:
448,192,34125,1,0,0:0:0:0:
64,192,34125,1,0,0:0:0:0:
192,192,34202,1,0,0:0:0:0:
320,192,34279,1,0,0:0:0:0:
64,192,34356,1,0,0:0:0:0:
448,192,34471,1,0,0:0:0:0:
320,192,34586,1,0,0:0:0:0:
192,192,34586,1,0,0:0:0:0:
64,192,34702,1,0,0:0:0:0:
64,192,34817,1,0,0:0:0:0:
448,192,34933,1,0,0:0:0:0:
320,192,34933,1,0,0:0:0:0:
192,192,35048,1,0,0:0:0:0:
64,192,35163,1,0,0:0:0:0:
448,192,35163,1,0,0:0:0:0:
320,192,35279,1,0,0:0:0:0:
192,192,35394,1,0,0:0:0:0:
64,192,35394,1,0,0:0:0:0:
320,192,35509,1,0,0:0:0:0:
448,192,35509,1,0,0:0:0:0:
192,192,35586,1,0,0:0:0:0:
64,192,35663,1,0,0:0:0:0:
448,192,35740,1,0,0:0:0:0:
320,192,35856,1,0,0:0:0:0:
192,192,35971,1,0,0:0:0:0:
448,192,36048,1,0,0:0:0:0:
320,192,36125,1,0,0:0:0:0:
64,192,36202,1,0,0:0:0:0:
448,192,36240,1,0,0:0:0:0:
192,192,36317,1,0,0:0:0:0:
320,192,36433,1,0,0:0:0:0:
448,192,36433,1,0,0:0:0:0:
320,192,36548,1,0,0:0:0:0:
64,192,36663,1,0,0:0:0:0:
448,192,36779,1,0,0:0:0:0:
192,192,36779,1,0,0:0:0:0:
320,192,36894,1,0,0:0:0:0:
64,192,37009,1,0,0:0:0:0:
192,192,37009,1,0,0:0:0:0:
448,192,37125,1,0,0:0:0:0:
64,192,37240,1,0,0:0:0:0:
320,192,37240,1,0,0:0:0:0:
192,192,37356,1,0,0:0:0:0:
448,192,37356,1,0,0:0:0:0:
192,192,37471,1,0,0:0:0:0:
320,192,37586,1,0,0:0:0:0:
320,192,37702,1,0,0:0:0:0:
192,192,37817,1,0,0:0:0:0:
64,192,37817,1,0,0:0:0:0:
64,192,37933,1,0,0:0:0:0:
448,192,38048,1,0,0:0:0:0:
192,192,38202,1,0,0:0:0:0:
448,192,38279,1,0,0:0:0:0:
64,192,38279,1,0,0:0:0:0:
320,192,38394,1,0,0:0:0:0:
192,192,38509,1,0,0:0:0:0:
320,192,38625,1,0,0:0:0:0:
448,192,38625,1,0,0:0:0:0:
64,192,38740,1,0,0:0:0:0:
192,192,38856,1,0,0:0:0:0:
448,192,38856,1,0,0:0:0:0:
320,192,38971,1,0,0:0:0:0:
192,192,39086,1,0,0:0:0:0:
64,192,39086,1,0,0:0:0:0:
320,192,39202,1,0,0:0:0:0:
448,192,39202,1,0,0:0:0:0:
448,192,39317,1,0,0:0:0:0:
64,192,39433,1,0,0:0:0:0:
192,192,39548,1,0,0:0:0:0:
64,192,39663,1,0,0:0:0:0:
448,192,39663,1,0,0:0:0:0:
320,192,39779,1,0,0:0:0:0:
320,192,39894,1,0,0:0:0:0:
192,192,39971,1,0,0:0:0:0:
64,192,40048,1,0,0:0:0:0:
320,192,40125,1,0,0:0:0:0:
448,192,40125,1,0,0:0:0:0:
192,192,40240,1,0,0:0:0:0:
192,192,40356,1,0,0:0:0:0:
320,192,40471,1,0,0:0:0:0:
64,192,40471,1,0,0:0:0:0:
448,192,40586,1,0,0:0:0:0:
192,192,40702,1,0,0:0:0:0:
64,192,40702,1,0,0:0:0:0:
320,192,40817,1,0,0:0:0:0:
448,192,40933,1,0,0:0:0:0:
192,192,40933,1,0,0:0:0:0:
320,192,41048,1,0,0:0:0:0:
64,192,41048,1,0,0:0:0:0:
64,192,41163,1,0,0:0:0:0:
448,192,41279,1,0,0:0:0:0:
192,192,41394,1,0,0:0:0:0:
64,192,41509,1,0,0:0:0:0:
448,192,41509,1,0,0:0:0:0:
320,192,41625,1,0,0:0:0:0:
192,192,41740,1,0,0:0:0:0:
448,192,41856,1,0,0:0:0:0:
64,192,41971,1,0,0:0:0:0:
192,192,41971,1,0,0:0:0:0:
64,192,42202,1,0,0:0:0:0:
448,192,42317,1,0,0:0:0:0:
320,192,42317,1,0,0:0:0:0:
192,192,42433,1,0,0:0:0:0:
64,192,42548,1,0,0:0:0:0:
448,192,42548,1,0,0:0:0:0:
320,192,42663,1,0,0:0:0:0:
64,192,42779,1,0,0:0:0:0:
192,192,42779,1,0,0:0:0:0:
320,192,42894,1,0,0:0:0:0:
448,192,42894,1,0,0:0:0:0:
448,192,43009,1,0,0:0:0:0:
192,192,43125,1,0,0:0:0:0:
320,192,43240,1,0,0:0:0:0:
64,192,43356,1,0,0:0:0:0:
192,192,43356,1,0,0:0:0:0:
64,192,43471,1,0,0:0:0:0:
320,192,43586,1,0,0:0:0:0:
320,192,43702,1,0,0:0:0:0:
192,192,43817,1,0,0:0:0:0:
448,192,43817,1,0,0:0:0:0:
192,192,43933,1,0,0:0:0:0:
64,192,44048,1,0,0:0:0:0:
320,192,44163,1,0,0:0:0:0:
448,192,44163,1,0,0:0:0:0:
64,192,44279,1,0,0:0:0:0:
192,192,44279,1,0,0:0:0:0:
320,192,44394,1,0,0:0:0:0:
448,192,44394,1,0,0:0:0:0:
192,192,44509,1,0,0:0:0:0:
64,192,44509,1,0,0:0:0:0:
320,192,44625,1,0,0:0:0:0:
448,192,44625,1,0,0:0:0:0:
64,192,44740,1,0,0:0:0:0:
192,192,44740,1,0,0:0:0:0:
320,192,44798,1,0,0:0:0:0:
448,192,44872,1,0,0:0:0:0:
192,192,44971,1,0,0:0:0:0:
64,192,45063,1,0,0:0:0:0:
320,192,45156,1,0,0:0:0:0:
192,192,45248,1,0,0:0:0:0:
448,192,45340,1,0,0:0:0:0:
320,192,45433,1,0,0:0:0:0:
192,192,45525,1,0,0:0:0:0:
64,192,45617,1,0,0:0:0:0:
320,192,45710,1,0,0:0:0:0:
448,192,45802,1,0,0:0:0:0:
192,192,45894,1,0,0:0:0:0:
320,192,45987,1,0,0:0:0:0:
64,192,46079,1,0,0:0:0:0:
192,192,46171,1,0,0:0:0:0:
320,192,46263,1,0,0:0:0:0:
448,192,46356,1,0,0:0:0:0:
64,192,46448,1,0,0:0:0:0:
320,192,46586,1,0,0:0:0:0:
448,192,46586,1,0,0:0:0:0:
320,192,47048,1,0,0:0:0:0:
64,192,47163,1,0,0:0:0:0:
320,192,47279,1,0,0:0:0:0:
192,192,47394,1,0,0:0:0:0:
320,192,47509,1,0,0:0:0:0:
64,192,47509,1,0,0:0:0:0:
448,192,47602,1,0,0:0:0:0:
192,192,47694,1,0,0:0:0:0:
320,192,47786,1,0,0:0:0:0:
448,192,47879,1,0,0:0:0:0:
64,192,47971,1,0,0:0:0:0:
192,192,48086,1,0,0:0:0:0:
320,192,48086,1,0,0:0:0:0:
448,192,48202,1,0,0:0:0:0:
64,192,48317,1,0,0:0:0:0:
192,192,48317,1,0,0:0:0:0:
320,192,48433,1,0,0:0:0:0:
448,192,48433,1,0,0:0:0:0:
320,192,48548,1,0,0:0:0:0:
192,192,48663,1,0,0:0:0:0:
192,192,48779,1,0,0:0:0:0:
448,192,48894,1,0,0:0:0:0:
64,192,48894,1,0,0:0:0:0:
320,192,49125,1,0,0:0:0:0:
448,192,49240,1,0,0:0:0:0:
64,192,49356,1,0,0:0:0:0:
320,192,49356,1,0,0:0:0:0:
192,192,49448,1,0,0:0:0:0:
448,192,49586,1,0,0:0:0:0:
64,192,49702,1,0,0:0:0:0:
320,192,49702,1,0,0:0:0:0:
192,192,49817,1,0,0:0:0:0:
64,192,49933,1,0,0:0:0:0:
448,192,49933,1,0,0:0:0:0:
320,192,50048,1,0,0:0:0:0:
192,192,50163,1,0,0:0:0:0:
448,192,50163,1,0,0:0:0:0:
320,192,50279,1,0,0:0:0:0:
64,192,50279,1,0,0:0:0:0:
192,192,50394,1,0,0:0:0:0:
64,192,50509,1,0,0:0:0:0:
448,192,50625,1,0,0:0:0:0:
192,192,50740,1,0,0:0:0:0:
320,192,50740,1,0,0:0:0:0:
64,192,50817,1,0,0:0:0:0:
448,192,50894,1,0,0:0:0:0:
320,192,50971,1,0,0:0:0:0:
64,192,51086,1,0,0:0:0:0:
192,192,51202,1,0,0:0:0:0:
320,192,51202,1,0,0:0:0:0:
192,192,51317,1,0,0:0:0:0:
64,192,51433,1,0,0:0:0:0:
320,192,51548,1,0,0:0:0:0:
448,192,51548,1,0,0:0:0:0:
192,192,51663,1,0,0:0:0:0:
64,192,51779,1,0,0:0:0:0:
448,192,51779,1,0,0:0:0:0:
320,192,51894,1,0,0:0:0:0:
192,192,52009,1,0,0:0:0:0:
64,192,52009,1,0,0:0:0:0:
320,192,52125,1,0,0:0:0:0:
448,192,52125,1,0,0:0:0:0:
192,192,52183,1,0,0:0:0:0:
64,192,52257,1,0,0:0:0:0:
320,192,52356,1,0,0:0:0:0:
448,192,52448,1,0,0:0:0:0:
192,192,52541,1,0,0:0:0:0:
320,192,52633,1,0,0:0:0:0:
64,192,52725,1,0,0:0:0:0:
192,192,52817,1,0,0:0:0:0:
320,192,52910,1,0,0:0:0:0:
448,192,53002,1,0,0:0:0:0:
192,192,53095,1,0,0:0:0:0:
64,192,53187,1,0,0:0:0:0:
320,192,53279,1,0,0:0:0:0:
192,192,53372,1,0,0:0:0:0:
448,192,53464,1,0,0:0:0:0:
320,192,53556,1,0,0:0:0:0:
192,192,53648,1,0,0:0:0:0:
64,192,53740,1,0,0:0:0:0:
448,192,53856,1,0,0:0:0:0:
192,192,53971,1,0,0:0:0:0:
64,192,53971,1,0,0:0:0:0:
192,192,54433,1,0,0:0:0:0:
448,192,54548,1,0,0:0:0:0:
192,192,54663,1,0,0:0:0:0:
320,192,54779,1,0,0:0:0:0:
192,192,54894,1,0,0:0:0:0:
448,192,54894,1,0,0:0:0:0:
64,192,54987,1,0,0:0:0:0:
320,192,55079,1,0,0:0:0:0:
192,192,55171,1,0,0:0:0:0:
64,192,55264,1,0,0:0:0:0:
448,192,55356,1,0,0:0:0:0:
320,192,55471,1,0,0:0:0:0:
192,192,55471,1,0,0:0:0:0:
64,192,55586,1,0,0:0:0:0:
448,192,55702,1,0,0:0:0:0:
320,192,55702,1,0,0:0:0:0:
192,192,55817,1,0,0:0:0:0:
64,192,55817,1,0,0:0:0:0:
192,192,56048,1,0,0:0:0:0:
192,192,56163,1,0,0:0:0:0:
448,192,56279,1,0,0:0:0:0:
320,192,56279,1,0,0:0:0:0:
64,192,56394,1,0,0:0:0:0:
320,192,56471,1,0,0:0:0:0:
192,192,56548,1,0,0:0:0:0:
448,192,56625,1,0,0:0:0:0:
64,192,56740,1,0,0:0:0:0:
320,192,56740,1,0,0:0:0:0:
448,192,56856,1,0,0:0:0:0:
192,192,56971,1,0,0:0:0:0:
64,192,57086,1,0,0:0:0:0:
320,192,57086,1,0,0:0:0:0:
192,192,57202,1,0,0:0:0:0:
448,192,57317,1,0,0:0:0:0:
320,192,57317,1,0,0:0:0:0:
64,192,57433,1,0,0:0:0:0:
192,192,57548,1,0,0:0:0:0:
448,192,57548,1,0,0:0:0:0:
64,192,57663,1,0,0:0:0:0:
320,192,57663,1,0,0:0:0:0:
192,192,57779,1,0,0:0:0:0:
448,192,57894,1,0,0:0:0:0:
64,192,58125,1,0,0:0:0:0:
192,192,58240,1,0,0:0:0:0:
448,192,58356,1,0,0:0:0:0:
64,192,58586,1,0,0:0:0:0:
320,192,58702,1,0,0:0:0:0:
448,192,58817,1,0,0:0:0:0:
64,192,59048,1,0,0:0:0:0:
320,192,59163,1,0,0:0:0:0:
448,192,59279,1,0,0:0:0:0:
64,192,59509,1,0,0:0:0:0:
192,192,59509,1,0,0:0:0:0:
320,192,59586,1,0,0:0:0:0:
448,192,59740,1,0,0:0:0:0:
64,192,59856,1,0,0:0:0:0:
448,192,59971,1,0,0:0:0:0:
192,192,59971,1,0,0:0:0:0:
320,192,60202,1,0,0:0:0:0:
320,192,60317,1,0,0:0:0:0:
192,192,60433,1,0,0:0:0:0:
448,192,60433,1,0,0:0:0:0:
64,192,60509,1,0,0:0:0:0:
320,192,60663,1,0,0:0:0:0:
448,192,60779,1,0,0:0:0:0:
64,192,60779,1,0,0:0:0:0:
192,192,60894,1,0,0:0:0:0:
448,192,61009,1,0,0:0:0:0:
320,192,61009,1,0,0:0:0:0:
64,192,61125,1,0,0:0:0:0:
320,192,61240,1,0,0:0:0:0:
192,192,61240,1,0,0:0:0:0:
448,192,61356,1,0,0:0:0:0:
64,192,61356,1,0,0:0:0:0:
192,192,61471,1,0,0:0:0:0:
320,192,61586,1,0,0:0:0:0:
64,192,61663,1,0,0:0:0:0:
448,192,61740,1,0,0:0:0:0:
192,192,61817,1,0,0:0:0:0:
320,192,61817,1,0,0:0:0:0:
192,192,61933,1,0,0:0:0:0:
448,192,62048,1,0,0:0:0:0:
64,192,62140,1,0,0:0:0:0:
320,192,62279,1,0,0:0:0:0:
448,192,62279,1,0,0:0:0:0:
320,192,62509,1,0,0:0:0:0:
320,192,62625,1,0,0:0:0:0:
64,192,62625,1,0,0:0:0:0:
192,192,62740,1,0,0:0:0:0:
448,192,62856,1,0,0:0:0:0:
320,192,62856,1,0,0:0:0:0:
64,192,62971,1,0,0:0:0:0:
448,192,63086,1,0,0:0:0:0:
192,192,63086,1,0,0:0:0:0:
320,192,63202,1,0,0:0:0:0:
64,192,63202,1,0,0:0:0:0:
192,192,63279,1,0,0:0:0:0:
448,192,63356,1,0,0:0:0:0:
320,192,63433,1,0,0:0:0:0:
64,192,63525,1,0,0:0:0:0:
192,192,63663,1,0,0:0:0:0:
448,192,63663,1,0,0:0:0:0:
320,192,63894,1,0,0:0:0:0:
320,192,64009,1,0,0:0:0:0:
64,192,64125,1,0,0:0:0:0:
192,192,64125,1,0,0:0:0:0:
448,192,64240,1,0,0:0:0:0:
64,192,64356,1,0,0:0:0:0:
64,192,64471,1,0,0:0:0:0:
320,192,64471,1,0,0:0:0:0:
192,192,64586,1,0,0:0:0:0:
448,192,64702,1,0,0:0:0:0:
320,192,64702,1,0,0:0:0:0:
64,192,64740,1,0,0:0:0:0:
448,192,64933,1,0,0:0:0:0:
320,192,64933,1,0,0:0:0:0:
192,192,65048,1,0,0:0:0:0:
64,192,65048,1,0,0:0:0:0:
192,192,65163,1,0,0:0:0:0:
320,192,65279,1,0,0:0:0:0:
64,192,65394,1,0,0:0:0:0:
320,192,65509,1,0,0:0:0:0:
448,192,65509,1,0,0:0:0:0:
192,192,65625,1,0,0:0:0:0:
448,192,65740,1,0,0:0:0:0:
448,192,65856,1,0,0:0:0:0:
320,192,65971,1,0,0:0:0:0:
192,192,66063,1,0,0:0:0:0:
64,192,66156,1,0,0:0:0:0:
320,192,66248,1,0,0:0:0:0:
192,192,66317,1,0,0:0:0:0:
448,192,66433,1,0,0:0:0:0:
64,192,66548,1,0,0:0:0:0:
320,192,66548,1,0,0:0:0:0:
192,192,66663,1,0,0:0:0:0:
320,192,66779,1,0,0:0:0:0:
448,192,66779,1,0,0:0:0:0:
192,192,66894,1,0,0:0:0:0:
64,192,66894,1,0,0:0:0:0:
448,192,66971,1,0,0:0:0:0:
320,192,67125,1,0,0:0:0:0:
64,192,67240,1,0,0:0:0:0:
192,192,67356,1,0,0:0:0:0:
320,192,67356,1,0,0:0:0:0:
192,192,67471,1,0,0:0:0:0:
448,192,67586,1,0,0:0:0:0:
448,192,67702,1,0,0:0:0:0:
320,192,67817,1,0,0:0:0:0:
64,192,67817,1,0,0:0:0:0:
192,192,67933,1,0,0:0:0:0:
448,192,68026,1,0,0:0:0:0:
320,192,68163,1,0,0:0:0:0:
64,192,68163,1,0,0:0:0:0:
192,192,68279,1,0,0:0:0:0:
448,192,68394,1,0,0:0:0:0:
320,192,68394,1,0,0:0:0:0:
64,192,68433,1,0,0:0:0:0:
192,192,68625,1,0,0:0:0:0:
448,192,68625,1,0,0:0:0:0:
320,192,68740,1,0,0:0:0:0:
64,192,68740,1,0,0:0:0:0:
320,192,68856,1,0,0:0:0:0:
192,192,68971,1,0,0:0:0:0:
448,192,69048,1,0,0:0:0:0:
320,192,69125,1,0,0:0:0:0:
192,192,69202,1,0,0:0:0:0:
64,192,69202,1,0,0:0:0:0:
64,192,69317,1,0,0:0:0:0:
320,192,69433,1,0,0:0:0:0:
448,192,69548,1,0,0:0:0:0:
192,192,69663,1,0,0:0:0:0:
64,192,69663,1,0,0:0:0:0:
320,192,69756,1,0,0:0:0:0:
192,192,69894,1,0,0:0:0:0:
448,192,70009,1,0,0:0:0:0:
64,192,70009,1,0,0:0:0:0:
320,192,70125,1,0,0:0:0:0:
192,192,70240,1,0,0:0:0:0:
64,192,70240,1,0,0:0:0:0:
320,192,70471,1,0,0:0:0:0:
192,192,70471,1,0,0:0:0:0:
64,192,70586,1,0,0:0:0:0:
448,192,70586,1,0,0:0:0:0:
320,192,70817,1,0,0:0:0:0:
192,192,70909,1,0,0:0:0:0:
320,192,71048,1,0,0:0:0:0:
448,192,71048,1,0,0:0:0:0:
64,192,71140,1,0,0:0:0:0:
448,192,71279,1,0,0:0:0:0:
192,192,71356,1,0,0:0:0:0:
448,192,71509,1,0,0:0:0:0:
64,192,71509,1,0,0:0:0:0:
192,192,71740,1,0,0:0:0:0:
192,192,71856,1,0,0:0:0:0:
448,192,71856,1,0,0:0:0:0:
320,192,71971,1,0,0:0:0:0:
64,192,72086,1,0,0:0:0:0:
448,192,72086,1,0,0:0:0:0:
192,192,72125,1,0,0:0:0:0:
320,192,72317,1,0,0:0:0:0:
64,192,72317,1,0,0:0:0:0:
192,192,72433,1,0,0:0:0:0:
448,192,72433,1,0,0:0:0:0:
320,192,72663,1,0,0:0:0:0:
64,192,72779,1,0,0:0:0:0:
320,192,72894,1,0,0:0:0:0:
448,192,72894,1,0,0:0:0:0:
64,192,73125,1,0,0:0:0:0:
64,192,73240,1,0,0:0:0:0:
192,192,73356,1,0,0:0:0:0:
320,192,73448,1,0,0:0:0:0:
448,192,73541,1,0,0:0:0:0:
192,192,73633,1,0,0:0:0:0:
320,192,73702,1,0,0:0:0:0:
64,192,73817,1,0,0:0:0:0:
448,192,73933,1,0,0:0:0:0:
192,192,73933,1,0,0:0:0:0:
320,192,74048,1,0,0:0:0:0:
192,192,74163,1,0,0:0:0:0:
64,192,74163,1,0,0:0:0:0:
448,192,74279,1,0,0:0:0:0:
320,192,74279,1,0,0:0:0:0:
192,192,74356,1,0,0:0:0:0:
64,192,74509,1,0,0:0:0:0:
448,192,74625,1,0,0:0:0:0:
64,192,74740,1,0,0:0:0:0:
320,192,74740,1,0,0:0:0:0:
192,192,74971,1,0,0:0:0:0:
192,192,75086,1,0,0:0:0:0:
64,192,75202,1,0,0:0:0:0:
320,192,75202,1,0,0:0:0:0:
448,192,75279,1,0,0:0:0:0:
192,192,75433,1,0,0:0:0:0:
64,192,75548,1,0,0:0:0:0:
448,192,75548,1,0,0:0:0:0:
320,192,75663,1,0,0:0:0:0:
64,192,75779,1,0,0:0:0:0:
192,192,75779,1,0,0:0:0:0:
448,192,75894,1,0,0:0:0:0:
192,192,76009,1,0,0:0:0:0:
320,192,76009,1,0,0:0:0:0:
64,192,76125,1,0,0:0:0:0:
448,192,76125,1,0,0:0:0:0:
320,192,76240,1,0,0:0:0:0:
192,192,76356,1,0,0:0:0:0:
448,192,76433,1,0,0:0:0:0:
64,192,76509,1,0,0:0:0:0:
320,192,76586,1,0,0:0:0:0:
192,192,76586,1,0,0:0:0:0:
320,192,76702,1,0,0:0:0:0:
64,192,76817,1,0,0:0:0:0:
448,192,76910,1,0,0:0:0:0:
192,192,77048,1,0,0:0:0:0:
64,192,77048,1,0,0:0:0:0:
320,192,77163,1,0,0:0:0:0:
192,192,77279,1,0,0:0:0:0:
192,192,77394,1,0,0:0:0:0:
448,192,77394,1,0,0:0:0:0:
320,192,77509,1,0,0:0:0:0:
64,192,77625,1,0,0:0:0:0:
192,192,77625,1,0,0:0:0:0:
448,192,77740,1,0,0:0:0:0:
64,192,77856,1,0,0:0:0:0:
320,192,77856,1,0,0:0:0:0:
192,192,77971,1,0,0:0:0:0:
448,192,77971,1,0,0:0:0:0:
320,192,78048,1,0,0:0:0:0:
64,192,78125,1,0,0:0:0:0:
192,192,78202,1,0,0:0:0:0:
448,192,78295,1,0,0:0:0:0:
320,192,78433,1,0,0:0:0:0:
64,192,78433,1,0,0:0:0:0:
448,192,78548,1,0,0:0:0:0:
192,192,78663,1,0,0:0:0:0:
192,192,78779,1,0,0:0:0:0:
448,192,78894,1,0,0:0:0:0:
320,192,78894,1,0,0:0:0:0:
64,192,79009,1,0,0:0:0:0:
448,192,79125,1,0,0:0:0:0:
448,192,79240,1,0,0:0:0:0:
192,192,79240,1,0,0:0:0:0:
320,192,79356,1,0,0:0:0:0:
64,192,79471,1,0,0:0:0:0:
192,192,79471,1,0,0:0:0:0:
448,192,79509,1,0,0:0:0:0:
64,192,79702,1,0,0:0:0:0:
192,192,79702,1,0,0:0:0:0:
320,192,79817,1,0,0:0:0:0:
448,192,79817,1,0,0:0:0:0:
320,192,79933,1,0,0:0:0:0:
192,192,80048,1,0,0:0:0:0:
448,192,80163,1,0,0:0:0:0:
192,192,80279,1,0,0:0:0:0:
64,192,80279,1,0,0:0:0:0:
320,192,80394,1,0,0:0:0:0:
64,192,80509,1,0,0:0:0:0:
64,192,80625,1,0,0:0:0:0:
192,192,80740,1,0,0:0:0:0:
320,192,80833,1,0,0:0:0:0:
448,192,80926,1,0,0:0:0:0:
192,192,81018,1,0,0:0:0:0:
320,192,81086,1,0,0:0:0:0:
64,192,81202,1,0,0:0:0:0:
448,192,81317,1,0,0:0:0:0:
192,192,81317,1,0,0:0:0:0:
320,192,81433,1,0,0:0:0:0:
192,192,81548,1,0,0:0:0:0:
64,192,81548,1,0,0:0:0:0:
320,192,81663,1,0,0:0:0:0:
448,192,81663,1,0,0:0:0:0:
64,192,81740,1,0,0:0:0:0:
192,192,81894,1,0,0:0:0:0:
448,192,82009,1,0,0:0:0:0:
320,192,82125,1,0,0:0:0:0:
192,192,82125,1,0,0:0:0:0:
320,192,82240,1,0,0:0:0:0:
64,192,82356,1,0,0:0:0:0:
64,192,82471,1,0,0:0:0:0:
192,192,82586,1,0,0:0:0:0:
448,192,82586,1,0,0:0:0:0:
320,192,82702,1,0,0:0:0:0:
64,192,82796,1,0,0:0:0:0:
192,192,82933,1,0,0:0:0:0:
448,192,82933,1,0,0:0:0:0:
320,192,83048,1,0,0:0:0:0:
64,192,83163,1,0,0:0:0:0:
192,192,83163,1,0,0:0:0:0:
448,192,83240,1,0,0:0:0:0:
320,192,83394,1,0,0:0:0:0:
64,192,83394,1,0,0:0:0:0:
192,192,83509,1,0,0:0:0:0:
448,192,83509,1,0,0:0:0:0:
192,192,83625,1,0,0:0:0:0:
320,192,83740,1,0,0:0:0:0:
64,192,83817,1,0,0:0:0:0:
192,192,83894,1,0,0:0:0:0:
320,192,83971,1,0,0:0:0:0:
448,192,83971,1,0,0:0:0:0:
448,192,84086,1,0,0:0:0:0:
192,192,84202,1,0,0:0:0:0:
64,192,84317,1,0,0:0:0:0:
320,192,84433,1,0,0:0:0:0:
448,192,84433,1,0,0:0:0:0:
192,192,84526,1,0,0:0:0:0:
320,192,84663,1,0,0:0:0:0:
64,192,84779,1,0,0:0:0:0:
448,192,84779,1,0,0:0:0:0:
192,192,84894,1,0,0:0:0:0:
320,192,85009,1,0,0:0:0:0:
448,192,85009,1,0,0:0:0:0:
64,192,85125,1,0,0:0:0:0:
192,192,85240,1,0,0:0:0:0:
320,192,85240,1,0,0:0:0:0:
448,192,85356,1,0,0:0:0:0:
64,192,85356,1,0,0:0:0:0:
192,192,85586,1,0,0:0:0:0:
320,192,85679,1,0,0:0:0:0:
192,192,85817,1,0,0:0:0:0:
64,192,85817,1,0,0:0:0:0:
448,192,85910,1,0,0:0:0:0:
64,192,86048,1,0,0:0:0:0:
320,192,86125,1,0,0:0:0:0:
64,192,86279,1,0,0:0:0:0:
448,192,86279,1,0,0:0:0:0:
192,192,86394,1,0,0:0:0:0:
320,192,86509,1,0,0:0:0:0:
320,192,86625,1,0,0:0:0:0:
64,192,86625,1,0,0:0:0:0:
192,192,86740,1,0,0:0:0:0:
448,192,86856,1,0,0:0:0:0:
64,192,86856,1,0,0:0:0:0:
320,192,86894,1,0,0:0:0:0:
192,192,87086,1,0,0:0:0:0:
448,192,87086,1,0,0:0:0:0:
320,192,87202,1,0,0:0:0:0:
64,192,87202,1,0,0:0:0:0:
192,192,87433,1,0,0:0:0:0:
448,192,87548,1,0,0:0:0:0:
192,192,87663,1,0,0:0:0:0:
64,192,87663,1,0,0:0:0:0:
320,192,87779,1,0,0:0:0:0:
448,192,87894,1,0,0:0:0:0:
448,192,88009,1,0,0:0:0:0:
64,192,88125,1,0,0:0:0:0:
192,192,88125,1,0,0:0:0:0:
320,192,88240,1,0,0:0:0:0:
448,192,88240,1,0,0:0:0:0:
64,192,88356,1,0,0:0:0:0:
192,192,88356,1,0,0:0:0:0:
320,192,88471,1,0,0:0:0:0:
448,192,88586,1,0,0:0:0:0:
64,192,88586,1,0,0:0:0:0:
192,192,88702,1,0,0:0:0:0:
320,192,88702,1,0,0:0:0:0:
64,192,88817,1,0,0:0:0:0:
448,192,88817,1,0,0:0:0:0:
192,192,88933,1,0,0:0:0:0:
320,192,89048,1,0,0:0:0:0:
448,192,89048,1,0,0:0:0:0:
64,192,89048,1,0,0:0:0:0:
320,192,89163,1,0,0:0:0:0:
192,192,89279,1,0,0:0:0:0:
448,192,89394,1,0,0:0:0:0:
192,192,89509,1,0,0:0:0:0:
64,192,89509,1,0,0:0:0:0:
320,192,89625,1,0,0:0:0:0:
64,192,89740,1,0,0:0:0:0:
448,192,89856,1,0,0:0:0:0:
64,192,89971,1,0,0:0:0:0:
192,192,89971,1,0,0:0:0:0:
320,192,90086,1,0,0:0:0:0:
192,192,90202,1,0,0:0:0:0:
320,192,90317,1,0,0:0:0:0:
448,192,90317,1,0,0:0:0:0:
64,192,90433,1,0,0:0:0:0:
320,192,90548,1,0,0:0:0:0:
192,192,90548,1,0,0:0:0:0:
448,192,90663,1,0,0:0:0:0:
64,192,90779,1,0,0:0:0:0:
192,192,90779,1,0,0:0:0:0:
448,192,90894,1,0,0:0:0:0:
320,192,90894,1,0,0:0:0:0:
192,192,91125,1,0,0:0:0:0:
320,192,91240,1,0,0:0:0:0:
448,192,91356,1,0,0:0:0:0:
192,192,91356,1,0,0:0:0:0:
64,192,91471,1,0,0:0:0:0:
320,192,91586,1,0,0:0:0:0:
192,192,91702,1,0,0:0:0:0:
320,192,91817,1,0,0:0:0:0:
64,192,91817,1,0,0:0:0:0:
448,192,91933,1,0,0:0:0:0:
64,192,92048,1,0,0:0:0:0:
448,192,92163,1,0,0:0:0:0:
192,192,92163,1,0,0:0:0:0:
320,192,92279,1,0,0:0:0:0:
64,192,92394,1,0,0:0:0:0:
448,192,92394,1,0,0:0:0:0:
192,192,92509,1,0,0:0:0:0:
448,192,92625,1,0,0:0:0:0:
320,192,92625,1,0,0:0:0:0:
192,192,92740,1,0,0:0:0:0:
64,192,92740,1,0,0:0:0:0:
448,192,92971,1,0,0:0:0:0:
64,192,93086,1,0,0:0:0:0:
320,192,93202,1,0,0:0:0:0:
448,192,93202,1,0,0:0:0:0:
192,192,93317,1,0,0:0:0:0:
320,192,93433,1,0,0:0:0:0:
64,192,93548,1,0,0:0:0:0:
320,192,93663,1,0,0:0:0:0:
448,192,93663,1,0,0:0:0:0:
192,192,93779,1,0,0:0:0:0:
448,192,93894,1,0,0:0:0:0:
192,192,94009,1,0,0:0:0:0:
320,192,94009,1,0,0:0:0:0:
64,192,94125,1,0,0:0:0:0:
320,192,94240,1,0,0:0:0:0:
448,192,94240,1,0,0:0:0:0:
192,192,94356,1,0,0:0:0:0:
64,192,94471,1,0,0:0:0:0:
448,192,94471,1,0,0:0:0:0:
320,192,94586,1,0,0:0:0:0:
192,192,94586,1,0,0:0:0:0:
64,192,94817,1,0,0:0:0:0:
448,192,94933,1,0,0:0:0:0:
192,192,95048,1,0,0:0:0:0:
64,192,95048,1,0,0:0:0:0:
320,192,95163,1,0,0:0:0:0:
192,192,95279,1,0,0:0:0:0:
448,192,95394,1,0,0:0:0:0:
192,192,95509,1,0,0:0:0:0:
64,192,95509,1,0,0:0:0:0:
320,192,95625,1,0,0:0:0:0:
64,192,95740,1,0,0:0:0:0:
320,192,95856,1,0,0:0:0:0:
448,192,95856,1,0,0:0:0:0:
192,192,95971,1,0,0:0:0:0:
64,192,96086,1,0,0:0:0:0:
448,192,96086,1,0,0:0:0:0:
320,192,96202,1,0,0:0:0:0:
192,192,96317,1,0,0:0:0:0:
64,192,96317,1,0,0:0:0:0:
448,192,96433,1,0,0:0:0:0:
192,192,96433,1,0,0:0:0:0:
320,192,96663,1,0,0:0:0:0:
64,192,96779,1,0,0:0:0:0:
320,192,96894,1,0,0:0:0:0:
448,192,96894,1,0,0:0:0:0:
192,192,97009,1,0,0:0:0:0:
448,192,97125,1,0,0:0:0:0:
64,192,97240,1,0,0:0:0:0:
448,192,97356,1,0,0:0:0:0:
320,192,97356,1,0,0:0:0:0:
192,192,97471,1,0,0:0:0:0:
320,192,97586,1,0,0:0:0:0:
192,192,97702,1,0,0:0:0:0:
64,192,97702,1,0,0:0:0:0:
448,192,97817,1,0,0:0:0:0:
192,192,97933,1,0,0:0:0:0:
320,192,97933,1,0,0:0:0:0:
64,192,98048,1,0,0:0:0:0:
448,192,98163,1,0,0:0:0:0:
320,192,98163,1,0,0:0:0:0:
64,192,98279,1,0,0:0:0:0:
192,192,98279,1,0,0:0:0:0:
320,192,98509,1,0,0:0:0:0:
192,192,98625,1,0,0:0:0:0:
64,192,98740,1,0,0:0:0:0:
320,192,98740,1,0,0:0:0:0:
448,192,98856,1,0,0:0:0:0:
192,192,98971,1,0,0:0:0:0:
320,192,99086,1,0,0:0:0:0:
192,192,99202,1,0,0:0:0:0:
448,192,99202,1,0,0:0:0:0:
64,192,99317,1,0,0:0:0:0:
448,192,99433,1,0,0:0:0:0:
64,192,99548,1,0,0:0:0:0:
320,192,99548,1,0,0:0:0:0:
192,192,99663,1,0,0:0:0:0:
448,192,99779,1,0,0:0:0:0:
64,192,99779,1,0,0:0:0:0:
320,192,99894,1,0,0:0:0:0:
64,192,100009,1,0,0:0:0:0:
192,192,100009,1,0,0:0:0:0:
320,192,100125,1,0,0:0:0:0:
448,192,100125,1,0,0:0:0:0:
64,192,100356,1,0,0:0:0:0:
448,192,100471,1,0,0:0:0:0:
192,192,100586,1,0,0:0:0:0:
64,192,100586,1,0,0:0:0:0:
320,192,100702,1,0,0:0:0:0:
192,192,100817,1,0,0:0:0:0:
448,192,100933,1,0,0:0:0:0:
192,192,101048,1,0,0:0:0:0:
64,192,101048,1,0,0:0:0:0:
320,192,101163,1,0,0:0:0:0:
64,192,101279,1,0,0:0:0:0:
320,192,101394,1,0,0:0:0:0:
448,192,101394,1,0,0:0:0:0:
192,192,101509,1,0,0:0:0:0:
64,192,101625,1,0,0:0:0:0:
448,192,101625,1,0,0:0:0:0:
320,192,101740,1,0,0:0:0:0:
192,192,101856,1,0,0:0:0:0:
64,192,101856,1,0,0:0:0:0:
320,192,101971,1,0,0:0:0:0:
448,192,101971,1,0,0:0:0:0:
64,192,102202,1,0,0:0:0:0:
320,192,102317,1,0,0:0:0:0:
192,192,102433,1,0,0:0:0:0:
64,192,102433,1,0,0:0:0:0:
448,192,102548,1,0,0:0:0:0:
192,192,102663,1,0,0:0:0:0:
320,192,102779,1,0,0:0:0:0:
448,192,102894,1,0,0:0:0:0:
64,192,102894,1,0,0:0:0:0:
192,192,103009,1,0,0:0:0:0:
320,192,103009,1,0,0:0:0:0:
64,192,103125,1,0,0:0:0:0:
448,192,103240,1,0,0:0:0:0:
320,192,103240,1,0,0:0:0:0:
192,192,103356,1,0,0:0:0:0:
64,192,103356,1,0,0:0:0:0:
320,192,103471,1,0,0:0:0:0:
448,192,103471,1,0,0:0:0:0:
192,192,103586,1,0,0:0:0:0:
64,192,103586,1,0,0:0:0:0:
320,192,103702,1,0,0:0:0:0:
448,192,103702,1,0,0:0:0:0:
192,192,103817,1,0,0:0:0:0:
