osu file format v14

[General]
AudioFilename: audio.mp3
AudioLeadIn: 0
PreviewTime: 44184
Countdown: 0
SampleSet: Soft
StackLeniency: 0.4
Mode: 0
LetterboxInBreaks: 0
WidescreenStoryboard: 0

[Editor]
Bookmarks: 21026,60088,116918
DistanceSpacing: 1
BeatDivisor: 4
GridSize: 8
TimelineZoom: 1.3

[Metadata]
Title:Mou Ii kai?
TitleUnicode:もういいかい?
Artist:THE ORAL CIGARETTES
ArtistUnicode:THE ORAL CIGARETTES
Creator:Nevo
Version:Hobbes2's Expert
Source:
Tags:snownino_ yukiyo hobbes2 DivineEnigma dendyhere nikakis frontier haruto armin a_r_m_i_n collab short cut version -_Frontier_- Kisses and Kills Are You Ready? haruto_aizawa
BeatmapID:1705675
BeatmapSetID:807850

[Difficulty]
HPDrainRate:6
CircleSize:3
OverallDifficulty:9
ApproachRate:8.8
SliderMultiplier:1.6
SliderTickRate:1

[Events]
//Background and Video events
0,0,"BG.jpg",0,0
//Break Periods
//Storyboard Layer 0 (Background)
//Storyboard Layer 1 (Fail)
//Storyboard Layer 2 (Pass)
//Storyboard Layer 3 (Foreground)
//Storyboard Sound Samples

[TimingPoints]
-4599,312.5,4,2,1,80,1,0
88,-200,4,2,1,80,0,0
401,-66.6666666666667,4,2,1,80,0,0
7276,-66.6666666666667,4,2,1,80,0,0
13369,-66.6666666666667,4,2,1,100,0,0
14307,-66.6666666666667,4,2,1,80,0,0
15401,-83.3333333333333,4,2,1,60,0,0
25401,-71.4285714285714,4,2,1,60,0,0
35401,-90.9090909090909,4,2,1,80,0,0
44307,-133.333333333333,4,2,1,80,0,0
45401,-66.6666666666667,4,2,1,100,0,1
65401,-100,4,2,1,80,0,0
75401,-66.6666666666667,4,2,1,100,0,1
83994,-80,4,2,1,100,0,0

[Colours]
Combo1 : 155,155,255
Combo2 : 255,140,85
Combo3 : 130,176,255

[HitObjects]
446,179,400,5,4,3:2:0:0:
445,178,713,5,8,3:2:0:0:
419,165,791,1,8,0:2:0:0:
390,158,869,1,8,0:2:0:0:
360,159,947,1,8,0:2:0:0:
331,166,1026,5,8,3:2:0:0:
366,183,1104,1,8,0:2:0:0:
405,192,1182,1,8,0:2:0:0:
445,192,1260,1,8,0:2:0:0:
484,182,1338,5,8,3:2:0:0:
429,156,1416,1,8,0:2:0:0:
372,138,1494,1,8,0:2:0:0:
313,129,1572,1,8,0:2:0:0:
253,129,1651,1,12,3:2:0:0:
194,138,1729,1,8,0:2:0:0:
136,156,1807,1,8,0:2:0:0:
82,182,1885,1,8,0:2:0:0:
33,215,1963,5,8,3:2:0:0:
62,213,2041,1,8,0:2:0:0:
92,210,2119,1,8,0:2:0:0:
122,204,2197,1,8,0:2:0:0:
151,197,2276,1,8,3:2:0:0:
179,187,2354,1,8,0:2:0:0:
207,176,2432,1,8,0:2:0:0:
234,163,2510,1,8,0:2:0:0:
260,147,2588,1,8,3:2:0:0:
285,131,2666,1,8,0:2:0:0:
308,112,2744,1,8,0:2:0:0:
331,92,2822,1,8,0:2:0:0:
351,71,2901,6,0,P|326:7|316:-8,3,60.0000022888184,12|8|8|8,3:2|0:2|0:2|0:2,0:0:0:0:
452,68,3213,5,8,3:2:0:0:
439,94,3291,1,8,0:2:0:0:
432,123,3369,1,8,0:2:0:0:
433,153,3447,1,8,0:2:0:0:
440,182,3526,5,8,3:2:0:0:
457,147,3604,1,8,0:2:0:0:
466,108,3682,1,8,0:2:0:0:
466,68,3760,1,8,0:2:0:0:
456,29,3838,5,8,3:2:0:0:
484,81,3916,1,8,0:2:0:0:
496,140,3994,1,8,0:2:0:0:
491,199,4072,1,8,0:2:0:0:
469,255,4151,1,12,3:2:0:0:
431,301,4229,1,8,0:2:0:0:
382,335,4307,1,8,0:2:0:0:
325,353,4385,1,8,0:2:0:0:
265,354,4463,5,8,3:2:0:0:
295,348,4541,1,8,0:2:0:0:
323,338,4619,1,8,0:2:0:0:
350,325,4697,1,8,0:2:0:0:
375,308,4776,1,8,3:2:0:0:
398,289,4854,1,8,0:2:0:0:
419,267,4932,1,8,0:2:0:0:
437,243,5010,1,8,0:2:0:0:
452,217,5088,1,8,3:2:0:0:
463,190,5166,1,8,0:2:0:0:
471,161,5244,1,8,0:2:0:0:
476,131,5322,1,8,0:2:0:0:
477,101,5401,6,0,P|462:48|457:34,3,60.0000022888184,12|8|8|8,3:2|0:2|0:2|0:2,0:0:0:0:
355,20,5713,5,8,3:2:0:0:
325,18,5791,1,8,0:2:0:0:
295,16,5869,1,8,0:2:0:0:
265,14,5947,1,8,0:2:0:0:
235,13,6026,5,8,3:2:0:0:
274,34,6104,1,8,0:2:0:0:
317,47,6182,1,8,0:2:0:0:
362,53,6260,1,8,0:2:0:0:
407,51,6338,5,8,3:2:0:0:
351,29,6416,1,8,0:2:0:0:
292,20,6494,1,8,0:2:0:0:
232,22,6572,1,8,0:2:0:0:
174,36,6651,1,12,3:2:0:0:
120,62,6729,1,8,0:2:0:0:
72,98,6807,1,8,0:2:0:0:
32,144,6885,1,8,0:2:0:0:
3,196,6963,5,8,3:2:0:0:
27,178,7041,1,8,0:2:0:0:
51,161,7119,1,8,0:2:0:0:
76,143,7197,1,8,0:2:0:0:
99,125,7276,1,8,3:2:0:0:
123,106,7354,1,8,0:2:0:0:
147,88,7432,1,8,0:2:0:0:
170,69,7510,1,8,0:2:0:0:
192,52,7588,6,0,P|202:102|205:127,3,60.0000022888184,8|8|8|8,3:2|0:2|0:2|0:2,0:0:0:0:
313,151,7901,2,0,P|303:201|300:226,3,60.0000022888184,12|8|8|8,3:2|0:2|0:2|0:2,0:0:0:0:
394,295,8213,5,8,3:2:0:0:
349,299,8291,1,8,0:2:0:0:
304,305,8369,1,8,0:2:0:0:
260,311,8447,1,8,0:2:0:0:
215,319,8525,1,8,3:2:0:0:
170,327,8604,1,8,0:2:0:0:
126,333,8682,1,8,0:2:0:0:
81,339,8760,1,8,0:2:0:0:
37,344,8838,5,8,3:2:0:0:
96,340,8916,1,8,0:2:0:0:
154,325,8994,1,8,0:2:0:0:
209,300,9072,1,8,0:2:0:0:
258,265,9150,1,12,3:2:0:0:
300,222,9228,1,8,0:2:0:0:
333,173,9306,1,8,0:2:0:0:
357,118,9384,1,8,0:2:0:0:
371,59,9463,5,8,3:2:0:0:
321,102,9541,1,8,0:2:0:0:
285,158,9619,1,8,0:2:0:0:
268,221,9697,1,8,0:2:0:0:
270,287,9776,5,2,0:3:0:0:
284,242,9855,1,4,0:3:0:0:
286,196,9933,1,8,0:3:0:0:
274,152,10011,1,8,0:3:0:0:
250,112,10089,5,12,0:2:0:0:
250,112,10401,5,8,0:0:0:0:
177,351,10557,1,8,0:0:0:0:
176,351,10869,2,0,P|118:339|74:299,1,120.000004577637,8|0,0:0|0:0,0:0:0:0:
133,194,11182,2,0,P|192:205|236:245,1,120.000004577637,8|0,0:0|0:0,0:0:0:0:
365,72,11494,2,0,B|412:116|412:116|387:229,1,180.000006866455,12|0,0:0|0:0,0:0:0:0:
366,285,11807,1,8,0:0:0:0:
71,76,11963,1,8,0:0:0:0:
71,76,12276,6,0,L|138:66,1,60.0000022888184,8|0,0:0|0:0,0:0:0:0:
243,172,12432,1,8,0:3:0:0:
243,172,12510,1,8,0:3:0:0:
243,172,12588,2,0,L|183:163,1,60.0000022888184,8|8,0:0|0:0,0:0:0:0:
341,77,12744,1,8,0:3:0:0:
341,77,12822,1,8,0:3:0:0:
341,77,12901,5,8,0:0:0:0:
256,197,13057,1,8,0:0:0:0:
431,20,13213,1,8,0:0:0:0:
426,353,13369,2,0,P|367:341|323:301,1,120.000004577637,8|0,1:3|0:0,0:0:0:0:
399,165,13682,2,0,P|457:176|501:216,1,120.000004577637,8|0,1:3|0:0,0:0:0:0:
167,54,13994,6,0,B|197:104|197:104|146:230,1,180.000006866455,8|0,1:3|0:0,0:0:0:0:
116,266,14307,1,8,0:0:0:0:
53,35,14463,1,8,0:0:0:0:
313,111,14619,1,8,0:0:0:0:
155,363,14776,5,2,0:3:0:0:
150,333,14854,1,2,0:3:0:0:
148,303,14932,1,4,0:3:0:0:
147,273,15010,1,4,0:3:0:0:
149,243,15088,1,8,0:3:0:0:
152,213,15166,1,8,0:3:0:0:
157,183,15244,2,0,L|239:194,1,60.0000022888184,4|4,0:3|0:3,0:0:0:0:
386,352,15401,6,0,L|290:342,1,95.9999970703126,0|0,3:3|3:0,0:0:0:0:
418,176,15713,1,8,0:0:0:0:
433,200,15947,1,8,0:0:0:0:
433,200,16026,1,0,3:0:0:0:
387,94,16182,1,0,3:0:0:0:
321,281,16338,2,0,P|315:233|300:187,1,95.9999970703126,8|0,0:0|0:0,0:0:0:0:
353,105,16572,1,8,0:0:0:0:
353,105,16651,2,0,P|358:57|373:11,1,95.9999970703126,0|0,3:0|3:0,0:0:0:0:
430,249,16963,5,8,0:0:0:0:
437,276,17197,1,8,0:0:0:0:
437,276,17276,1,0,3:0:0:0:
232,304,17432,1,0,3:0:0:0:
338,140,17588,2,0,P|323:186|318:234,1,95.9999970703126,8|0,0:0|0:0,0:0:0:0:
123,371,17901,6,0,P|123:276|100:183,1,191.999994140625,0|8,3:0|0:0,0:0:0:0:
75,198,18447,1,8,0:0:0:0:
75,198,18526,1,0,3:0:0:0:
143,105,18682,1,0,3:0:0:0:
41,207,18838,1,8,0:0:0:0:
214,193,18994,1,0,0:0:0:0:
214,193,19072,1,8,0:0:0:0:
214,193,19151,5,0,3:0:0:0:
33,105,19307,1,0,3:0:0:0:
252,71,19463,1,8,0:0:0:0:
264,96,19697,1,8,0:0:0:0:
264,96,19776,1,0,3:0:0:0:
371,56,19932,1,0,3:0:0:0:
163,29,20088,1,8,0:0:0:0:
367,161,20244,1,0,0:0:0:0:
105,204,20401,6,0,P|150:218|193:240,1,95.9999970703126,0|0,3:0|3:0,0:0:0:0:
261,332,20713,1,8,0:0:0:0:
146,344,20869,1,0,0:0:0:0:
301,189,21026,2,0,P|346:174|389:152,1,95.9999970703126,0|0,3:0|3:0,0:0:0:0:
457,61,21338,1,8,0:0:0:0:
342,49,21494,1,0,0:0:0:0:
470,232,21651,6,0,L|460:327,1,95.9999970703126,0|0,3:0|3:0,0:0:0:0:
301,189,21963,1,8,0:0:0:0:
278,206,22197,1,8,0:0:0:0:
278,206,22276,1,0,3:0:0:0:
389,152,22432,1,0,3:0:0:0:
274,311,22588,2,0,L|178:301,1,95.9999970703126,8|0,0:0|0:0,0:0:0:0:
114,230,22822,1,0,0:0:0:0:
114,230,22901,6,0,P|99:184|77:141,2,95.9999970703126,0|0|8,3:0|3:0|0:0,0:0:0:0:
36,322,23369,1,0,0:0:0:0:
196,114,23526,2,0,P|241:128|284:150,1,95.9999970703126,0|0,3:0|3:0,0:0:0:0:
510,135,23838,2,0,P|464:149|422:172,1,95.9999970703126,8|0,0:0|0:0,0:0:0:0:
364,248,24072,1,0,0:0:0:0:
364,248,24151,1,0,3:0:0:0:
403,356,24307,1,0,3:0:0:0:
356,59,24463,1,12,0:0:0:0:
356,59,24776,5,8,3:2:0:0:
308,50,24854,1,8,0:0:0:0:
260,47,24932,1,8,0:0:0:0:
212,48,25010,1,8,0:0:0:0:
165,54,25088,1,8,3:2:0:0:
118,64,25166,1,8,0:2:0:0:
72,78,25244,2,0,L|57:152,1,47.9999985351563,8|8,0:2|0:2,0:0:0:0:
228,342,25401,6,0,L|216:230,1,111.999996582031,4|0,3:2|3:0,0:0:0:0:
72,78,25713,1,8,0:0:0:0:
43,209,25869,1,0,0:0:0:0:
296,47,26026,6,0,L|184:59,1,111.999996582031,0|0,3:0|3:0,0:0:0:0:
208,250,26338,1,8,0:0:0:0:
431,133,26494,1,0,0:0:0:0:
431,133,26572,1,8,0:0:0:0:
431,133,26651,6,0,B|356:155|356:155|319:300,1,223.999993164063,0|8,3:0|0:0,0:0:0:0:
437,360,27119,1,0,0:0:0:0:
208,250,27276,2,0,L|96:264,1,111.999996582031,0|0,3:0|3:0,0:0:0:0:
16,372,27588,1,8,0:0:0:0:
60,109,27744,2,0,P|64:137|65:165,1,55.9999982910157,0|0,0:0|0:0,0:0:0:0:
176,45,27901,6,0,L|160:155,1,111.999996582031,0|0,3:0|3:0,0:0:0:0:
244,349,28213,1,8,0:0:0:0:
269,327,28447,1,0,0:0:0:0:
269,327,28526,1,0,3:0:0:0:
398,360,28682,1,0,3:0:0:0:
244,349,28838,1,8,0:0:0:0:
425,239,28994,1,0,0:0:0:0:
425,239,29072,1,8,0:0:0:0:
425,239,29151,6,0,L|448:88,2,111.999996582031,0|0|8,3:0|3:0|0:0,0:0:0:0:
309,308,29619,1,0,0:0:0:0:
265,146,29776,1,0,3:0:0:0:
135,247,29932,1,0,3:0:0:0:
432,108,30088,2,0,P|394:149|375:201,1,111.999996582031,8|0,0:0|0:0,0:0:0:0:
449,285,30322,1,0,0:0:0:0:
449,285,30401,5,4,3:2:0:0:
325,338,30557,1,0,3:0:0:0:
432,108,30713,1,8,0:0:0:0:
450,136,30947,1,0,0:0:0:0:
450,136,31026,1,0,3:0:0:0:
320,172,31182,1,0,3:0:0:0:
120,93,31338,1,8,0:0:0:0:
250,57,31494,1,0,0:0:0:0:
250,57,31573,1,8,0:0:0:0:
250,57,31651,5,0,3:0:0:0:
320,172,31807,1,0,3:0:0:0:
97,70,31963,1,8,0:0:0:0:
120,93,32197,1,0,0:0:0:0:
120,93,32276,1,0,3:0:0:0:
81,222,32432,1,0,3:0:0:0:
320,172,32588,1,8,0:0:0:0:
218,29,32744,1,0,0:0:0:0:
218,29,32822,1,0,0:0:0:0:
218,29,32901,5,4,3:2:0:0:
192,239,33057,1,0,3:0:0:0:
346,41,33213,1,8,0:0:0:0:
85,112,33369,2,0,P|111:103|139:100,1,55.9999982910157,0|8,0:0|0:0,0:0:0:0:
30,198,33526,1,0,3:0:0:0:
218,29,33682,1,0,3:0:0:0:
77,299,33838,1,8,0:0:0:0:
69,331,34072,1,0,0:0:0:0:
69,331,34151,5,0,3:0:0:0:
132,124,34307,1,0,3:0:0:0:
391,345,34463,1,12,0:0:0:0:
390,344,34776,5,8,3:2:0:0:
403,290,34854,1,8,0:0:0:0:
402,234,34932,1,8,0:0:0:0:
386,181,35010,1,8,0:0:0:0:
358,133,35088,1,8,3:2:0:0:
318,94,35166,1,8,0:0:0:0:
269,66,35244,1,8,0:0:0:0:
215,52,35322,1,8,0:0:0:0:
161,56,35401,5,12,3:2:0:0:
161,56,35557,1,0,3:0:0:0:
85,141,35713,1,8,0:0:0:0:
191,224,35869,1,4,0:3:0:0:
191,224,35947,1,2,0:3:0:0:
191,224,36026,2,0,P|190:245|188:267,2,44.0000013427735,0|2|0,3:0|0:3|3:0,0:0:0:0:
291,170,36338,1,8,0:0:0:0:
373,294,36494,2,0,P|372:272|371:251,1,44.0000013427735,0|0,0:0|0:0,0:0:0:0:
448,359,36651,5,0,3:0:0:0:
448,359,36807,1,0,3:0:0:0:
477,248,36963,1,8,0:0:0:0:
416,151,37119,1,2,0:3:0:0:
416,151,37197,1,2,0:3:0:0:
416,151,37276,2,0,P|473:155|477:156,2,44.0000013427735,0|4|0,3:0|0:3|3:0,0:0:0:0:
342,63,37588,1,8,0:0:0:0:
187,36,37744,2,0,P|209:34|231:34,1,44.0000013427735,0|0,0:0|0:0,0:0:0:0:
107,110,37901,5,0,3:0:0:0:
107,110,38057,1,0,3:0:0:0:
53,210,38213,1,8,0:0:0:0:
76,98,38369,1,4,0:3:0:0:
76,98,38447,1,2,0:3:0:0:
76,98,38526,2,0,P|71:41|68:28,2,44.0000013427735,0|2|0,3:0|0:3|3:0,0:0:0:0:
151,266,38838,6,0,P|154:309|159:353,1,88.000002685547,12|0,0:0|0:0,0:0:0:0:
446,265,39151,5,8,0:0:0:0:
261,235,39307,1,0,3:0:0:0:
333,351,39463,1,0,3:0:0:0:
432,145,39619,5,12,0:2:0:0:
240,244,39776,1,0,3:0:0:0:
424,375,39932,1,0,3:0:0:0:
292,131,40088,5,8,0:0:0:0:
130,340,40244,2,0,L|173:334,1,44.0000013427735,8|8,0:0|0:0,0:0:0:0:
48,272,40401,5,4,3:2:0:0:
47,271,40713,5,8,3:2:0:0:
43,228,40791,1,8,0:2:0:0:
48,184,40869,1,8,0:2:0:0:
62,142,40947,1,8,0:2:0:0:
85,105,41025,1,8,3:2:0:0:
114,72,41103,1,8,0:2:0:0:
150,46,41181,1,8,0:2:0:0:
190,28,41259,1,8,0:2:0:0:
233,19,41338,1,8,3:2:0:0:
277,19,41416,1,8,0:2:0:0:
320,27,41494,1,8,0:2:0:0:
360,45,41572,1,8,0:2:0:0:
396,70,41650,1,8,3:2:0:0:
426,102,41728,1,8,0:2:0:0:
448,140,41806,1,8,0:2:0:0:
463,181,41884,1,8,0:2:0:0:
468,225,41963,5,8,3:2:0:0:
450,185,42041,1,8,0:2:0:0:
424,150,42119,1,8,0:2:0:0:
391,120,42197,1,8,0:2:0:0:
354,97,42275,1,8,3:2:0:0:
313,81,42353,1,8,0:2:0:0:
270,74,42432,5,8,0:2:0:0:
303,102,42510,1,8,0:2:0:0:
333,135,42588,1,8,3:2:0:0:
357,171,42666,1,8,0:2:0:0:
375,211,42744,2,0,L|366:268,1,44.0000013427735,8|8,0:2|0:2,0:0:0:0:
436,129,42901,5,4,3:2:0:0:
436,129,43213,6,0,L|439:72,1,44.0000013427735,2|2,0:3|0:3,0:0:0:0:
237,201,43369,1,4,0:3:0:0:
237,201,43447,1,4,0:3:0:0:
237,201,43526,6,0,L|234:144,1,44.0000013427735,8|0,0:3|0:0,0:0:0:0:
383,335,43681,1,4,0:3:0:0:
383,335,43759,1,8,0:3:0:0:
383,335,43838,6,0,B|402:284|402:284|364:179,1,132.00000402832,4|0,3:2|0:0,0:0:0:0:
355,171,44151,1,8,0:0:0:0:
84,330,44307,6,0,L|75:203,2,120.000004577637,0|0|0,3:0|3:0|3:0,0:0:0:0:
84,330,45401,5,4,3:2:0:0:
207,370,45557,1,0,3:0:0:0:
91,102,45713,1,8,0:0:0:0:
77,128,45947,1,8,0:0:0:0:
77,128,46026,1,0,3:0:0:0:
346,347,46182,1,0,3:0:0:0:
414,136,46338,2,0,L|426:256,1,120.000004577637,8|0,0:0|0:0,0:0:0:0:
346,347,46572,1,8,0:0:0:0:
346,347,46651,5,0,3:0:0:0:
201,132,46807,1,0,3:0:0:0:
415,137,46963,1,8,0:0:0:0:
430,169,47197,1,8,0:0:0:0:
430,169,47276,2,0,P|440:227|422:283,1,120.000004577637,0|0,3:0|3:0,0:0:0:0:
300,275,47588,2,0,P|289:216|307:160,1,120.000004577637,8|0,0:0|0:0,0:0:0:0:
422,283,47901,5,0,3:0:0:0:
492,28,48057,1,0,3:0:0:0:
308,161,48213,1,8,0:0:0:0:
291,146,48447,1,8,0:0:0:0:
291,146,48526,1,0,3:0:0:0:
48,320,48682,1,0,3:0:0:0:
19,17,48838,2,0,L|138:28,1,120.000004577637,8|0,0:0|0:0,0:0:0:0:
133,148,49072,1,0,0:0:0:0:
133,148,49151,5,0,3:0:0:0:
185,255,49307,1,0,3:0:0:0:
276,55,49463,2,0,P|258:111|269:170,1,120.000004577637,8|0,0:0|0:0,0:0:0:0:
347,260,49697,1,8,0:0:0:0:
347,260,49776,1,0,3:0:0:0:
418,163,49932,1,0,3:0:0:0:
185,255,50088,1,8,0:0:0:0:
412,372,50244,2,0,L|353:374,1,60.0000022888184,0|8,0:0|0:0,0:0:0:0:
474,285,50401,6,0,L|462:165,1,120.000004577637,4|0,3:2|3:0,0:0:0:0:
402,61,50713,1,8,0:0:0:0:
124,257,50869,2,0,B|178:219|178:219|305:245,1,180.000006866455
347,260,51182,1,0,3:0:0:0:
272,353,51338,1,8,0:0:0:0:
191,114,51494,1,0,0:0:0:0:
139,359,51651,5,0,3:0:0:0:
49,279,51807,1,0,3:0:0:0:
305,145,51963,1,8,0:0:0:0:
183,244,52119,1,0,0:0:0:0:
183,244,52197,1,8,0:0:0:0:
183,244,52276,1,0,3:0:0:0:
120,18,52432,2,0,P|176:0|235:11,1,120.000004577637,0|8,3:0|0:0,0:0:0:0:
304,108,52744,1,0,0:0:0:0:
189,145,52901,5,4,3:2:0:0:
412,56,53057,1,0,3:0:0:0:
163,242,53213,1,8,0:0:0:0:
460,185,53369,1,0,0:0:0:0:
180,47,53526,1,0,3:0:0:0:
234,153,53682,1,0,3:0:0:0:
431,34,53838,1,8,0:0:0:0:
330,300,53994,1,0,0:0:0:0:
57,178,54151,5,2,3:3:0:0:
83,163,54229,1,2,0:3:0:0:
110,152,54307,1,2,0:3:0:0:
139,143,54385,1,2,0:3:0:0:
168,137,54463,1,4,3:3:0:0:
198,133,54541,1,4,0:3:0:0:
228,133,54619,1,4,0:3:0:0:
258,136,54697,1,4,0:3:0:0:
289,143,54776,5,8,3:2:0:0:
230,136,54854,1,8,0:2:0:0:
175,161,54932,1,8,0:2:0:0:
140,209,55010,1,8,0:2:0:0:
134,268,55088,1,8,3:2:0:0:
158,322,55166,1,8,0:2:0:0:
206,357,55244,1,8,0:2:0:0:
265,363,55322,1,8,0:2:0:0:
318,334,55401,5,4,3:2:0:0:
357,220,55557,1,0,3:0:0:0:
53,349,55713,1,8,0:0:0:0:
31,364,55947,1,8,0:0:0:0:
31,364,56026,1,0,3:0:0:0:
64,175,56182,1,0,3:0:0:0:
229,351,56338,1,8,0:0:0:0:
181,128,56494,2,0,L|186:187,1,60.0000022888184,0|8,0:0|0:0,0:0:0:0:
259,58,56651,5,0,3:0:0:0:
374,27,56807,1,0,3:0:0:0:
73,62,56963,1,8,0:0:0:0:
86,93,57197,1,8,0:0:0:0:
86,93,57276,1,0,3:0:0:0:
426,125,57432,1,0,3:0:0:0:
229,351,57588,2,0,L|217:231,1,120.000004577637,8|0,0:0|0:0,0:0:0:0:
259,119,57822,1,8,0:0:0:0:
259,119,57901,5,0,3:0:0:0:
339,30,58057,1,0,3:0:0:0:
96,223,58213,1,8,0:0:0:0:
110,254,58447,1,8,0:0:0:0:
110,254,58526,2,0,P|168:264|224:246,1,120.000004577637,0|0,3:0|3:0,0:0:0:0:
216,124,58838,2,0,P|157:113|101:131,1,120.000004577637,8|0,0:0|0:0,0:0:0:0:
225,245,59151,5,0,3:0:0:0:
101,130,59307,1,0,3:0:0:0:
377,182,59463,1,8,0:0:0:0:
396,211,59697,1,8,0:0:0:0:
396,211,59776,1,0,3:0:0:0:
85,337,59932,1,0,3:0:0:0:
186,6,60088,1,2,3:3:0:0:
201,32,60166,1,2,0:3:0:0:
212,59,60244,1,4,0:3:0:0:
221,88,60322,1,4,0:3:0:0:
227,117,60400,5,12,0:2:0:0:
198,384,60557,1,0,3:0:0:0:
383,116,60713,1,8,0:0:0:0:
35,243,60869,1,0,3:0:0:0:
347,317,61026,1,8,0:0:0:0:
265,229,61182,1,0,3:0:0:0:
77,360,61338,1,8,0:0:0:0:
111,50,61494,1,0,3:0:0:0:
254,319,61651,5,8,0:0:0:0:
357,225,61807,1,0,3:0:0:0:
91,250,61963,1,8,0:0:0:0:
396,344,62119,1,0,3:0:0:0:
228,73,62276,1,8,0:0:0:0:
25,348,62432,2,0,P|83:363|142:355,1,120.000004577637,0|8,3:0|0:0,0:0:0:0:
246,297,62744,1,0,3:0:0:0:
89,58,62901,5,8,0:0:0:0:
428,160,63057,1,0,3:0:0:0:
41,188,63213,1,8,0:0:0:0:
336,27,63369,1,0,3:0:0:0:
179,281,63526,1,8,0:0:0:0:
220,168,63682,1,0,3:0:0:0:
290,264,63838,1,8,0:0:0:0:
89,58,63994,1,0,3:0:0:0:
400,108,64151,5,8,3:2:0:0:
428,160,64229,1,8,0:2:0:0:
430,220,64307,1,8,0:2:0:0:
406,274,64385,1,8,0:2:0:0:
360,312,64463,1,8,3:2:0:0:
302,326,64541,1,8,0:2:0:0:
244,313,64619,1,8,0:2:0:0:
198,277,64697,1,8,0:2:0:0:
172,223,64776,5,2,0:3:0:0:
186,249,64854,1,2,0:3:0:0:
206,271,64932,1,2,0:3:0:0:
230,288,65010,1,2,0:3:0:0:
258,299,65088,1,4,0:3:0:0:
288,303,65166,1,4,0:3:0:0:
318,300,65244,1,4,0:3:0:0:
346,290,65322,1,4,0:3:0:0:
371,273,65401,5,4,3:2:0:0:
378,195,65635,1,0,3:0:0:0:
384,116,65869,1,0,3:0:0:0:
271,35,66026,2,0,P|233:20|194:24,1,80,8|0,0:0|0:0,0:0:0:0:
184,111,66338,2,0,P|221:125|260:121,1,80,8|0,0:1|0:0,0:0:0:0:
63,78,66651,5,0,3:0:0:0:
56,156,66885,1,0,3:0:0:0:
50,235,67119,1,0,3:0:0:0:
163,316,67276,2,0,P|200:330|239:326,1,80,8|0,0:0|0:0,0:0:0:0:
250,240,67588,2,0,P|212:225|173:229,1,80,8|0,0:1|0:0,0:0:0:0:
264,90,67901,5,0,3:0:0:0:
342,83,68135,1,0,3:0:0:0:
421,77,68369,1,0,3:0:0:0:
502,191,68526,2,0,P|516:228|511:267,1,80,8|0,0:0|0:0,0:0:0:0:
425,277,68838,2,0,P|410:240|413:200,1,80,8|0,0:1|0:0,0:0:0:0:
161,301,69151,5,0,3:0:0:0:
154,223,69385,1,0,3:0:0:0:
148,144,69619,1,0,3:0:0:0:
207,57,69776,5,2,0:3:0:0:
246,53,69880,1,2,0:3:0:0:
285,50,69984,1,4,0:3:0:0:
307,72,70088,5,4,0:3:0:0:
346,76,70192,1,8,0:3:0:0:
385,79,70296,1,8,0:3:0:0:
401,106,70401,5,4,3:2:0:0:
380,223,70635,1,0,3:0:0:0:
359,341,70869,1,0,3:0:0:0:
417,129,71026,1,8,0:0:0:0:
423,208,71260,1,0,0:0:0:0:
430,286,71494,1,0,0:0:0:0:
111,106,71651,5,0,3:0:0:0:
132,223,71885,1,0,3:0:0:0:
153,341,72119,1,0,3:0:0:0:
95,129,72276,1,8,0:0:0:0:
89,208,72510,1,0,0:0:0:0:
82,286,72744,1,0,0:0:0:0:
256,40,72901,5,0,3:0:0:0:
256,160,73135,1,0,3:0:0:0:
256,279,73369,1,0,3:0:0:0:
379,360,73526,2,0,P|416:374|455:370,1,80,8|0,0:0|0:0,0:0:0:0:
466,284,73838,2,0,P|428:269|389:273,1,80,12|0,0:2|0:0,0:0:0:0:
309,306,74151,5,8,3:2:0:0:
159,116,74307,1,8,0:0:0:0:
141,302,74463,1,8,3:2:0:0:
263,85,74619,1,8,0:0:0:0:
293,339,74776,1,8,0:0:0:0:
293,339,74854,1,8,0:0:0:0:
293,339,74932,2,0,L|285:288,1,40,0|0,3:0|0:0,0:0:0:0:
54,80,75088,1,4,0:0:0:0:
54,80,75401,5,4,3:2:0:0:
163,50,75557,1,0,3:0:0:0:
360,149,75713,1,8,0:0:0:0:
152,357,75869,2,0,P|182:356|212:360,1,60.0000022888184,0|8,0:0|0:0,0:0:0:0:
53,331,76026,2,0,P|43:273|61:217,1,120.000004577637,0|0,3:0|3:0,0:0:0:0:
183,225,76338,2,0,P|194:284|176:340,1,120.000004577637,8|0,0:0|0:0,0:0:0:0:
65,219,76572,1,8,0:0:0:0:
65,219,76651,5,0,3:0:0:0:
130,118,76807,1,0,3:0:0:0:
305,298,76963,1,8,0:0:0:0:
322,326,77197,1,8,0:0:0:0:
322,326,77276,1,0,3:0:0:0:
365,214,77432,1,0,3:0:0:0:
118,354,77588,1,8,0:0:0:0:
138,162,77744,1,0,0:0:0:0:
138,162,77822,1,8,0:0:0:0:
138,162,77901,5,0,3:0:0:0:
18,169,78057,1,0,3:0:0:0:
257,102,78213,1,8,0:0:0:0:
258,355,78369,2,0,P|288:362|318:363,1,60.0000022888184,0|8,0:0|0:0,0:0:0:0:
152,375,78526,2,0,P|162:317|144:261,1,120.000004577637,0|0,3:0|3:0,0:0:0:0:
22,269,78838,2,0,P|11:328|29:384,1,120.000004577637,8|0,0:0|0:0,0:0:0:0:
147,263,79072,1,8,0:0:0:0:
147,263,79151,5,0,3:0:0:0:
257,215,79307,1,0,3:0:0:0:
28,383,79463,1,8,0:0:0:0:
21,363,79697,1,8,0:0:0:0:
21,363,79776,1,0,3:0:0:0:
111,284,79932,1,0,3:0:0:0:
46,183,80088,1,2,0:3:0:0:
43,141,80166,1,2,0:3:0:0:
41,99,80244,1,4,0:3:0:0:
39,57,80322,1,4,0:3:0:0:
37,14,80401,5,12,0:0:0:0:
254,60,80557,1,0,3:0:0:0:
168,143,80713,1,0,3:0:0:0:
442,21,80869,1,8,0:0:0:0:
391,229,81026,1,0,3:0:0:0:
363,112,81182,1,0,3:0:0:0:
477,148,81338,1,8,0:0:0:0:
168,143,81494,1,0,3:0:0:0:
243,49,81651,5,8,0:0:0:0:
213,254,81807,1,0,3:0:0:0:
48,119,81963,1,0,3:0:0:0:
450,233,82119,2,0,P|456:174|429:121,1,120.000004577637,8|0,0:0|3:0,0:0:0:0:
310,143,82432,2,0,P|303:201|330:254,1,120.000004577637,0|8,3:0|0:0,0:0:0:0:
417,336,82744,1,0,3:0:0:0:
116,301,82901,5,12,0:2:0:0:
228,342,83057,1,0,3:0:0:0:
87,39,83213,1,8,3:2:0:0:
16,354,83369,1,8,0:2:0:0:
358,118,83526,1,8,3:2:0:0:
84,179,83682,1,8,0:2:0:0:
356,288,83838,1,8,3:2:0:0:
0,0,83994,5,12,3:2:0:0:
