osu file format v14

[General]
AudioFilename: audio.mp3
AudioLeadIn: 0
PreviewTime: 44184
Countdown: 0
SampleSet: Soft
StackLeniency: 0.4
Mode: 0
LetterboxInBreaks: 0
WidescreenStoryboard: 0

[Editor]
Bookmarks: 15401
DistanceSpacing: 1.2
BeatDivisor: 4
GridSize: 4
TimelineZoom: 1.9

[Metadata]
Title:Mou Ii kai?
TitleUnicode:もういいかい?
Artist:THE ORAL CIGARETTES
ArtistUnicode:THE ORAL CIGARETTES
Creator:Nevo
Version:Divine's Insane
Source:
Tags:snownino_ yukiyo hobbes2 DivineEnigma dendyhere nikakis frontier haruto armin a_r_m_i_n collab short cut version -_Frontier_- Kisses and Kills Are You Ready? haruto_aizawa
BeatmapID:1697722
BeatmapSetID:807850

[Difficulty]
HPDrainRate:6
CircleSize:4
OverallDifficulty:8.5
ApproachRate:9.2
SliderMultiplier:1.78
SliderTickRate:1

[Events]
//Background and Video events
0,0,"BG.jpg",0,0
//Break Periods
//Storyboard Layer 0 (Background)
//Storyboard Layer 1 (Fail)
//Storyboard Layer 2 (Pass)
//Storyboard Layer 3 (Foreground)
//Storyboard Sound Samples

[TimingPoints]
-4599,312.5,4,2,1,80,1,0
88,-133.333333333333,4,2,1,80,0,0
322,-133.333333333333,4,2,1,5,0,0
401,-100,4,2,1,80,0,0
13369,-100,4,2,1,100,0,0
14307,-100,4,2,1,80,0,0
15401,-100,4,2,1,60,0,0
35401,-117.647058823529,4,2,1,80,0,0
39151,-100,4,2,1,80,0,0
45401,-100,4,2,1,100,0,1
65401,-117.647058823529,4,2,1,80,0,0
75401,-100,4,2,1,100,0,0
80401,-100,4,2,1,100,0,1
83994,-100,4,2,1,100,0,0

[Colours]
Combo1 : 155,155,255
Combo2 : 255,140,85
Combo3 : 130,176,255
SliderTrackOverride : 25,25,25

[HitObjects]
64,248,88,6,0,L|48:148,1,100.125003819466
0,96,401,6,0,B|40:120|40:120|120:88,1,133.5,4|0,3:2|0:0,0:0:0:0:
208,44,713,2,0,L|252:32,3,44.5,8|8|8|8,3:2|0:2|0:2|0:2,0:0:0:0:
292,132,1026,2,0,L|248:120,3,44.5,8|8|8|8,3:2|0:2|0:2|0:2,0:0:0:0:
340,48,1338,1,8,3:2:0:0:
380,39,1416,1,8,0:2:0:0:
417,55,1494,1,8,0:2:0:0:
439,91,1572,1,8,0:2:0:0:
435,132,1651,5,12,3:2:0:0:
403,159,1729,1,8,0:2:0:0:
392,198,1807,1,8,0:2:0:0:
405,237,1885,1,8,0:2:0:0:
432,268,1963,2,0,L|476:256,3,44.5,8|8|8|8,3:2|0:2|0:2|0:2,0:0:0:0:
436,352,2276,2,0,L|393:340,3,44.5,8|8|8|8,3:2|0:2|0:2|0:2,0:0:0:0:
328,272,2588,1,8,3:2:0:0:
287,281,2666,1,8,0:2:0:0:
246,291,2744,1,8,0:2:0:0:
206,301,2822,1,8,0:2:0:0:
165,311,2901,5,12,3:2:0:0:
132,287,2979,1,8,0:2:0:0:
114,250,3057,1,8,0:2:0:0:
117,209,3135,1,8,0:2:0:0:
132,172,3213,2,0,L|128:128,3,44.5,8|8|8|8,3:2|0:2|0:2|0:2,0:0:0:0:
216,168,3526,2,0,L|212:212,3,44.5,8|8|8|8,3:2|0:2|0:2|0:2,0:0:0:0:
284,244,3838,1,8,3:2:0:0:
324,251,3916,1,8,0:2:0:0:
362,237,3994,1,8,0:2:0:0:
387,204,4072,1,8,0:2:0:0:
391,163,4151,5,12,3:2:0:0:
350,165,4229,1,8,0:2:0:0:
318,139,4307,1,8,0:2:0:0:
312,99,4385,1,8,0:2:0:0:
334,65,4463,2,0,L|379:55,3,44.5,8|8|8|8,3:2|0:2|0:2|0:2,0:0:0:0:
268,20,4776,2,0,L|222:10,3,44.5,8|8|8|8,3:2|0:2|0:2|0:2,0:0:0:0:
140,8,5088,1,8,3:2:0:0:
108,35,5166,1,8,0:2:0:0:
95,74,5244,1,8,0:2:0:0:
102,114,5322,1,8,0:2:0:0:
129,146,5401,5,12,3:2:0:0:
148,182,5479,1,8,0:2:0:0:
150,223,5557,1,8,0:2:0:0:
134,261,5635,1,8,0:2:0:0:
102,288,5713,2,0,L|59:275,3,44.5,8|8|8|8,3:2|0:2|0:2|0:2,0:0:0:0:
72,368,6026,2,0,L|115:381,3,44.5,8|8|8|8,3:2|0:2|0:2|0:2,0:0:0:0:
208,344,6338,1,8,3:2:0:0:
242,320,6416,1,8,0:2:0:0:
282,312,6494,1,8,0:2:0:0:
323,322,6572,1,8,0:2:0:0:
356,346,6651,5,12,3:2:0:0:
395,331,6729,1,8,0:2:0:0:
420,299,6807,1,8,0:2:0:0:
427,258,6885,1,8,0:2:0:0:
412,220,6963,2,0,L|456:212,3,44.5,8|8|8|8,3:2|0:2|0:2|0:2,0:0:0:0:
372,148,7276,2,0,L|328:139,3,44.5,8|8|8|8,3:2|0:2|0:2|0:2,0:0:0:0:
280,60,7588,1,8,3:2:0:0:
246,88,7666,1,8,0:2:0:0:
230,129,7744,1,8,0:2:0:0:
236,172,7822,1,8,0:2:0:0:
263,207,7901,5,12,3:2:0:0:
242,246,7979,1,8,0:2:0:0:
204,267,8057,1,8,0:2:0:0:
160,263,8135,1,8,0:2:0:0:
126,235,8213,2,0,L|128:192,3,44.5,8|8|8|8,3:2|0:2|0:2|0:2,0:0:0:0:
40,224,8526,2,0,L|41:267,3,44.5,8|8|8|8,3:2|0:2|0:2|0:2,0:0:0:0:
88,348,8838,1,8,3:2:0:0:
132,354,8916,1,8,0:2:0:0:
176,360,8994,1,8,0:2:0:0:
220,366,9072,1,8,0:2:0:0:
264,372,9151,5,12,3:2:0:0:
308,375,9229,1,8,0:2:0:0:
344,356,9307,1,8,0:2:0:0:
368,315,9385,1,8,0:2:0:0:
365,272,9463,2,0,L|412:264,3,44.5,8|8|8|8,3:2|0:2|0:2|0:2,0:0:0:0:
348,192,9776,2,0,L|304:184,3,44.5,2|4|8|8,0:3|0:3|0:3|0:3,0:0:0:0:
224,112,10088,6,0,P|192:164|204:232,1,133.5,12|0,0:2|0:0,0:0:0:0:
224,264,10401,1,8,0:0:0:0:
92,160,10557,5,8,0:0:0:0:
80,171,10869,1,8,0:0:0:0:
69,182,11182,1,8,0:0:0:0:
60,200,11494,6,0,P|30:243|26:323,1,133.5,12|0,0:0|0:0,0:0:0:0:
40,348,11807,1,8,0:0:0:0:
208,352,11963,5,8,0:0:0:0:
219,340,12276,1,8,0:0:0:0:
144,236,12432,5,8,0:3:0:0:
144,236,12510,1,8,0:3:0:0:
144,236,12588,2,0,L|140:284,1,44.5,8|8,0:0|0:0,0:0:0:0:
272,252,12744,2,0,L|224:248,1,44.5,8|8,0:3|0:3,0:0:0:0:
324,332,12901,5,8,0:0:0:0:
348,168,13057,1,8,0:0:0:0:
227,248,13213,1,8,0:0:0:0:
408,260,13369,5,8,1:3:0:0:
424,260,13682,1,8,1:3:0:0:
440,260,13994,1,8,1:3:0:0:
456,260,14307,5,8,0:0:0:0:
324,332,14463,1,8,0:0:0:0:
348,168,14619,1,8,0:0:0:0:
227,248,14776,1,2,0:3:0:0:
196,241,14854,1,2,0:3:0:0:
171,224,14932,1,4,0:3:0:0:
154,198,15010,1,4,0:3:0:0:
148,167,15088,2,0,L|156:120,3,44.5,8|8|4|4,0:3|0:3|0:3|0:3,0:0:0:0:
124,48,15401,6,0,B|76:84|76:84|56:200,1,178,0|8,3:3|0:0,0:0:0:0:
144,348,15869,1,0,0:0:0:0:
168,260,16026,2,0,P|116:264|80:276,1,89,0|0,3:0|3:0,0:0:0:0:
237,316,16338,2,0,P|289:320|325:332,1,89,8|0,0:0|0:0,0:0:0:0:
456,216,16651,6,0,P|408:240|388:272,1,89,0|0,3:0|3:0,0:0:0:0:
281,115,16963,2,0,P|329:139|349:171,1,89,8|0,0:0|0:0,0:0:0:0:
168,244,17276,1,0,3:0:0:0:
272,196,17432,1,0,3:0:0:0:
280,364,17588,2,0,L|248:280,1,89,8|0,0:0|0:0,0:0:0:0:
152,52,17901,5,0,3:0:0:0:
196,160,18057,1,0,3:0:0:0:
32,180,18213,2,0,P|64:148|108:136,1,89,8|0,0:0|0:0,0:0:0:0:
155,301,18526,2,0,P|124:270|112:228,1,89,0|0,3:0|3:0,0:0:0:0:
248,280,18838,1,8,0:0:0:0:
188,380,18994,1,0,0:0:0:0:
336,328,19151,6,0,P|384:324|420:300,1,89,0|0,3:0|3:0,0:0:0:0:
368,144,19463,2,0,P|324:146|286:169,1,89,8|0,0:0|0:0,0:0:0:0:
452,172,19776,1,0,3:0:0:0:
312,64,19932,1,0,3:0:0:0:
352,236,20088,1,8,0:0:0:0:
412,68,20244,1,0,0:0:0:0:
198,180,20401,6,0,L|286:168,1,89,0|0,3:0|3:0,0:0:0:0:
116,128,20713,1,8,0:0:0:0:
132,244,20869,1,0,0:0:0:0:
288,88,21026,2,0,L|200:100,1,89,0|0,3:0|3:0,0:0:0:0:
364,136,21338,2,0,P|380:92|372:52,1,89,8|0,0:0|0:0,0:0:0:0:
288,200,21651,6,0,L|372:232,1,89,0|0,3:0|3:0,0:0:0:0:
224,320,21963,2,0,L|313:310,1,89,8|0,0:0|0:0,0:0:0:0:
88,244,22276,1,0,3:0:0:0:
140,348,22432,1,0,3:0:0:0:
196,232,22588,2,0,P|200:188|192:144,1,89,8|0,0:0|0:0,0:0:0:0:
48,52,22901,6,0,P|84:80|128:92,1,89,0|0,3:0|3:0,0:0:0:0:
280,16,23213,1,8,0:0:0:0:
164,16,23369,1,0,0:0:0:0:
280,105,23526,2,0,L|280:17,1,89,0|0,3:0|3:0,0:0:0:0:
452,72,23838,2,0,L|363:72,1,89,8|0,0:0|0:0,0:0:0:0:
360,280,24151,6,0,P|404:292|448:284,1,89,0|0,3:0|3:0,0:0:0:0:
476,180,24463,2,0,L|340:180,1,133.5,12|0,0:0|0:0,0:0:0:0:
308,180,24776,5,8,3:2:0:0:
265,193,24854,1,8,0:0:0:0:
233,223,24932,1,8,0:0:0:0:
217,264,25010,1,8,0:0:0:0:
219,308,25088,2,0,L|228:356,1,44.5,8|8,3:2|0:2,0:0:0:0:
92,320,25244,2,0,L|136:312,1,44.5,8|8,0:2|0:2,0:0:0:0:
72,203,25401,6,0,P|30:218|3:252,1,89,4|0,3:2|3:0,0:0:0:0:
152,228,25713,2,0,L|156:140,1,89,8|0,0:0|0:0,0:0:0:0:
312,48,26026,1,0,3:0:0:0:
244,144,26182,1,0,3:0:0:0:
396,200,26338,2,0,P|370:157|336:134,1,89,8|0,0:0|0:0,0:0:0:0:
376,292,26651,6,0,L|464:280,1,89,0|0,3:0|3:0,0:0:0:0:
288,244,26963,2,0,L|284:332,1,89,8|0,0:0|0:0,0:0:0:0:
136,256,27276,1,0,3:0:0:0:
168,368,27432,1,0,3:0:0:0:
56,288,27588,1,8,0:0:0:0:
208,296,27744,1,0,0:0:0:0:
56,288,27901,6,0,L|40:200,1,89,0|0,3:0|3:0,0:0:0:0:
152,80,28213,2,0,L|136:168,1,89,8|0,0:0|0:0,0:0:0:0:
336,168,28526,1,0,3:0:0:0:
244,236,28682,1,0,3:0:0:0:
244,132,28838,1,8,0:0:0:0:
336,260,28994,1,0,0:0:0:0:
344,79,29151,6,0,L|336:167,1,89,0|0,3:0|3:0,0:0:0:0:
452,268,29463,2,0,L|444:180,1,89,8|0,0:0|0:0,0:0:0:0:
244,236,29776,1,0,3:0:0:0:
340,356,29932,1,0,3:0:0:0:
335,167,30088,1,8,0:0:0:0:
252,328,30244,1,0,0:0:0:0:
80,216,30401,6,0,P|128:200|168:212,1,89,4|0,3:2|3:0,0:0:0:0:
136,368,30713,2,0,L|128:280,1,89,8|0,0:0|0:0,0:0:0:0:
252,147,31026,2,0,L|244:235,1,89,0|0,3:0|3:0,0:0:0:0:
112,80,31338,2,0,L|120:168,1,89,8|0,0:0|0:0,0:0:0:0:
288,56,31651,6,0,L|200:48,1,89,0|0,3:0|3:0,0:0:0:0:
340,138,31963,2,0,L|252:146,1,89,8|0,0:0|0:0,0:0:0:0:
412,176,32276,2,0,P|420:128|404:88,1,89,0|0,3:0|3:0,0:0:0:0:
324,220,32588,2,0,P|316:268|332:308,1,89,8|0,0:0|0:0,0:0:0:0:
340,138,32901,5,4,3:2:0:0:
224,256,33057,1,0,3:0:0:0:
340,120,33213,1,8,0:0:0:0:
148,224,33369,1,0,0:0:0:0:
199,47,33526,2,0,P|231:79|239:123,1,89,0|0,3:0|3:0,0:0:0:0:
152,312,33838,2,0,L|148:224,1,89,8|0,0:0|0:0,0:0:0:0:
340,120,34151,6,0,L|336:208,1,89,0|0,3:0|3:0,0:0:0:0:
248,364,34463,2,0,L|236:232,1,133.5,12|0,0:0|0:0,0:0:0:0:
228,196,34776,5,8,3:2:0:0:
191,220,34854,1,8,0:0:0:0:
147,223,34932,1,8,0:0:0:0:
108,202,35010,1,8,0:0:0:0:
85,165,35088,2,0,L|80:120,1,44.5,8|8,3:2|0:0,0:0:0:0:
212,120,35244,2,0,L|168:128,1,44.5,8|8,0:0|0:0,0:0:0:0:
260,28,35401,5,12,3:2:0:0:
296,128,35557,1,0,3:0:0:0:
396,28,35713,2,0,L|408:104,1,75.6500014429093,8|4,0:0|0:3,0:0:0:0:
412,132,35947,1,2,0:3:0:0:
412,132,36026,2,0,L|416:172,2,37.8250007214546,0|2|0,3:0|0:3|3:0,0:0:0:0:
424,248,36338,1,8,0:0:0:0:
388,324,36494,1,0,0:0:0:0:
282,196,36651,5,0,3:0:0:0:
302,300,36807,1,0,3:0:0:0:
182,352,36963,2,0,P|154:312|150:284,1,75.6500014429093,8|2,0:0|0:3,0:0:0:0:
154,260,37197,1,2,0:3:0:0:
154,260,37276,2,0,L|146:220,2,37.8250007214546,0|4|0,3:0|0:3|3:0,0:0:0:0:
136,144,37588,1,8,0:0:0:0:
144,60,37744,1,0,0:0:0:0:
232,192,37901,5,0,3:0:0:0:
268,92,38057,1,0,3:0:0:0:
392,160,38213,2,0,P|396:200|384:232,1,75.6500014429093,8|4,0:0|0:3,0:0:0:0:
372,260,38447,1,2,0:3:0:0:
362,280,38525,1,0,3:0:0:0:
349,299,38603,1,2,0:3:0:0:
333,315,38681,1,0,3:0:0:0:
232,192,38838,2,0,L|308:192,1,75.6500014429093,12|0,0:0|0:0,0:0:0:0:
96,304,39151,5,8,0:0:0:0:
100,140,39307,1,0,3:0:0:0:
172,248,39463,1,0,3:0:0:0:
16,124,39619,5,12,0:2:0:0:
184,112,39776,1,0,3:0:0:0:
80,220,39932,1,0,3:0:0:0:
168,24,40088,5,8,0:0:0:0:
244,184,40244,1,8,0:0:0:0:
244,184,40322,1,8,0:0:0:0:
244,184,40401,6,0,L|380:172,1,133.5,4|0,3:2|0:0,0:0:0:0:
464,160,40713,2,0,L|512:152,3,44.5,8|8|8|8,3:2|0:2|0:2|0:2,0:0:0:0:
476,248,41026,2,0,L|428:240,3,44.5,8|8|8|8,3:2|0:2|0:2|0:2,0:0:0:0:
400,324,41338,2,0,L|356:331,3,44.5,8|8|8|8,3:2|0:2|0:2|0:2,0:0:0:0:
272,284,41651,5,8,3:2:0:0:
229,295,41729,1,8,0:2:0:0:
186,307,41807,1,8,0:2:0:0:
143,319,41885,1,8,0:2:0:0:
100,331,41963,1,8,3:2:0:0:
65,304,42041,1,8,0:2:0:0:
47,264,42119,1,8,0:2:0:0:
49,220,42197,1,8,0:2:0:0:
72,183,42276,2,0,L|64:140,3,44.5,8|8|8|8,3:2|0:2|0:2|0:2,0:0:0:0:
148,116,42588,2,0,L|156:159,3,44.5,8|8|8|8,3:2|0:2|0:2|0:2,0:0:0:0:
240,208,42901,6,0,P|296:204|344:148,1,133.5,4|0,3:2|0:0,0:0:0:0:
348,56,43213,2,0,P|369:60|391:68,3,44.5,2|2|4|4,0:3|0:3|0:3|0:3,0:0:0:0:
436,144,43526,2,0,P|460:136|484:132,3,44.5,8|0|4|8,0:3|0:0|0:3|0:3,0:0:0:0:
496,224,43838,2,0,P|492:260|488:312,1,89,4|0,3:2|0:0,0:0:0:0:
288,312,44151,5,8,0:0:0:0:
420,256,44307,5,0,3:0:0:0:
408,267,44619,1,0,3:0:0:0:
397,278,44932,1,0,3:0:0:0:
288,312,45088,6,0,P|244:315|201:308,1,89,0|0,0:0|0:0,0:0:0:0:
80,132,45401,5,4,3:2:0:0:
108,252,45557,1,0,3:0:0:0:
116,56,45713,2,0,P|68:48|28:64,1,89,8|0,0:0|0:0,0:0:0:0:
184,144,46026,1,0,3:0:0:0:
212,24,46182,1,0,3:0:0:0:
368,116,46338,2,0,L|280:104,1,89,8|0,0:0|0:0,0:0:0:0:
184,240,46651,5,0,3:0:0:0:
232,356,46807,1,0,3:0:0:0:
356,228,46963,2,0,L|268:216,1,89,8|0,0:0|0:0,0:0:0:0:
143,368,47276,2,0,L|231:356,1,89,0|0,3:0|3:0,0:0:0:0:
80,288,47588,2,0,P|52:328|48:368,1,89,8|0,0:0|0:0,0:0:0:0:
112,204,47901,6,0,L|24:196,1,89,0|0,3:0|3:0,0:0:0:0:
156,52,48213,2,0,P|200:52|244:68,1,89,8|0,0:0|0:0,0:0:0:0:
256,268,48526,1,0,3:0:0:0:
212,152,48682,1,0,3:0:0:0:
400,172,48838,2,0,L|308:192,1,89,8|0,0:0|0:0,0:0:0:0:
96,312,49151,6,0,P|116:272|152:248,1,89,0|0,3:0|3:0,0:0:0:0:
283,364,49463,2,0,P|239:367|200:348,1,89,8|0,0:0|0:0,0:0:0:0:
368,256,49776,2,0,L|376:348,1,89,0|0,3:0|3:0,0:0:0:0:
263,179,50088,2,0,L|255:267,1,89,8|0,0:0|0:0,0:0:0:0:
418,143,50401,6,0,L|332:124,1,89,4|0,3:2|3:0,0:0:0:0:
464,64,50713,1,8,0:0:0:0:
263,179,50869,2,0,P|247:135|251:91,1,89,0|0,0:0|3:0,0:0:0:0:
348,220,51182,1,0,3:0:0:0:
208,264,51338,1,8,0:0:0:0:
312,352,51494,1,0,0:0:0:0:
263,179,51651,5,0,3:0:0:0:
223,360,51807,1,0,3:0:0:0:
120,276,51963,1,8,0:0:0:0:
312,352,52119,2,0,L|224:360,1,89,0|0,0:0|3:0,0:0:0:0:
31,267,52432,2,0,L|119:275,1,89,0|8,3:0|0:0,0:0:0:0:
263,179,52744,1,0,0:0:0:0:
152,72,52901,6,0,L|164:164,1,89,4|0,3:2|3:0,0:0:0:0:
336,76,53213,1,8,0:0:0:0:
263,179,53369,1,0,0:0:0:0:
448,188,53526,2,0,P|404:164|360:164,1,89,0|0,3:0|3:0,0:0:0:0:
284,344,53838,1,8,0:0:0:0:
412,312,53994,1,0,0:0:0:0:
316,264,54151,6,0,P|296:260|272:260,3,44.5,2|2|2|2,3:3|0:3|0:3|0:3,0:0:0:0:
208,312,54463,2,0,P|185:312|163:308,3,44.5,4|4|4|4,3:3|0:3|0:3|0:3,0:0:0:0:
84,248,54776,5,8,3:2:0:0:
75,204,54854,1,8,0:2:0:0:
83,161,54932,1,8,0:2:0:0:
107,123,55010,1,8,0:2:0:0:
143,98,55088,2,0,L|188:92,1,44.5,8|8,3:2|0:2,0:0:0:0:
263,175,55244,2,0,L|218:169,1,44.5,8|8,0:2|0:2,0:0:0:0:
364,64,55401,5,4,3:2:0:0:
248,20,55557,1,0,3:0:0:0:
348,160,55713,2,0,L|436:152,1,89,8|0,0:0|0:0,0:0:0:0:
248,20,56026,2,0,L|160:12,1,89,0|0,3:0|3:0,0:0:0:0:
240,196,56338,2,0,P|260:156|260:112,1,89,8|0,0:0|0:0,0:0:0:0:
147,220,56651,5,0,3:0:0:0:
211,328,56807,1,0,3:0:0:0:
63,244,56963,2,0,P|63:200|83:160,1,89,8|0,0:0|0:0,0:0:0:0:
211,328,57276,1,0,3:0:0:0:
88,336,57432,1,0,3:0:0:0:
232,248,57588,2,0,P|272:268|292:308,1,89,8|0,0:0|0:0,0:0:0:0:
440,136,57901,5,0,3:0:0:0:
340,208,58057,1,0,3:0:0:0:
460,312,58213,2,0,P|452:264|432:228,1,89,8|0,0:0|0:0,0:0:0:0:
264,88,58526,2,0,P|312:96|348:116,1,89,0|0,3:0|3:0,0:0:0:0:
275,266,58838,2,0,P|312:242|340:207,1,89,8|0,0:0|0:0,0:0:0:0:
184,280,59151,6,0,L|196:368,1,89,0|0,3:0|3:0,0:0:0:0:
64,256,59463,1,8,0:0:0:0:
88,376,59619,1,0,0:0:0:0:
136,200,59776,1,0,3:0:0:0:
12,328,59932,1,0,3:0:0:0:
184,280,60088,1,2,3:3:0:0:
211,264,60166,1,2,0:3:0:0:
232,242,60244,1,4,0:3:0:0:
245,214,60322,1,4,0:3:0:0:
248,183,60401,5,12,0:2:0:0:
64,256,60557,1,0,3:0:0:0:
172,92,60713,1,8,0:0:0:0:
184,280,60869,1,0,3:0:0:0:
264,88,61026,5,8,0:0:0:0:
136,200,61182,1,0,3:0:0:0:
216,20,61338,1,8,0:0:0:0:
245,214,61494,1,0,3:0:0:0:
412,80,61651,6,0,P|380:48|336:40,1,89,8|0,0:0|3:0,0:0:0:0:
412,216,61963,1,8,0:0:0:0:
500,88,62119,1,0,3:0:0:0:
332,136,62276,5,8,0:0:0:0:
512,184,62432,1,0,3:0:0:0:
324,236,62588,1,8,0:0:0:0:
412,80,62744,1,0,3:0:0:0:
488,264,62901,6,0,P|492:312|484:352,1,89,8|0,0:0|3:0,0:0:0:0:
256,352,63213,1,8,0:0:0:0:
412,216,63369,1,0,3:0:0:0:
245,214,63526,5,8,0:0:0:0:
392,336,63682,1,0,3:0:0:0:
184,280,63838,1,8,0:0:0:0:
324,236,63994,1,0,3:0:0:0:
180,376,64151,5,8,3:2:0:0:
137,366,64229,1,8,0:2:0:0:
103,337,64307,1,8,0:2:0:0:
85,297,64385,1,8,0:2:0:0:
87,253,64463,2,0,L|92:208,1,44.5,8|8,3:2|0:2,0:0:0:0:
168,100,64619,2,0,L|172:144,1,44.5,8|8,0:2|0:2,0:0:0:0:
296,184,64776,6,0,P|274:179|251:180,3,44.5,2|2|2|2,0:3|0:3|0:3|0:3,0:0:0:0:
336,92,65088,2,0,P|356:88|380:88,3,44.5,4|4|4|4,0:3|0:3|0:3|0:3,0:0:0:0:
456,184,65401,6,0,B|472:240|472:240|460:296,2,113.475002164364,4|0|0,3:2|3:0|3:0,0:0:0:0:
388,328,66026,2,0,B|332:344|332:344|277:332,1,113.475002164364,8|0,0:0|0:0,0:0:0:0:
244,316,66338,2,0,L|232:240,1,75.6500014429093,8|0,0:1|0:0,0:0:0:0:
152,128,66651,6,0,P|84:148|60:184,2,113.475002164364,0|0|0,3:0|3:0|3:0,0:0:0:0:
340,5,67276,2,0,P|303:47|249:57,1,113.475002164364,8|0,0:0|0:0,0:0:0:0:
212,53,67588,2,0,L|136:41,1,75.6500014429093,8|0,0:1|0:0,0:0:0:0:
61,180,67901,6,0,L|77:256,1,75.6500014429093,0|0,3:0|0:0,0:0:0:0:
141,332,68135,2,0,L|156:257,1,75.6500014429093,0|0,3:0|0:0,0:0:0:0:
173,180,68369,1,0,3:0:0:0:
256,291,68526,2,0,P|304:335|352:335,1,113.475002164364,8|0,0:0|0:0,0:0:0:0:
388,327,68838,2,0,L|456:295,1,75.6500014429093,8|0,0:1|0:0,0:0:0:0:
476,123,69151,6,0,L|460:199,1,75.6500014429093,0|0,3:0|0:0,0:0:0:0:
380,239,69385,2,0,L|364:164,1,75.6500014429093,0|0,3:0|0:0,0:0:0:0:
348,83,69619,1,0,3:0:0:0:
208,16,69776,5,2,0:3:0:0:
233,46,69880,1,2,0:3:0:0:
243,85,69984,1,4,0:3:0:0:
177,153,70088,5,4,0:3:0:0:
151,183,70192,1,8,0:3:0:0:
141,222,70296,1,8,0:3:0:0:
244,276,70401,6,0,P|284:304|304:368,2,113.475002164364,4|0|0,3:2|3:0|3:0,0:0:0:0:
72,364,71026,2,0,P|125:348|159:303,2,113.475002164364,8|0|0,0:0|0:0|0:0,0:0:0:0:
71,200,71651,6,0,P|103:220|147:220,1,75.6500014429093,0|0,3:0|0:0,0:0:0:0:
128,140,71885,2,0,P|161:122|183:84,1,75.6500014429093,0|0,3:0|0:0,0:0:0:0:
100,60,72119,1,0,3:0:0:0:
284,52,72276,6,0,P|272:88|284:130,1,75.6500014429093,8|0,0:0|0:0,0:0:0:0:
356,91,72510,2,0,P|381:118|424:129,1,75.6500014429093,0|0,0:0|0:0,0:0:0:0:
426,43,72744,1,0,0:0:0:0:
464,284,72901,6,0,P|476:248|464:206,1,75.6500014429093,0|0,3:0|0:0,0:0:0:0:
392,245,73135,2,0,P|367:218|324:207,1,75.6500014429093,0|0,3:0|0:0,0:0:0:0:
322,293,73369,1,0,3:0:0:0:
140,221,73526,6,0,P|188:221|236:265,1,113.475002164364,8|0,0:0|0:0,0:0:0:0:
232,300,73838,2,0,L|208:372,1,75.6500014429093,12|0,0:2|0:0,0:0:0:0:
330,206,74151,5,8,3:2:0:0:
300,384,74307,1,8,0:0:0:0:
216,188,74463,5,8,3:2:0:0:
368,320,74619,1,8,0:0:0:0:
216,376,74776,5,8,0:0:0:0:
216,376,74854,1,8,0:0:0:0:
216,376,74932,1,0,3:0:0:0:
36,320,75088,2,0,P|100:328|132:296,1,113.475002164364,4|0,0:0|0:0,0:0:0:0:
152,256,75401,5,4,3:2:0:0:
200,152,75557,1,0,3:0:0:0:
8,200,75713,2,0,L|100:192,1,89,8|0,0:0|0:0,0:0:0:0:
288,159,76026,2,0,L|196:151,1,89,0|0,3:0|3:0,0:0:0:0:
104,12,76338,2,0,P|100:60|112:100,1,89,8|0,0:0|0:0,0:0:0:0:
316,32,76651,5,0,3:0:0:0:
200,48,76807,1,0,3:0:0:0:
368,116,76963,2,0,P|400:84|412:36,1,89,8|0,0:0|3:0,0:0:0:0:
259,143,77276,2,0,L|283:231,1,89,0|0,3:0|3:0,0:0:0:0:
348,376,77588,2,0,L|371:290,1,89,8|0,0:0|0:0,0:0:0:0:
172,308,77901,6,0,L|260:324,1,89,0|0,3:0|3:0,0:0:0:0:
84,244,78213,1,8,0:0:0:0:
92,360,78369,1,0,0:0:0:0:
188,227,78526,2,0,P|187:183|176:140,1,89,0|0,3:0|3:0,0:0:0:0:
52,44,78838,2,0,P|44:87|48:132,1,89,8|0,0:0|0:0,0:0:0:0:
248,68,79151,6,0,P|208:44|164:40,1,89,0|0,3:0|3:0,0:0:0:0:
268,168,79463,2,0,P|314:168|354:150,1,89,8|0,0:0|0:0,0:0:0:0:
176,140,79776,2,0,L|188:228,1,89,0|0,3:0|3:0,0:0:0:0:
340,340,80088,1,2,0:3:0:0:
370,344,80166,1,2,0:3:0:0:
401,338,80244,1,4,0:3:0:0:
428,322,80322,1,4,0:3:0:0:
448,299,80401,6,0,P|452:252|444:212,1,89,12|0,0:0|3:0,0:0:0:0:
416,88,80713,1,0,3:0:0:0:
264,260,80869,6,0,P|308:264|352:256,1,89,8|0,0:0|3:0,0:0:0:0:
416,88,81182,1,0,3:0:0:0:
196,104,81338,6,0,P|191:148|200:191,1,89,8|0,0:0|3:0,0:0:0:0:
311,333,81651,6,0,P|292:292|263:259,1,89,8|0,0:0|3:0,0:0:0:0:
140,252,81963,1,0,3:0:0:0:
377,162,82119,6,0,P|336:147|292:144,1,89,8|0,0:0|3:0,0:0:0:0:
140,252,82431,1,0,3:0:0:0:
254,38,82588,6,0,P|219:66|195:103,1,89,8|0,0:0|3:0,0:0:0:0:
212,348,82901,5,12,0:2:0:0:
291,144,83057,1,0,3:0:0:0:
128,328,83213,5,8,3:2:0:0:
377,162,83369,1,8,0:2:0:0:
96,252,83526,5,8,3:2:0:0:
404,244,83682,1,8,0:2:0:0:
104,356,83838,5,8,3:2:0:0:
404,136,83994,1,12,3:2:0:0:
