osu file format v14

[General]
AudioFilename: audio.mp3
AudioLeadIn: 0
PreviewTime: 44379
Countdown: 0
SampleSet: Soft
StackLeniency: 0.7
Mode: 0
LetterboxInBreaks: 0
WidescreenStoryboard: 1

[Editor]
DistanceSpacing: 0.8
BeatDivisor: 2
GridSize: 4
TimelineZoom: 1

[Metadata]
Title:Mou Ii kai?
TitleUnicode:もういいかい?
Artist:THE ORAL CIGARETTES
ArtistUnicode:THE ORAL CIGARETTES
Creator:sparxo
Version:Normal
Source:
Tags:trailmix nevo affirmation af neoskylove karcher [karcher] toybot vikala mifuru みふる kisses and kills japanese rock j-rock jrock 2018
BeatmapID:2639288
BeatmapSetID:1269899

[Difficulty]
HPDrainRate:3
CircleSize:3
OverallDifficulty:4
ApproachRate:5
SliderMultiplier:1.2
SliderTickRate:1

[Events]
//Background and Video events
0,0,"BG.jpg",0,0
//Break Periods
2,117157,123882
//Storyboard Layer 0 (Background)
//Storyboard Layer 1 (Fail)
//Storyboard Layer 2 (Pass)
//Storyboard Layer 3 (Foreground)
//Storyboard Layer 4 (Overlay)
//Storyboard Sound Samples

[TimingPoints]
-855,312.5,4,2,2,80,1,0
82,-100,4,2,2,50,0,0
395,-100,4,2,2,80,0,0
707,-100,4,2,2,70,0,0
1645,-100,4,2,2,80,0,0
1957,-100,4,2,2,65,0,0
2895,-100,4,2,2,80,0,0
3207,-100,4,2,2,70,0,0
4145,-100,4,2,2,80,0,0
4457,-100,4,2,2,65,0,0
5395,-100,4,2,2,80,0,0
5707,-100,4,2,2,70,0,0
6645,-100,4,2,2,80,0,0
6957,-100,4,2,2,65,0,0
7582,-100,4,2,2,70,0,0
7895,-100,4,2,2,80,0,0
8207,-100,4,2,2,70,0,0
9145,-100,4,2,2,80,0,0
9457,-100,4,2,2,70,0,0
10082,-100,4,2,1,80,0,0
15395,-100,4,2,1,70,0,0
34457,-100,4,2,1,80,0,0
35082,-100,4,2,1,70,0,0
35395,-100,4,2,1,80,0,0
35707,-100,4,2,1,60,0,0
36645,-100,4,2,1,80,0,0
36957,-100,4,2,1,60,0,0
37895,-100,4,2,1,80,0,0
38207,-100,4,2,1,60,0,0
38832,-100,4,2,1,70,0,0
39145,-100,4,2,1,80,0,0
40707,-100,4,2,2,70,0,0
42582,-100,4,2,1,80,0,0
44613,-100,4,2,1,85,0,0
44926,-100,4,2,1,90,0,0
45395,-100,4,2,1,90,0,1
45551,-100,4,2,1,5,0,1
45707,-100,4,2,1,90,0,1
54613,-100,4,2,1,75,0,1
54770,-100,4,2,1,90,0,1
60082,-100,4,2,1,80,0,1
60395,-100,4,2,1,90,0,1
64770,-100,4,2,1,80,0,1
65395,312.5,3,2,1,80,1,0
68832,-100,3,2,1,60,0,0
69457,312.5,4,2,1,80,1,0
70082,-100,4,2,2,70,0,0
72269,-100,4,2,1,70,0,0
72425,-100,4,2,1,75,0,0
72894,-100,4,2,1,80,0,0
73363,-100,4,2,1,85,0,0
74457,-100,4,2,1,70,0,0
84144,-100,4,2,1,60,0,0
84457,-100,4,2,1,70,0,0
87425,-100,4,2,2,70,0,0
87894,-100,4,2,1,70,0,0
88050,-100,4,2,2,70,0,0
88207,-100,4,2,2,75,0,0
88519,-100,4,2,1,75,0,0
88675,-100,4,2,2,70,0,0
88832,-100,4,2,2,80,0,0
89144,-100,4,2,1,80,0,0
89769,-100,4,2,1,70,0,0
90082,-100,4,2,1,73,0,0
90394,-100,4,2,1,76,0,0
90707,-100,4,2,1,80,0,0
91019,-100,4,2,1,70,0,0
91957,-100,4,2,1,80,0,0
93362,-100,4,2,1,70,0,0
94457,-100,4,2,1,80,0,0
95237,-100,4,2,1,85,0,0
95550,-100,4,2,1,90,0,0
96019,-100,4,2,1,50,0,0
96957,-100,4,2,1,90,0,1
106175,-100,4,2,1,75,0,1
106332,-100,4,2,1,90,0,1
116175,-100,4,2,1,5,0,1
116332,-100,4,2,1,90,0,1
116800,-100,4,2,1,5,0,1
116957,-100,4,2,1,80,0,0
126957,-100,4,2,1,80,0,1
128207,-100,4,2,1,85,0,1
129456,-100,4,2,1,90,0,1
130707,-100,4,2,1,90,0,1
135550,-100,4,2,1,80,0,1
135863,-100,4,2,1,80,0,0
136198,312.5,4,2,1,80,1,0

[Colours]
Combo1 : 152,205,222
Combo2 : 255,223,176
Combo3 : 37,185,239

[HitObjects]
3,22,82,5,2,2:0:0:0:
65,93,395,2,0,L|190:82,1,120,4|8,3:2|3:2,2:0:0:0:
225,107,863,1,8,2:0:0:0:
225,107,1020,2,0,P|274:130|345:118,1,120,8|8,3:2|3:2,2:0:0:0:
411,60,1645,1,12,3:2:0:0:
497,102,1957,2,0,B|529:228|453:204|491:342,1,240,8|8,3:2|3:2,2:0:0:0:
397,364,2895,6,0,L|267:349,1,120,12|8,3:2|3:2,2:0:0:0:
219,273,3520,2,0,L|89:288,1,120,8|8,3:2|3:2,2:0:0:0:
28,222,4145,1,12,3:2:0:0:
92,151,4457,2,0,L|151:157,1,60,8|8,3:2|2:0,2:0:0:0:
191,131,4770,2,0,L|250:137,1,60,8|8,3:2|2:0,2:0:0:0:
295,120,5082,1,8,3:2:0:0:
389,89,5395,6,0,P|414:146|405:213,1,120,12|8,3:2|3:2,2:0:0:0:
380,241,5863,1,8,2:0:0:0:
380,241,6020,2,8,P|318:247|264:289,1,120,8|8,3:2|3:2,2:0:0:0:
236,369,6645,1,12,3:2:0:0:
146,333,6957,2,0,B|125:304|84:296|84:296|111:246|111:246|78:195|102:141,1,240,8|8,3:2|3:2,2:0:0:0:
175,80,7895,6,8,P|233:68|306:96,1,120,12|8,3:2|3:2,2:0:0:0:
365,144,8520,2,0,L|496:128,1,120,8|8,3:2|3:2,2:0:0:0:
449,219,9145,1,12,3:2:0:0:
505,296,9457,1,8,3:2:0:0:
446,372,9770,2,0,L|386:362,1,60,0|0,3:0|3:0,2:0:0:0:
355,326,10082,1,4,3:1:0:0:
262,353,10395,5,8,3:2:0:0:
232,315,10551,2,0,P|179:284|114:294,2,120,8|8|8,2:0|2:0|2:0,2:0:0:0:
300,248,11488,2,0,B|286:183|315:191|299:125,1,120,4|8,3:2|2:0,2:0:0:0:
328,90,11957,1,8,2:0:0:0:
249,33,12270,2,0,P|215:24|175:26,1,60,8|8,2:0|3:2,2:0:0:0:
143,31,12582,1,8,0:0:0:0:
52,66,12895,6,0,P|43:100|45:140,1,60,8|8,3:2|2:0,2:0:0:0:
71,162,13207,1,10,2:0:0:0:
71,162,13363,2,0,L|194:148,2,120,2|2|4,3:0|3:0|3:2,2:0:0:0:
25,246,14301,1,8,2:0:0:0:
58,280,14457,2,0,L|125:271,1,60,8|8,2:0|2:0,2:0:0:0:
153,304,14770,2,0,P|211:331|278:316,1,120,8|4,2:3|2:3,2:0:0:0:
327,249,15395,6,0,B|313:118,1,120,4|8,3:1|2:0,2:0:0:0:
335,86,15863,1,0,2:0:0:0:
335,86,16020,2,0,P|386:65|456:79,1,120,0|8,3:0|2:0,2:0:0:0:
502,154,16645,1,0,3:0:0:0:
445,231,16957,1,8,2:0:0:0:
468,324,17270,2,0,L|480:390,2,60,0|0|8,3:0|3:0|2:0,2:0:0:0:
373,304,17895,6,0,L|254:293,1,120,0|8,3:0|2:0,2:0:0:0:
211,315,18363,1,0,2:0:0:0:
211,315,18520,2,0,P|147:343|83:329,1,120,0|8,3:0|2:0,2:0:0:0:
25,274,19145,2,0,P|19:214|46:161,1,120,0|8,3:0|2:0,2:0:0:0:
123,106,19770,2,0,L|192:112,1,60,0|0,3:0|3:0,2:0:0:0:
218,142,20082,2,0,L|287:136,1,60,8|0,2:0|2:0,2:0:0:0:
318,110,20395,6,0,P|354:166|343:235,1,120,0|8,3:0|2:0,2:0:0:0:
332,263,20863,1,0,2:0:0:0:
332,263,21020,6,0,L|454:249,1,120,0|8,3:0|2:0,2:0:0:0:
487,217,21488,1,0,2:0:0:0:
487,217,21645,6,0,P|487:157|453:109,1,120,0|8,3:0|2:0,2:0:0:0:
379,49,22270,2,0,L|298:43,1,60,0|0,3:0|3:0,2:0:0:0:
271,40,22582,1,8,2:0:0:0:
187,88,22895,6,0,L|48:79,1,120,0|8,3:0|2:0,2:0:0:0:
26,105,23363,1,0,2:0:0:0:
26,105,23520,2,0,L|45:229,1,120,0|8,3:0|2:0,2:0:0:0:
76,259,23988,2,0,P|145:269|200:240,1,120,0|0,2:0|3:0,2:0:0:0:
216,208,24457,1,12,0:2:0:0:
281,278,24770,6,0,L|347:285,1,60,8|8,2:0|2:0,2:0:0:0:
370,247,25082,2,0,L|436:240,1,60,8|8,2:0|2:0,2:0:0:0:
473,219,25395,6,0,B|487:88,1,120,4|8,3:1|2:0,2:0:0:0:
465,56,25863,1,0,2:0:0:0:
465,56,26020,2,0,P|414:35|309:107,1,180,0|0,3:2|2:0,2:0:0:0:
308,141,26645,1,0,3:0:0:0:
214,119,26957,2,0,L|154:108,2,60,8|0|0,2:0|2:0|3:0,2:0:0:0:
247,209,27582,2,0,P|255:236|254:276,1,60,8|0,2:0|2:0,2:0:0:0:
231,309,27895,6,0,L|112:298,1,120,0|8,3:0|2:0,2:0:0:0:
44,228,28520,2,0,P|16:164|30:100,1,120,0|8,3:0|2:0,2:0:0:0:
59,84,28988,2,0,L|178:95,1,120,0|0,2:0|3:0,2:0:0:0:
269,58,29613,1,0,2:0:0:0:
269,58,29770,2,0,L|264:-7,2,60,0|0|8,3:0|3:0|2:0,2:0:0:0:
347,114,30395,6,0,P|383:170|372:239,1,120,4|8,3:2|2:0,2:0:0:0:
311,289,31020,2,0,P|244:292|190:248,1,120,0|8,3:0|2:0,2:0:0:0:
152,181,31645,2,0,L|31:163,1,120,0|8,3:0|2:0,2:0:0:0:
5,71,32270,1,0,3:0:0:0:
81,12,32582,2,0,L|162:6,1,60,8|0,2:0|2:0,2:0:0:0:
173,43,32895,6,0,L|311:56,1,120,4|8,3:2|2:0,2:0:0:0:
321,99,33363,1,0,2:0:0:0:
321,99,33520,2,0,L|302:223,1,120,0|8,3:0|2:0,2:0:0:0:
353,299,34145,2,0,P|422:309|477:280,1,120,0|12,3:0|2:0,2:0:0:0:
507,202,34770,2,0,L|500:136,1,60,8|8,2:0|2:0,2:0:0:0:
464,110,35082,2,0,L|471:44,1,60,0|0,3:0|3:0,2:0:0:0:
444,9,35395,6,0,L|312:17,1,120,4|8,3:1|2:0,2:0:0:0:
286,44,35863,1,10,2:3:0:0:
286,44,36020,2,0,L|216:36,1,60,4|2,2:3|2:3,2:0:0:0:
185,61,36332,1,8,2:0:0:0:
104,114,36645,6,0,P|87:178|112:246,1,120,4|8,3:2|2:0,2:0:0:0:
148,251,37113,1,10,2:3:0:0:
148,251,37270,2,0,P|183:243|218:243,1,60,4|2,2:3|2:3,2:0:0:0:
247,268,37582,1,8,2:0:0:0:
331,313,37895,6,0,B|406:298|387:336|463:322,1,120,4|8,3:2|2:0,2:0:0:0:
501,244,38520,2,0,B|486:169|524:188|510:112,1,120,4|12,2:3|2:0,2:0:0:0:
443,58,39145,6,0,L|311:44,1,120,12|0,3:2|3:0,2:0:0:0:
285,74,39613,2,0,L|165:61,1,120,12|0,2:0|3:0,2:0:0:0:
122,83,40082,2,0,P|131:117|133:147,1,60,8|8,2:0|2:0,2:0:0:0:
106,181,40395,5,4,3:1:0:0:
158,267,40707,1,8,3:2:0:0:
158,267,40863,2,0,P|220:295|281:281,1,120,8|8,2:0|2:0,2:0:0:0:
293,244,41332,2,0,B|316:55,1,180,8|8,3:2|2:0,2:0:0:0:
344,27,41957,2,0,P|451:26|484:100,1,180,8|8,3:2|2:0,2:0:0:0:
476,128,42582,2,0,P|474:163|484:198,1,60,8|8,2:0|2:0,2:0:0:0:
504,228,42895,5,4,3:1:0:0:
444,308,43207,2,0,L|378:296,1,60,8|8,2:3|2:3,2:0:0:0:
351,331,43520,2,0,L|285:343,1,60,4|4,2:3|2:3,2:0:0:0:
253,313,43832,1,4,3:2:0:0:
163,346,44145,5,8,2:0:0:0:
120,323,44301,2,0,P|93:279|99:203,2,120,2|2|2,3:0|3:0|3:0,2:0:0:0:
188,195,45395,6,0,L|247:189,1,60,4|0,3:1|2:0,2:0:0:0:
283,221,45707,2,0,P|340:225|396:187,1,120,10|0,2:0|3:0,2:0:0:0:
408,147,46176,1,0,3:0:0:0:
408,147,46332,2,0,L|391:13,1,120,10|2,2:0|3:1,2:0:0:0:
302,60,46957,5,10,2:0:0:0:
212,25,47270,1,2,3:1:0:0:
135,82,47582,2,0,L|57:68,1,60,10|0,2:0|2:0,2:0:0:0:
36,99,47895,6,0,L|58:223,1,120,2|10,3:1|2:0,2:0:0:0:
126,283,48520,2,0,L|119:342,2,60,0|0|10,3:0|3:0|2:0,2:0:0:0:
189,210,49145,2,0,P|251:183|328:197,1,120,2|10,3:1|2:0,2:0:0:0:
378,244,49770,2,0,L|446:235,1,60,2|0,3:1|3:0,2:0:0:0:
476,263,50082,1,10,2:0:0:0:
419,340,50395,6,0,P|373:348|297:305,1,120,4|10,3:2|2:0,2:0:0:0:
288,274,50863,2,0,P|235:246|177:252,1,120,2|2,3:0|3:0,2:0:0:0:
136,277,51332,2,0,L|68:266,1,60,10|2,2:0|2:3,2:0:0:0:
41,234,51645,2,0,L|25:107,1,120,0|10,3:0|2:0,2:0:0:0:
57,78,52113,1,2,3:0:0:0:
150,102,52426,1,2,3:0:0:0:
227,44,52738,1,2,2:3:0:0:
274,37,52895,6,0,L|342:32,1,60,0|2,3:0|2:3,2:0:0:0:
371,62,53207,2,0,L|430:66,1,60,10|2,2:0|3:0,2:0:0:0:
461,103,53520,2,0,L|448:228,1,120,0|10,3:0|2:0,2:0:0:0:
437,317,54145,6,0,P|379:346|268:287,1,180,8|4,2:3|2:3,2:0:0:0:
260,259,54770,2,0,P|259:190|296:143,1,120,8|8,2:0|2:0,2:0:0:0:
284,53,55395,5,4,3:1:0:0:
194,18,55707,1,10,2:0:0:0:
127,87,56020,2,0,L|49:73,2,60,0|0|10,3:0|3:0|2:0,2:0:0:0:
172,171,56645,6,0,P|180:199|177:230,1,60,2|0,3:1|2:0,2:0:0:0:
201,271,56957,2,0,P|258:267|314:305,1,120,10|2,2:0|3:1,2:0:0:0:
350,334,57426,1,0,3:0:0:0:
350,334,57582,2,0,L|484:317,1,120,10|2,2:0|3:1,2:0:0:0:
508,230,58207,5,10,2:0:0:0:
429,174,58520,1,2,3:1:0:0:
492,101,58832,2,0,L|506:23,1,60,10|0,2:0|2:0,2:0:0:0:
469,6,59145,6,0,L|345:28,1,120,2|10,3:1|2:0,2:0:0:0:
283,95,59770,2,0,L|276:154,1,60,0|0,3:0|3:0,2:0:0:0:
238,184,60082,2,0,L|244:243,1,60,0|0,3:0|3:0,2:0:0:0:
221,285,60395,6,0,L|85:268,1,120,12|8,2:0|2:0,2:0:0:0:
45,192,61020,2,0,P|35:158|38:125,1,60,8|2,2:0|3:0,2:0:0:0:
65,95,61332,2,0,P|65:65|56:36,1,60,8|2,2:0|3:0,2:0:0:0:
92,4,61645,6,0,P|150:-2|202:25,1,120,12|8,2:0|2:0,2:0:0:0:
217,71,62113,1,2,3:0:0:0:
217,71,62270,2,0,L|344:55,1,120,8|8,2:0|2:0,2:0:0:0:
415,110,62895,6,0,L|400:229,1,120,12|8,2:0|2:0,2:0:0:0:
343,306,63520,2,0,L|223:320,1,120,8|8,2:0|2:0,2:0:0:0:
153,255,64145,6,0,L|90:246,1,60,8|8,2:0|2:0,2:0:0:0:
66,206,64457,2,0,L|125:197,1,60,8|8,2:0|2:0,2:0:0:0:
142,152,64770,2,0,P|146:85|153:33,1,120,8|4,3:2|3:0,2:0:0:0:
247,14,65395,6,0,P|329:43|405:1,1,180,4|2,3:2|3:0,2:0:0:0:
503,107,66332,6,0,L|482:300,1,180,4|2,3:2|3:0,2:0:0:0:
353,348,67270,6,0,B|252:324|274:386|164:355,1,180,4|2,3:2|3:0,2:0:0:0:
67,265,68207,6,0,L|86:86,1,180,8|8,2:0|2:0,2:0:0:0:
94,38,68832,1,2,2:1:0:0:
284,10,69457,6,0,P|387:36|419:168,1,240,4|8,3:2|3:2,2:0:0:0:
365,228,70394,2,0,L|302:212,1,60,8|8,3:2|2:0,2:0:0:0:
270,181,70707,2,0,L|27:215,1,240,8|8,3:2|3:2,2:0:0:0:
0,304,71644,2,0,L|70:317,1,60,8|8,3:2|2:0,2:0:0:0:
90,351,71957,6,0,L|229:330,1,120,4|8,3:2|2:0,2:0:0:0:
249,357,72425,2,0,L|388:336,1,120,4|8,3:2|2:0,2:0:0:0:
393,298,72894,2,0,P|402:227|368:176,1,120,4|8,3:2|2:0,2:0:0:0:
341,156,73363,2,0,P|316:102|327:44,1,120,4|8,3:2|2:0,2:0:0:0:
199,248,74457,6,0,L|64:236,1,120,4|8,3:1|2:0,2:0:0:0:
42,206,74925,1,0,2:0:0:0:
42,206,75082,2,0,P|30:145|52:89,1,120,0|8,3:0|2:0,2:0:0:0:
133,45,75707,2,0,L|205:40,1,60,0|0,3:0|3:0,2:0:0:0:
229,72,76019,2,0,L|301:77,1,60,8|0,2:0|2:0,2:0:0:0:
326,45,76332,1,0,3:0:0:0:
405,98,76644,1,8,2:0:0:0:
485,45,76957,6,0,P|501:113|475:171,1,120,0|8,3:0|2:0,2:0:0:0:
396,198,77582,2,0,P|378:254|395:311,1,120,0|8,3:0|2:0,2:0:0:0:
477,361,78207,2,0,B|331:308|375:410|218:356,1,240,0|0,3:0|3:0,2:0:0:0:
174,298,79144,2,0,L|107:308,1,60,8|0,2:0|2:0,2:0:0:0:
75,278,79457,6,0,L|90:144,1,120,0|8,3:0|2:0,2:0:0:0:
101,115,79925,1,0,2:0:0:0:
101,115,80082,2,0,P|155:73|229:83,1,120,0|8,3:0|2:0,2:0:0:0:
245,107,80550,1,0,2:0:0:0:
245,107,80707,2,0,P|303:103|348:64,1,120,0|8,3:0|2:0,2:0:0:0:
433,20,81332,2,0,P|443:57|437:91,1,60,0|0,3:0|3:0,2:0:0:0:
421,122,81644,1,8,2:0:0:0:
483,194,81957,6,0,L|467:322,1,120,0|8,3:0|2:0,2:0:0:0:
430,343,82425,2,0,L|310:328,1,120,0|0,2:0|3:0,2:0:0:0:
270,354,82894,1,8,2:0:0:0:
192,297,83207,2,0,L|127:306,2,60,0|0|12,3:0|3:2|2:0,2:0:0:0:
237,212,83832,2,0,L|228:152,1,60,8|8,2:0|2:0,2:0:0:0:
264,120,84144,2,0,L|272:60,1,60,8|8,3:2|3:2,2:0:0:0:
306,26,84457,6,0,P|371:11|441:38,1,120,4|8,3:2|2:0,2:0:0:0:
441,74,84925,1,0,2:0:0:0:
441,74,85082,2,0,L|424:194,1,120,0|8,3:0|2:0,2:0:0:0:
454,236,85550,1,0,2:0:0:0:
454,236,85707,2,0,L|437:356,1,120,0|8,3:0|2:0,2:0:0:0:
345,382,86332,2,0,L|328:262,1,120,0|8,3:0|2:0,2:0:0:0:
292,230,86800,1,0,2:0:0:0:
292,230,86957,5,4,3:2:0:0:
208,276,87269,2,0,P|173:277|135:260,1,60,8|8,2:0|2:0,2:0:0:0:
125,227,87582,5,4,3:2:0:0:
198,165,87894,2,0,P|172:140|157:102,1,60,8|8,2:0|2:0,2:0:0:0:
174,72,88207,5,4,3:2:0:0:
268,89,88519,2,0,P|267:54|284:16,1,60,8|8,2:0|2:0,2:0:0:0:
317,7,88832,2,0,L|382:12,1,60,4|0,3:2|3:0,2:0:0:0:
418,35,89144,1,8,0:0:0:0:
512,57,89457,6,0,L|496:175,1,120,4|8,3:1|2:0,2:0:0:0:
463,211,89925,1,8,2:0:0:0:
463,211,90082,2,0,P|469:243|473:277,1,60,8|8,3:2|2:0,2:0:0:0:
510,299,90394,2,0,P|506:328|500:358,1,60,8|8,2:0|2:0,2:0:0:0:
459,383,90707,5,4,3:2:0:0:
379,329,91019,1,8,2:0:0:0:
289,364,91332,2,0,P|220:368|166:335,1,120,8|8,3:2|2:0,2:0:0:0:
128,261,91957,6,0,B|120:212|120:212|127:188|127:188|116:124,1,120,4|8,3:2|2:0,2:0:0:0:
139,99,92425,2,0,P|206:98|264:112,1,120,2|2,3:0|3:0,2:0:0:0:
311,189,93050,2,0,P|369:201|429:199,1,120,4|0,3:2|3:0,2:0:0:0:
470,173,93519,1,8,2:0:0:0:
444,80,93832,2,0,L|429:14,2,60,0|0|8,3:0|3:0|2:0,2:0:0:0:
349,94,94457,6,0,P|317:91|290:83,1,60,4|0,3:2|3:0,2:0:0:0:
252,53,94769,1,8,2:0:0:0:
252,53,94925,2,0,L|116:68,1,120,2|2,3:0|3:0,2:0:0:0:
71,140,95550,1,4,3:2:0:0:
160,253,96019,6,0,B|173:318|141:308|156:373,2,120,0|0|0,2:0|2:0|2:0,2:0:0:0:
121,164,96957,6,0,P|152:155|180:158,1,60,4|0,3:1|2:0,2:0:0:0:
221,179,97269,2,0,P|283:190|342:165,1,120,10|0,2:0|3:0,2:0:0:0:
367,135,97738,1,0,3:0:0:0:
367,135,97894,2,0,L|350:1,1,120,10|2,2:0|3:1,2:0:0:0:
271,68,98519,5,10,2:0:0:0:
183,27,98832,1,2,3:1:0:0:
118,98,99144,2,0,P|85:100|40:84,1,60,10|0,2:0|2:0,2:0:0:0:
24,126,99457,6,0,P|43:195|46:250,1,120,2|10,3:1|2:0,2:0:0:0:
121,302,100082,2,0,P|120:333|114:361,2,60,0|0|10,3:0|3:0|2:0,2:0:0:0:
186,231,100707,2,0,L|325:218,1,120,2|10,3:1|2:0,2:0:0:0:
392,259,101332,2,0,L|460:250,1,60,2|0,3:1|3:0,2:0:0:0:
490,223,101644,1,10,2:0:0:0:
467,129,101957,6,0,P|428:102|341:109,1,120,4|10,3:2|2:0,2:0:0:0:
311,115,102425,2,0,L|281:-7,1,120,2|2,3:0|3:0,2:0:0:0:
237,16,102894,2,0,L|169:5,1,60,10|2,2:0|2:3,2:0:0:0:
136,31,103207,2,0,L|150:150,1,120,0|10,3:0|2:0,2:0:0:0:
117,184,103675,1,2,3:0:0:0:
63,263,103988,1,2,3:0:0:0:
134,326,104300,1,2,2:3:0:0:
181,319,104457,6,0,L|249:314,1,60,0|2,3:0|2:3,2:0:0:0:
275,281,104769,2,0,L|334:285,1,60,10|2,2:0|3:0,2:0:0:0:
371,306,105082,2,0,P|395:250|383:186,1,120,0|10,3:0|2:0,2:0:0:0:
331,114,105707,6,0,L|151:102,1,180,8|4,2:3|2:3,2:0:0:0:
112,130,106332,2,0,L|124:252,1,120,8|8,2:0|2:0,2:0:0:0:
195,313,106957,5,4,3:1:0:0:
279,266,107269,1,10,2:0:0:0:
364,308,107582,2,0,P|392:314|442:294,2,60,0|0|10,3:0|3:0|2:0,2:0:0:0:
279,266,108207,6,0,P|276:236|284:207,1,60,2|0,3:1|2:0,2:0:0:0:
319,174,108519,2,0,L|451:163,1,120,10|2,2:0|3:1,2:0:0:0:
468,127,108988,1,0,3:0:0:0:
468,127,109144,2,0,P|483:65|451:-7,1,120,10|2,2:0|3:1,2:0:0:0:
370,2,109769,5,10,2:0:0:0:
304,71,110082,1,2,3:1:0:0:
222,20,110394,2,0,L|144:6,1,60,10|0,2:0|2:0,2:0:0:0:
130,44,110707,6,0,P|121:114|152:168,1,120,2|10,3:1|2:0,2:0:0:0:
217,216,111332,2,0,P|245:206|274:200,1,60,0|0,3:0|3:0,2:0:0:0:
312,169,111644,2,0,P|341:175|369:185,1,60,8|4,3:0|3:0,2:0:0:0:
417,178,111957,6,0,L|402:310,1,120,12|0,2:0|3:0,2:0:0:0:
372,333,112425,2,0,P|316:353|258:342,1,120,12|0,2:0|3:0,2:0:0:0:
224,307,112894,2,0,L|157:299,1,60,8|0,2:0|3:0,2:0:0:0:
120,318,113207,5,12,2:0:0:0:
50,251,113519,1,0,3:0:0:0:
50,251,113675,2,0,P|50:183|65:123,1,120,12|0,2:0|3:0,2:0:0:0:
95,98,114144,2,0,L|173:91,1,60,8|0,2:0|3:0,2:0:0:0:
191,60,114457,6,0,L|315:69,1,120,12|0,2:0|3:0,2:0:0:0:
339,106,114925,2,0,L|463:97,1,120,12|0,2:0|3:0,2:0:0:0:
496,126,115394,1,12,2:0:0:0:
506,221,115707,6,8,P|459:313|348:296,1,180,8|0,2:3|2:0,2:3:0:0:
359,284,116332,2,0,B|254:258|273:318|169:290,1,180,8|0,2:0|2:0,2:0:0:0:
150,257,116957,1,4,3:1:0:0:
61,316,125082,6,0,L|195:301,1,120,10|12,2:0|2:0,2:0:0:0:
261,353,125707,2,0,P|275:324|277:288,1,60,8|0,3:2|3:0,2:0:0:0:
311,262,126019,2,0,P|305:230|286:199,1,60,8|0,3:2|3:0,2:0:0:0:
270,163,126332,2,0,L|146:146,1,120,8|4,2:0|3:2,2:0:0:0:
73,90,126957,5,4,3:1:0:0:
38,180,127269,1,10,2:0:0:0:
107,247,127582,2,0,P|117:281|117:324,2,60,0|2|10,3:0|3:0|2:0,2:0:0:0:
192,202,128207,6,0,L|251:197,1,60,2|2,3:1|2:3,2:0:0:0:
287,164,128519,2,0,L|413:175,1,120,10|2,2:0|3:1,2:0:0:0:
449,149,128988,1,2,3:0:0:0:
449,149,129144,2,0,P|465:85|432:15,1,120,10|2,2:0|3:1,2:0:0:0:
355,11,129769,5,10,2:0:0:0:
273,62,130082,1,2,3:1:0:0:
187,18,130394,2,0,L|109:4,1,60,10|0,2:0|2:0,2:0:0:0:
88,34,130707,6,0,P|89:96|110:158,1,120,2|10,3:1|2:0,2:0:0:0:
185,206,131332,1,0,3:0:0:0:
273,168,131644,2,0,L|332:174,1,60,8|4,3:0|3:0,2:0:0:0:
364,210,131957,6,0,P|382:271|349:342,1,120,12|0,2:0|3:0,2:0:0:0:
320,307,132425,2,0,L|200:318,1,120,8|0,2:0|3:0,2:0:0:0:
158,342,132894,2,0,L|91:334,1,60,8|0,2:0|3:0,2:0:0:0:
62,302,133207,5,12,2:0:0:0:
128,233,133519,1,0,3:0:0:0:
128,233,133675,2,0,P|141:163|113:105,1,120,8|0,2:0|3:0,2:0:0:0:
92,82,134144,2,0,P|91:49|102:6,1,60,8|0,2:0|3:0,2:0:0:0:
138,0,134457,1,4,3:1:0:0:
216,54,134769,6,0,P|246:68|280:72,1,60,8|8,3:2|3:2,2:0:0:0:
311,100,135082,2,0,P|342:88|368:67,1,60,8|8,3:2|3:2,2:0:0:0:
410,65,135394,2,0,P|423:34|428:0,1,60,8|2,3:2|1:2,2:0:0:0:
