osu file format v14

[General]
AudioFilename: audio.mp3
AudioLeadIn: 0
PreviewTime: 44379
Countdown: 0
SampleSet: Soft
StackLeniency: 0.7
Mode: 0
LetterboxInBreaks: 0
WidescreenStoryboard: 1

[Editor]
Bookmarks: 10395,69769,71957
DistanceSpacing: 1.3
BeatDivisor: 4
GridSize: 32
TimelineZoom: 2

[Metadata]
Title:Mou Ii kai?
TitleUnicode:もういいかい?
Artist:THE ORAL CIGARETTES
ArtistUnicode:THE ORAL CIGARETTES
Creator:sparxo
Version:AF's Insane (ft. sparxo)
Source:
Tags:trailmix nevo affirmation af neoskylove karcher [karcher] toybot vikala mifuru みふる kisses and kills japanese rock j-rock jrock 2018
BeatmapID:3069847
BeatmapSetID:1269899

[Difficulty]
HPDrainRate:5
CircleSize:4
OverallDifficulty:7.8
ApproachRate:9
SliderMultiplier:1
SliderTickRate:1

[Events]
//Background and Video events
0,0,"BG.jpg",0,0
//Break Periods
//Storyboard Layer 0 (Background)
//Storyboard Layer 1 (Fail)
//Storyboard Layer 2 (Pass)
//Storyboard Layer 3 (Foreground)
//Storyboard Layer 4 (Overlay)
//Storyboard Sound Samples

[TimingPoints]
-855,312.5,4,2,2,80,1,0
82,-108.695652173913,4,2,2,50,0,0
316,-108.695652173913,4,2,2,5,0,0
395,-68.4931506849315,4,2,2,80,0,0
707,-68.4931506849315,4,2,2,70,0,0
1644,-68.4931506849315,4,2,2,80,0,0
1957,-68.4931506849315,4,2,2,65,0,0
2895,-68.4931506849315,4,2,2,80,0,0
3051,-68.4931506849315,4,2,2,70,0,0
4144,-68.4931506849315,4,2,2,80,0,0
4457,-68.4931506849315,4,2,2,65,0,0
5395,-68.4931506849315,4,2,2,80,0,0
5551,-68.4931506849315,4,2,2,70,0,0
6644,-68.4931506849315,4,2,2,80,0,0
6957,-68.4931506849315,4,2,2,65,0,0
7582,-68.4931506849315,4,2,2,70,0,0
7895,-68.4931506849315,4,2,2,80,0,0
8051,-68.4931506849315,4,2,2,70,0,0
9145,-68.4931506849315,4,2,2,80,0,0
9301,-68.4931506849315,4,2,2,70,0,0
10082,-68.4931506849315,4,2,1,80,0,0
11722,-68.4931506849315,4,2,1,5,0,0
11801,-68.4931506849315,4,2,1,80,0,0
14222,-68.4931506849315,4,2,1,5,0,0
14301,-68.4931506849315,4,2,1,80,0,0
15395,-68.4931506849315,4,2,1,70,0,0
24613,-68.4931506849315,4,2,1,5,0,0
24770,-68.4931506849315,4,2,1,70,0,0
34457,-68.4931506849315,4,2,1,80,0,0
34691,-68.4931506849315,4,2,1,5,0,0
34770,-68.4931506849315,4,2,1,80,0,0
35082,-68.4931506849315,4,2,1,70,0,0
35395,-68.4931506849315,4,2,1,80,0,0
35707,-75.7575757575758,4,2,1,60,0,0
36645,-75.7575757575758,4,2,1,80,0,0
36957,-75.7575757575758,4,2,1,60,0,0
37895,-75.7575757575758,4,2,1,80,0,0
38207,-75.7575757575758,4,2,1,60,0,0
38832,-75.7575757575758,4,2,1,70,0,0
39145,-75.7575757575758,4,2,1,80,0,0
40707,-75.7575757575758,4,2,2,70,0,0
42582,-75.7575757575758,4,2,1,80,0,0
44613,-75.7575757575758,4,2,1,85,0,0
44926,-75.7575757575758,4,2,1,90,0,0
45707,-59.5238095238095,4,2,1,90,0,0
54223,-59.5238095238095,4,2,1,88,0,0
54301,-59.5238095238095,4,2,1,85,0,0
54379,-59.5238095238095,4,2,1,83,0,0
54457,-59.5238095238095,4,2,1,80,0,0
54535,-59.5238095238095,4,2,1,78,0,0
54613,-59.5238095238095,4,2,1,75,0,0
54691,-59.5238095238095,4,2,1,73,0,0
54770,-59.5238095238095,4,2,1,90,0,0
60082,-59.5238095238095,4,2,1,80,0,0
60395,-59.5238095238095,4,2,1,90,0,0
64770,-59.5238095238095,4,2,1,80,0,0
65395,312.5,3,2,1,80,1,0
65395,-70.4225352112676,3,2,1,80,0,0
66020,-70.4225352112676,3,2,1,70,0,0
66332,-70.4225352112676,3,2,1,80,0,0
66957,-70.4225352112676,3,2,1,70,0,0
67270,-70.4225352112676,3,2,1,80,0,0
67895,-70.4225352112676,3,2,1,70,0,0
68207,-70.4225352112676,3,2,1,80,0,0
68832,-104.166666666667,3,2,1,60,0,0
69300,-104.166666666667,3,2,1,5,0,0
69457,312.5,4,2,1,80,1,0
69457,-73.529411764706,4,2,1,80,0,0
69691,-73.529411764706,4,2,1,5,0,0
69769,-73.529411764706,4,2,2,70,0,0
72269,-73.529411764706,4,2,1,70,0,0
72425,-73.529411764706,4,2,1,75,0,0
72894,-73.529411764706,4,2,1,80,0,0
73363,-73.529411764706,4,2,1,85,0,0
74457,-68.4931506849315,4,2,1,70,0,0
83675,-68.4931506849315,4,2,1,5,0,0
83832,-68.4931506849315,4,2,1,70,0,0
84144,-68.4931506849315,4,2,1,60,0,0
84457,-68.4931506849315,4,2,1,70,0,0
87347,-68.4931506849315,4,2,2,70,0,0
87894,-68.4931506849315,4,2,1,70,0,0
87972,-68.4931506849315,4,2,2,70,0,0
88207,-68.4931506849315,4,2,2,75,0,0
88519,-68.4931506849315,4,2,1,75,0,0
88597,-68.4931506849315,4,2,2,70,0,0
88832,-68.4931506849315,4,2,2,80,0,0
89144,-68.4931506849315,4,2,1,80,0,0
89769,-68.4931506849315,4,2,1,70,0,0
90082,-68.4931506849315,4,2,1,73,0,0
90394,-68.4931506849315,4,2,1,76,0,0
90707,-68.4931506849315,4,2,1,80,0,0
91019,-68.4931506849315,4,2,1,70,0,0
91957,-68.4931506849315,4,2,1,80,0,0
93362,-68.4931506849315,4,2,1,70,0,0
94300,-68.4931506849315,4,2,1,5,0,0
94457,-68.4931506849315,4,2,1,80,0,0
95238,-68.4931506849315,4,2,1,85,0,0
95550,-68.4931506849315,4,2,1,90,0,0
97269,-59.5238095238095,4,2,1,90,0,0
105785,-59.5238095238095,4,2,1,88,0,0
105863,-59.5238095238095,4,2,1,85,0,0
105941,-59.5238095238095,4,2,1,83,0,0
106019,-59.5238095238095,4,2,1,80,0,0
106097,-59.5238095238095,4,2,1,78,0,0
106175,-59.5238095238095,4,2,1,75,0,0
106253,-59.5238095238095,4,2,1,73,0,0
106332,-59.5238095238095,4,2,1,90,0,0
116957,-70.4225352112676,4,2,1,80,0,0
127269,-59.5238095238095,4,2,1,80,0,0
128207,-59.5238095238095,4,2,1,85,0,0
129457,-59.5238095238095,4,2,1,90,0,0
135550,-59.5238095238095,4,2,1,80,0,0
136198,312.5,4,2,1,80,1,0

[Colours]
Combo1 : 152,205,222
Combo2 : 255,223,176
Combo3 : 37,185,239

[HitObjects]
39,144,82,6,0,B|29:189|29:189|36:210,1,69,2|0,2:0|2:0,2:0:0:0:
45,219,395,6,0,L|118:206,1,73,4|0,3:2|2:0,2:0:0:0:
254,360,707,1,8,3:2:0:0:
235,361,785,1,8,0:0:0:0:
217,361,863,1,8,0:0:0:0:
199,359,941,1,8,0:0:0:0:
181,355,1019,1,8,3:2:0:0:
163,350,1097,1,8,0:0:0:0:
146,344,1175,1,8,0:0:0:0:
130,336,1253,1,8,0:0:0:0:
114,326,1332,2,0,L|99:283,3,36.5000010025025,8|8|8|8,3:2|0:2|0:2|0:2,0:0:0:0:
172,259,1645,6,0,L|244:273,1,73.0000020050049,12|8,3:2|0:0,0:0:0:0:
334,348,1957,2,0,L|372:332,3,36.5000010025025,8|8|8|8,3:2|0:0|0:0|0:0,0:0:0:0:
414,342,2270,2,0,L|441:311,3,36.5000010025025,8|8|8|8,3:2|0:0|0:0|0:0,0:0:0:0:
483,302,2582,2,0,L|495:262,3,36.5000010025025,8|8|8|8,3:2|0:0|0:0|0:0,0:0:0:0:
443,200,2895,6,0,L|369:205,1,73,12|8,3:2|2:0,2:0:0:0:
267,109,3207,1,8,3:2:0:0:
248,108,3285,1,8,0:0:0:0:
230,108,3363,1,8,0:0:0:0:
212,110,3441,1,8,0:0:0:0:
194,114,3519,1,8,3:2:0:0:
176,119,3597,1,8,0:0:0:0:
159,125,3675,1,8,0:0:0:0:
143,133,3753,1,8,0:0:0:0:
127,143,3832,2,0,L|112:186,3,36.5000010025025,8|8|8|8,3:2|0:0|0:0|0:0,0:0:0:0:
46,226,4145,6,0,L|60:298,1,73.0000020050049,12|8,3:2|0:0,0:0:0:0:
194,246,4457,2,0,L|210:208,3,36.5000010025025,8|8|8|8,3:2|0:0|0:0|0:0,0:0:0:0:
243,180,4770,2,0,L|227:142,3,36.5000010025025,8|8|8|8,3:2|0:0|0:0|0:0,0:0:0:0:
194,114,5082,2,0,L|210:76,3,36.5000010025025,8|8|8|8,3:2|0:0|0:0|0:0,0:0:0:0:
275,31,5395,6,0,L|348:18,1,73,12|8,3:2|2:0,2:0:0:0:
448,84,5707,1,8,3:2:0:0:
449,103,5785,1,8,0:0:0:0:
449,121,5863,1,8,0:0:0:0:
447,139,5941,1,8,0:0:0:0:
443,157,6019,1,8,3:2:0:0:
438,175,6097,1,8,0:0:0:0:
432,192,6175,1,8,0:0:0:0:
424,208,6253,1,8,0:0:0:0:
414,224,6332,2,0,P|400:240|383:253,3,36.5000010025025,8|8|8|8,3:2|0:0|0:0|0:0,0:0:0:0:
310,274,6645,6,0,L|238:260,1,73.0000020050049,12|8,3:2|0:0,0:0:0:0:
129,339,6957,2,0,L|94:328,3,36.5000010025025,8|8|8|8,3:2|0:0|0:0|0:0,0:0:0:0:
81,283,7270,2,0,L|53:258,3,36.5000010025025,8|8|8|8,3:2|0:0|0:0|0:0,0:0:0:0:
62,212,7582,2,0,L|47:178,3,36.5000010025025,8|8|8|8,3:2|0:0|0:0|0:0,0:0:0:0:
93,93,7895,6,8,L|166:87,1,73,12|8,3:2|2:0,2:0:0:0:
258,156,8207,1,8,3:2:0:0:
277,157,8285,1,8,0:0:0:0:
295,157,8363,1,8,0:0:0:0:
313,155,8441,1,8,0:0:0:0:
331,151,8519,1,8,3:2:0:0:
349,146,8597,1,8,0:0:0:0:
366,140,8675,1,8,0:0:0:0:
382,132,8753,1,8,0:0:0:0:
398,122,8832,2,0,P|414:108|427:91,1,36.5000010025025,8|8,3:2|0:0,0:0:0:0:
405,21,8988,2,0,P|384:14|363:11,1,36.5000010025025,8|8,0:0|0:0,0:0:0:0:
313,155,9145,6,0,L|354:217,1,73,12|8,3:2|2:0,2:0:0:0:
334,299,9457,2,0,L|400:331,1,73,8|8,3:2|2:0,2:0:0:0:
511,384,9770,5,0,3:0:0:0:
511,384,9848,1,0,3:0:0:0:
511,384,9926,1,0,3:0:0:0:
511,384,10004,1,0,3:0:0:0:
511,384,10082,1,4,3:1:0:0:
491,247,10395,5,8,3:2:0:0:
287,229,10551,1,8,2:0:0:0:
491,247,10863,5,8,2:0:0:0:
389,238,11176,1,8,2:0:0:0:
287,229,11488,2,0,L|177:234,1,109.5,4|0,3:2|2:0,2:0:0:0:
177,234,11801,5,8,2:0:0:0:
389,238,11957,2,0,L|461:234,1,73,8|0,2:0|2:0,2:0:0:0:
330,321,12270,5,8,2:0:0:0:
331,339,12348,1,8,2:0:0:0:
332,358,12426,1,8,3:2:0:0:
433,331,12582,5,8,2:0:0:0:
434,349,12660,1,8,2:0:0:0:
435,368,12738,1,8,3:2:0:0:
346,146,12895,5,8,3:2:0:0:
228,312,13051,2,0,L|155:315,1,73,8|10,2:0|2:0,2:0:0:0:
330,321,13363,5,2,3:0:0:0:
287,229,13676,1,2,3:0:0:0:
244,137,13988,2,0,L|249:27,1,109.5,4|0,3:2|2:0,2:0:0:0:
249,27,14301,5,8,2:0:0:0:
287,229,14457,1,8,2:0:0:0:
287,229,14613,1,8,2:0:0:0:
170,92,14770,5,8,2:3:0:0:
151,92,14848,1,8,2:3:0:0:
133,93,14926,1,8,2:3:0:0:
115,94,15004,1,8,2:3:0:0:
97,95,15082,2,0,L|60:94,3,36.5,4|4|4|4,2:3|2:3|2:3|2:3,2:0:0:0:
45,88,15395,6,0,P|41:124|46:160,1,73,4|0,3:1|2:0,2:0:0:0:
128,263,15707,2,0,P|132:227|126:191,1,73,8|0,2:0|2:0,2:0:0:0:
212,187,15941,1,8,0:0:0:0:
212,187,16020,2,0,P|208:223|213:259,1,73,0|0,3:0|3:0,2:0:0:0:
288,145,16332,2,0,P|291:108|286:72,1,73,8|0,2:0|2:0,2:0:0:0:
213,259,16645,6,0,L|234:330,1,73.0000020050049,0|0,3:0|3:0,2:0:0:0:
309,214,16957,2,0,L|287:142,1,73.0000020050049,8|0,2:0|2:0,2:0:0:0:
198,75,17270,5,0,3:0:0:0:
281,55,17426,1,0,3:0:0:0:
366,37,17582,2,0,B|359:66|359:66|370:106,1,73,8|0,2:0|2:0,2:0:0:0:
447,236,17895,5,0,3:0:0:0:
447,236,18051,1,0,2:0:0:0:
364,205,18207,2,0,L|291:207,1,73,8|0,2:0|2:0,2:0:0:0:
441,246,18520,5,0,3:0:0:0:
441,246,18676,1,0,3:0:0:0:
357,214,18832,2,0,L|285:217,1,73,8|0,2:0|2:0,2:0:0:0:
364,312,19145,5,0,3:0:0:0:
512,273,19301,1,0,3:0:0:0:
364,312,19457,2,0,P|322:313|281:307,1,73.0000020050049,8|0,2:0|2:0,2:0:0:0:
291,309,19691,1,8,0:0:0:0:
291,309,19770,5,0,3:0:0:0:
357,214,19926,1,0,3:0:0:0:
446,313,20082,2,0,P|439:355|430:384,1,73.0000020050049,8|0,2:0|2:0,2:0:0:0:
189,349,20395,6,0,P|180:276|186:204,1,146,0|8,3:0|2:0,2:0:0:0:
253,8,20863,1,0,2:0:0:0:
253,8,21020,2,0,P|262:81|257:154,1,146,0|8,3:0|2:0,2:0:0:0:
179,276,21488,1,0,0:0:0:0:
179,276,21566,1,8,0:0:0:0:
179,276,21645,6,0,P|174:239|177:203,1,73,0|0,3:0|3:2,2:0:0:0:
245,79,21957,2,0,P|249:115|246:151,1,73,8|0,2:0|2:0,2:0:0:0:
169,274,22270,1,0,3:0:0:0:
167,201,22426,1,0,3:0:0:0:
235,77,22582,2,0,P|239:113|236:149,1,73,8|0,2:0|2:0,2:0:0:0:
314,279,22895,5,0,3:0:0:0:
314,279,23051,1,0,3:2:0:0:
398,247,23207,2,0,L|470:249,1,73,8|0,2:0|2:0,2:0:0:0:
314,279,23520,2,0,L|168:273,1,146,0|8,3:0|2:0,2:0:0:0:
81,222,23988,1,0,0:0:0:0:
171,169,24145,5,0,3:0:0:0:
50,127,24301,1,0,3:0:0:0:
165,74,24457,2,0,L|237:71,1,73,12|0,0:2|2:0,2:0:0:0:
411,74,24770,5,8,2:0:0:0:
392,53,24848,1,8,2:0:0:0:
367,43,24926,1,8,2:0:0:0:
340,45,25004,1,8,2:0:0:0:
315,57,25082,2,0,L|316:93,3,36.5,8|8|8|8,2:0|2:0|2:0|2:0,2:0:0:0:
305,170,25395,6,0,L|450:164,1,146,4|8,3:1|2:0,2:0:0:0:
231,218,25863,1,0,2:0:0:0:
231,218,25941,1,8,0:0:0:0:
231,218,26020,2,0,L|85:212,1,146,0|8,3:2|2:0,2:0:0:0:
310,257,26488,1,0,2:0:0:0:
310,257,26645,2,0,L|455:251,1,146,0|8,3:0|2:0,2:0:0:0:
236,305,27113,1,0,2:0:0:0:
236,305,27270,2,0,L|90:299,1,146,0|8,3:0|2:0,2:0:0:0:
310,353,27738,5,0,2:0:0:0:
310,353,27816,1,8,0:0:0:0:
310,353,27895,2,0,L|382:350,1,73,0|0,3:0|3:0,2:0:0:0:
236,305,28207,2,0,L|163:302,1,73,8|0,2:0|2:0,2:0:0:0:
310,257,28520,2,0,L|455:251,1,146,0|8,3:0|2:0,2:0:0:0:
231,218,28988,2,0,L|150:214,1,73.0000020050049,0|0,2:0|3:0,2:0:0:0:
305,170,29301,1,0,0:0:0:0:
305,170,29457,2,0,L|377:167,1,73,8|0,2:0|2:0,2:0:0:0:
226,131,29770,5,0,3:0:0:0:
231,218,29926,1,0,3:0:0:0:
236,305,30082,2,0,L|233:377,1,73,8|0,2:0|2:0,2:0:0:0:
160,235,30395,6,0,P|194:223|230:217,1,73,4|0,3:2|3:0,2:0:0:0:
380,274,30707,2,0,P|346:262|310:257,1,73,8|0,2:0|2:0,2:0:0:0:
154,244,31020,2,0,P|188:232|224:226,1,73,0|0,3:0|3:0,2:0:0:0:
386,283,31332,2,0,P|351:271|315:265,1,73,8|0,2:0|2:0,2:0:0:0:
219,376,31645,6,0,P|233:331|238:303,1,73,0|0,3:0|3:2,2:0:0:0:
293,178,31957,2,0,P|300:213|311:248,1,73,8|0,2:0|2:0,2:0:0:0:
211,371,32270,2,0,P|225:326|230:298,1,73,0|0,3:0|3:0,2:0:0:0:
285,173,32582,1,8,2:0:0:0:
285,173,32738,1,0,2:0:0:0:
221,110,32895,6,0,P|186:116|153:132,1,73,4|0,3:2|3:0,2:0:0:0:
37,189,33207,2,0,P|90:198|139:223,1,109.5,8|8,2:0|2:0,2:0:0:0:
139,223,33520,1,0,3:2:0:0:
229,300,33676,1,0,3:2:0:0:
91,330,33832,2,0,P|126:336|159:352,1,73,8|0,2:0|2:0,2:0:0:0:
159,352,34066,1,8,0:0:0:0:
159,352,34145,5,0,3:0:0:0:
224,214,34301,1,0,3:0:0:0:
312,366,34457,6,0,P|326:313|307:263,1,109.5,12|0,2:0|2:0,2:0:0:0:
295,259,34770,5,8,2:0:0:0:
322,259,34848,1,8,2:0:0:0:
349,259,34926,1,8,2:0:0:0:
377,260,35004,1,8,2:0:0:0:
404,260,35082,2,0,L|402:223,3,36.5,0|0|0|0,3:0|3:0|3:0|3:0,2:0:0:0:
414,214,35395,5,4,3:1:0:0:
414,214,35551,1,0,3:0:0:0:
342,163,35707,2,0,L|276:165,1,66,8|10,2:0|2:3,2:0:0:0:
276,165,35941,1,8,2:3:0:0:
276,165,36020,2,0,L|210:167,1,66,4|2,2:3|2:3,2:0:0:0:
131,171,36332,2,0,L|65:173,1,66,8|2,2:0|2:3,2:0:0:0:
19,107,36645,5,4,3:2:0:0:
19,107,36801,1,0,3:0:0:0:
91,56,36957,2,0,L|156:58,1,66,8|10,2:0|2:3,2:0:0:0:
157,58,37191,1,8,2:3:0:0:
157,58,37270,2,0,L|222:60,1,66,4|2,2:3|2:3,2:0:0:0:
302,64,37582,2,0,L|367:66,1,66,8|10,2:0|2:3,2:0:0:0:
426,12,37895,5,4,3:2:0:0:
426,12,38051,1,0,3:0:0:0:
375,84,38207,2,0,L|377:149,1,66,8|10,2:0|2:3,2:0:0:0:
377,150,38441,1,8,2:3:0:0:
377,150,38520,2,0,L|379:215,1,66,4|2,2:3|2:3,2:0:0:0:
383,295,38832,2,0,L|385:360,1,66,12|0,2:0|2:0,2:0:0:0:
294,334,39145,5,12,3:2:0:0:
472,256,39301,1,0,3:2:0:0:
472,256,39457,1,0,3:0:0:0:
205,217,39613,5,12,2:0:0:0:
383,295,39770,1,0,3:2:0:0:
383,295,39926,1,0,3:0:0:0:
116,334,40082,5,8,2:0:0:0:
177,142,40238,1,8,2:0:0:0:
177,142,40316,1,8,2:0:0:0:
177,142,40395,6,0,P|131:186|132:251,1,132,4|8,3:1|3:2,2:0:0:0:
197,368,40863,1,8,0:0:0:0:
197,368,40941,1,8,0:0:0:0:
197,368,41020,6,8,L|238:354,3,32.999999899292,8|8|8|8,3:2|0:0|0:0|0:0,0:0:0:0:
265,336,41332,2,8,L|296:305,3,32.999999899292,8|8|8|8,3:2|0:0|0:0|0:0,0:0:0:0:
313,278,41645,2,8,L|328:237,3,32.999999899292,8|8|8|8,3:2|0:0|0:0|0:0,0:0:0:0:
299,161,41957,5,8,3:2:0:0:
301,145,42035,1,8,0:0:0:0:
305,129,42113,1,8,0:0:0:0:
312,114,42191,1,8,0:0:0:0:
321,99,42269,1,8,3:2:0:0:
331,88,42347,1,8,0:0:0:0:
344,77,42425,1,8,0:0:0:0:
357,68,42503,1,8,0:0:0:0:
372,60,42582,2,8,P|391:55|411:55,3,32.999999899292
479,87,42895,5,4,3:1:0:0:
361,282,43207,2,0,L|328:278,3,33,8|8|8|8,2:3|2:3|2:3|2:3,2:0:0:0:
294,256,43520,2,0,L|261:259,3,33,4|4|4|4,2:3|2:3|2:3|2:3,2:0:0:0:
227,282,43832,1,4,3:2:0:0:
98,19,44145,5,8,2:0:0:0:
81,196,44301,1,2,3:0:0:0:
350,135,44613,5,2,3:0:0:0:
20,70,44926,5,2,3:0:0:0:
398,238,45395,5,4,3:1:0:0:
398,238,45551,1,0,2:0:0:0:
310,366,45707,2,0,B|278:337|278:337|293:255,1,126,10|8,2:0|2:0,2:0:0:0:
293,255,46020,2,0,L|291:171,1,84,0|0,3:0|3:0,2:0:0:0:
356,48,46332,2,0,B|370:87|370:87|363:128,1,84,10|0,2:0|2:0,2:0:0:0:
257,35,46645,5,2,3:1:0:0:
257,35,46801,1,0,2:0:0:0:
175,162,46957,2,0,L|49:159,1,126,10|8,2:0|2:0,2:0:0:0:
49,159,47270,2,0,B|33:197|33:197|43:238,1,84,2|0,3:1|3:0,2:0:0:0:
111,357,47582,2,0,B|126:318|126:318|117:278,1,84,10|0,2:0|2:0,2:0:0:0:
252,180,47895,5,2,3:1:0:0:
252,180,48051,1,0,2:0:0:0:
275,352,48207,2,0,P|282:290|313:236,1,126,10|8,2:0|2:0,2:0:0:0:
313,236,48520,2,0,L|396:237,1,84,0|0,3:0|3:0,2:0:0:0:
478,103,48832,2,0,L|394:101,1,84,10|0,2:0|2:0,2:0:0:0:
237,36,49145,5,2,3:1:0:0:
237,36,49301,1,0,2:0:0:0:
131,175,49457,2,0,P|169:127|229:130,1,126,10|8,2:0|2:0,2:0:0:0:
229,130,49770,2,0,B|216:172|216:172|224:211,1,84,2|0,3:1|3:0,2:0:0:0:
396,237,50082,2,0,B|409:195|409:195|400:155,1,84,10|0,2:0|2:0,2:0:0:0:
263,293,50395,6,0,B|311:289|355:309|329:316|373:336|422:332,1,168,4|10,3:2|2:0,2:0:0:0:
178,378,50863,2,0,B|138:341|138:341|157:229,1,168,2|2,3:0|3:0,2:0:0:0:
256,103,51332,1,10,2:0:0:0:
157,229,51488,1,2,2:3:0:0:
352,208,51645,6,0,P|310:206|269:197,1,84,0|2,3:0|3:0,2:0:0:0:
170,111,51957,1,10,2:0:0:0:
22,226,52113,2,0,P|101:243|165:193,1,168,2|2,3:0|3:0,2:0:0:0:
256,103,52582,2,0,P|255:61|255:19,1,84,10|2,2:0|2:3,2:0:0:0:
255,19,52816,1,8,2:0:0:0:
255,19,52895,5,0,3:0:0:0:
432,169,53051,1,2,2:3:0:0:
419,6,53207,1,10,2:0:0:0:
269,183,53363,1,2,3:0:0:0:
414,260,53520,2,0,L|497:258,1,84,0|2,3:0|2:3,2:0:0:0:
336,136,53832,1,10,2:0:0:0:
298,318,53988,1,2,3:0:0:0:
195,184,54145,6,0,L|153:185,3,42,8|8|8|8,2:3|2:3|2:3|2:3,2:0:0:0:
90,234,54457,2,0,L|48:235,3,42,4|4|4|4,2:3|2:3|2:3|2:3,2:0:0:0:
3,172,54770,1,8,2:0:0:0:
4,151,54848,1,8,2:0:0:0:
5,130,54926,1,8,2:0:0:0:
7,109,55004,1,8,2:0:0:0:
8,88,55082,1,8,2:0:0:0:
10,67,55160,1,8,2:0:0:0:
11,46,55238,1,8,2:0:0:0:
13,25,55316,1,8,2:0:0:0:
14,5,55395,5,4,3:1:0:0:
116,116,55551,1,0,2:0:0:0:
256,0,55707,2,0,B|279:39|279:39|271:119,1,126,10|8,2:0|2:0,2:0:0:0:
271,119,56020,2,0,L|354:117,1,84,0|0,3:0|3:0,2:0:0:0:
192,267,56332,2,0,P|196:225|194:183,1,84,10|0,2:0|2:0,2:0:0:0:
268,320,56645,5,2,3:1:0:0:
194,183,56801,1,0,2:0:0:0:
74,336,56957,2,0,P|78:273|83:210,1,126,10|8,2:0|2:0,2:0:0:0:
83,210,57270,2,0,P|41:206|4:225,1,84,2|0,3:1|3:0,2:0:0:0:
112,80,57582,2,0,P|148:99|190:95,1,84,10|0,2:0|2:0,2:0:0:0:
340,230,57895,5,2,3:1:0:0:
194,183,58051,1,0,2:0:0:0:
344,112,58207,2,0,B|385:105|385:105|424:119|424:119|466:112,1,126,10|8,2:0|2:0,2:0:0:0:
466,112,58520,2,0,L|465:196,1,84,2|0,3:1|3:0,2:0:0:0:
341,313,58832,2,0,L|339:229,1,84,10|0,2:0|2:0,2:0:0:0:
189,95,59145,5,2,3:1:0:0:
344,112,59301,1,0,2:0:0:0:
192,224,59457,2,0,L|66:217,1,126,10|8,2:0|2:0,2:0:0:0:
66,217,59770,2,0,B|80:256|80:256|74:297,1,84,0|0,3:0|3:0,2:0:0:0:
21,128,60082,2,0,L|22:86,3,42,0|0|0|0,3:0|3:0|3:0|3:0,2:0:0:0:
13,62,60395,6,0,P|54:54|95:45,1,84,12|2,2:0|3:0,2:0:0:0:
219,123,60707,2,0,P|177:130|136:139,1,84,8|2,2:0|3:0,2:0:0:0:
305,25,61020,2,0,P|346:33|387:41,1,84,8|2,2:0|3:0,2:0:0:0:
290,187,61332,1,8,2:0:0:0:
220,26,61488,1,2,3:0:0:0:
290,186,61645,6,0,P|293:228|282:268,1,84,12|2,2:0|3:0,2:0:0:0:
379,123,61957,2,0,P|375:81|386:41,1,84,8|2,2:0|3:0,2:0:0:0:
386,222,62270,1,8,2:0:0:0:
219,123,62426,1,2,3:0:0:0:
386,222,62582,2,0,P|427:216|469:212,1,84,8|2,2:0|3:0,2:0:0:0:
314,357,62895,5,12,2:0:0:0:
290,186,63051,1,2,3:0:0:0:
154,293,63207,1,8,2:0:0:0:
376,303,63363,1,2,3:0:0:0:
173,200,63520,6,0,L|89:206,1,84,8|2,2:0|3:0,2:0:0:0:
258,288,63832,1,8,2:0:0:0:
220,123,63988,1,2,3:0:0:0:
388,180,64145,6,0,L|385:221,3,42,8|8|8|8,2:0|2:0|2:0|2:0,2:0:0:0:
413,190,64457,2,0,L|410:231,3,42,8|8|8|8,2:0|2:0|2:0|2:0,2:0:0:0:
438,200,64770,2,0,L|435:241,3,42,8|8|8|8,3:2|2:3|2:3|2:3,2:0:0:0:
463,210,65082,2,0,L|460:251,3,42,4|4|4|4,3:0|2:3|2:3|2:3,2:0:0:0:
447,285,65395,6,0,P|490:314|486:364,2,106.5,4|2|2,3:2|3:0|3:0,2:0:0:0:
340,345,66020,5,8,2:3:0:0:
331,345,66098,1,8,2:3:0:0:
322,346,66176,1,4,2:3:0:0:
313,346,66254,1,4,2:3:0:0:
304,347,66332,2,0,B|306:240,2,106.5,4|2|2,3:2|3:0|3:0,2:0:0:0:
156,318,66957,5,2,3:2:0:0:
147,319,67035,1,2,3:2:0:0:
138,321,67113,1,2,3:2:0:0:
129,323,67191,1,2,3:2:0:0:
121,324,67270,2,0,P|68:335|19:354,2,106.5,4|2|2,3:2|3:0|3:0,2:0:0:0:
144,213,67895,5,8,2:3:0:0:
143,204,67973,1,8,2:3:0:0:
143,195,68051,1,4,2:3:0:0:
142,186,68129,1,4,2:3:0:0:
142,177,68207,2,0,P|144:124|162:74,2,106.5,8|8|8,2:0|2:0|2:0,2:0:0:0:
252,181,68832,6,2,P|288:142|237:157,1,144,2|0,2:1|2:0,2:1:0:0:
231,270,69457,6,0,L|333:265,1,102,4|0,3:2|2:0,2:0:0:0:
350,272,69769,5,8,3:2:0:0:
366,275,69847,1,8,0:0:0:0:
383,275,69925,1,8,0:0:0:0:
400,272,70003,1,8,0:0:0:0:
416,266,70081,1,8,3:2:0:0:
430,257,70159,1,8,0:0:0:0:
443,246,70237,1,8,0:0:0:0:
453,232,70315,1,8,0:0:0:0:
461,217,70394,2,0,P|462:199|457:181,3,34.0000002075195,8|8|8|8,3:2|0:0|0:0|0:0,0:0:0:0:
418,113,70707,5,8,3:2:0:0:
401,108,70785,1,8,0:0:0:0:
385,104,70863,1,8,0:0:0:0:
368,99,70941,1,8,0:0:0:0:
352,95,71019,1,8,3:2:0:0:
335,91,71097,1,8,0:0:0:0:
319,86,71175,1,8,0:0:0:0:
302,82,71253,1,8,0:0:0:0:
286,78,71332,2,0,L|251:68,3,34.0000002075195,8|8|8|8,3:2|0:0|0:0|0:0,0:0:0:0:
176,86,71644,2,0,L|149:111,3,34.0000002075195,8|8|8|8,3:2|0:0|0:0|0:0,0:0:0:0:
202,182,71957,6,0,P|193:249|184:316,1,136,4|8,3:2|2:0,2:0:0:0:
317,377,72425,2,0,P|325:309|334:242,1,136,4|8,3:2|2:0,2:0:0:0:
416,116,72894,2,0,P|456:166|429:225,1,136,4|8,3:2|2:0,2:0:0:0:
281,146,73363,2,0,P|254:87|294:36,1,136,4|8,3:2|2:0,2:0:0:0:
294,36,74457,6,0,P|221:42|148:50,1,146,4|8,3:1|2:0,2:0:0:0:
82,106,74925,1,0,2:0:0:0:
153,157,75082,2,0,P|164:191|169:227,1,73,0|0,3:0|3:0,2:0:0:0:
221,350,75394,2,0,P|233:316|237:280,1,73,8|0,2:0|2:0,2:0:0:0:
283,170,75707,5,0,3:0:0:0:
283,170,75863,1,0,3:0:0:0:
356,216,76019,2,0,P|392:211|428:206,1,73,8|0,2:0|2:0,2:0:0:0:
483,275,76332,1,0,3:0:0:0:
444,196,76488,1,0,3:0:0:0:
394,324,76644,2,0,P|358:317|323:304,1,73,8|0,2:0|2:0,2:0:0:0:
203,210,76957,6,0,B|161:207|123:224|144:230|106:247|64:244,1,146,0|8,3:0|2:0,2:0:0:0:
82,159,77425,1,0,2:0:0:0:
53,242,77582,2,0,P|56:278|58:314,1,73,0|0,3:0|3:0,2:0:0:0:
188,364,77894,2,0,P|190:327|193:291,1,73,8|0,2:0|2:0,2:0:0:0:
260,148,78207,6,0,P|309:198|379:190,1,146,0|8,3:0|2:0,2:0:0:0:
442,130,78675,1,0,2:0:0:0:
511,265,78832,2,0,P|475:257|439:252,1,73,0|0,3:0|3:0,2:0:0:0:
343,321,79144,2,0,P|306:325|271:333,1,73,8|0,2:0|2:0,2:0:0:0:
188,364,79457,6,0,B|204:327|194:287|180:299|171:260|187:223,1,146,0|8,3:0|2:0,2:0:0:0:
317,179,79925,1,0,2:0:0:0:
317,179,80082,2,0,P|283:167|248:158,1,73,0|0,3:0|3:2,2:0:0:0:
131,100,80394,2,0,P|95:109|61:121,1,73,8|0,2:0|2:0,2:0:0:0:
166,18,80707,6,0,P|226:56|298:51,1,146,0|8,3:0|2:0,2:0:0:0:
298,50,81332,2,0,P|263:58|229:71,1,73,0|0,3:0|3:0,2:0:0:0:
386,94,81644,2,0,P|394:58|407:24,1,73,8|0,2:0|2:0,2:0:0:0:
308,144,81957,6,0,P|341:207|328:278,1,146,0|8,3:0|2:0,2:0:0:0:
346,363,82425,1,0,2:0:0:0:
346,363,82582,2,0,P|309:358|273:355,1,73,0|0,3:0|3:0,2:0:0:0:
116,291,82894,2,0,P|152:287|188:283,1,73,8|0,2:0|2:0,2:0:0:0:
255,226,83207,5,0,3:0:0:0:
255,226,83363,1,0,3:0:0:0:
190,167,83519,2,0,B|179:131|179:131|185:95,1,73,12|0,2:0|2:0,2:0:0:0:
252,39,83832,1,8,2:0:0:0:
270,41,83910,1,8,2:0:0:0:
288,43,83988,1,8,2:0:0:0:
306,46,84066,1,8,2:0:0:0:
324,48,84144,2,0,L|360:47,3,36.5,8|8|8|8,3:2|3:2|3:2|3:2,2:0:0:0:
403,36,84457,6,0,P|355:89|348:161,1,146,4|8,3:2|2:0,2:0:0:0:
409,222,84925,1,0,2:0:0:0:
409,222,85082,2,0,P|429:193|435:157,1,73,0|0,3:0|3:0,2:0:0:0:
324,245,85394,2,0,P|344:274|350:310,1,73,8|0,2:0|2:0,2:0:0:0:
284,368,85707,6,0,P|211:355|139:344,1,146,0|8,3:0|2:0,2:0:0:0:
54,362,86175,1,0,2:0:0:0:
53,361,86332,2,0,P|45:326|32:292,1,73,0|0,3:0|3:0,2:0:0:0:
60,149,86644,1,8,2:0:0:0:
60,149,86800,1,0,2:0:0:0:
129,203,86957,6,0,L|201:200,1,73,4|0,3:2|2:0,2:0:0:0:
275,153,87269,2,0,L|273:116,3,36.5,8|8|8|8,2:0|2:0|2:0|2:0,2:0:0:0:
265,100,87582,2,0,B|290:108|290:108|337:101,1,73,4|0,3:2|2:0,2:0:0:0:
421,81,87894,2,0,L|419:117,3,36.5,8|8|8|8,2:0|2:0|2:0|2:0,2:0:0:0:
411,134,88207,6,0,L|413:206,1,73,4|0,3:2|2:0,2:0:0:0:
380,287,88519,2,0,P|362:283|344:280,3,36.5,8|8|8|8,2:0|2:0|2:0|2:0,2:0:0:0:
330,293,88832,2,0,L|257:290,1,73,4|0,3:2|3:0,2:0:0:0:
171,307,89144,1,8,2:0:0:0:
171,298,89222,1,8,2:0:0:0:
170,289,89300,1,8,2:0:0:0:
170,280,89378,1,8,2:0:0:0:
170,271,89457,6,0,P|171:198|178:125,1,146,4|8,3:1|2:0,2:0:0:0:
237,61,89925,1,8,2:0:0:0:
306,150,90082,2,0,P|285:179|252:194,1,73,8|8,3:2|2:0,2:0:0:0:
125,170,90394,2,0,P|145:140|178:125,1,73,8|8,2:0|2:0,2:0:0:0:
353,225,90707,5,4,3:2:0:0:
352,224,91019,2,0,L|389:226,3,36.5,8|8|8|8,2:0|2:0|2:0|2:0,2:0:0:0:
363,240,91332,2,0,L|399:241,3,36.5,8|8|8|8,3:2|2:0|2:0|2:0,2:0:0:0:
373,255,91644,2,0,L|409:256,3,36.5,8|8|8|8,2:0|2:0|2:0|2:0,2:0:0:0:
442,286,91957,6,0,B|402:276|365:292|379:304|342:320|303:310,1,146,4|8,3:2|2:0,2:0:0:0:
222,275,92425,1,2,3:0:0:0:
456,167,92738,1,2,3:0:0:0:
201,24,93050,6,0,B|181:68|181:68|193:165,1,146,4|0,3:2|3:0,2:0:0:0:
304,235,93519,2,0,P|310:199|318:163,1,73,8|0,2:0|2:0,2:0:0:0:
319,164,93753,1,8,2:0:0:0:
319,164,93832,2,0,L|391:158,1,73,0|0,3:0|3:0,2:0:0:0:
193,164,94144,2,0,L|120:158,1,73,8|0,2:0|2:0,2:0:0:0:
22,239,94457,5,4,3:2:0:0:
102,324,94613,2,0,P|104:287|111:251,1,73,0|8,3:0|2:0,2:0:0:0:
14,350,94925,5,2,3:0:0:0:
213,334,95238,1,2,3:0:0:0:
412,318,95550,1,4,3:2:0:0:
206,113,96957,5,4,3:1:0:0:
206,113,97113,1,0,2:0:0:0:
307,24,97269,2,0,P|336:79|325:140,1,126,10|8,2:0|2:0,2:0:0:0:
325,140,97582,2,0,P|329:99|363:76,1,84,0|0,3:0|3:0,2:0:0:0:
476,207,97894,2,0,P|434:200|392:198,1,84,10|0,2:0|2:0,2:0:0:0:
248,268,98207,5,2,3:1:0:0:
248,268,98363,1,0,2:0:0:0:
411,304,98519,2,0,B|361:322|361:322|322:307|332:262,1,126,10|8,2:0|2:0,2:0:0:0:
332,263,98832,2,0,P|356:295|346:334,1,84,2|0,3:1|3:0,2:0:0:0:
259,182,99144,2,0,P|217:188|175:192,1,84,10|0,2:0|2:0,2:0:0:0:
30,212,99457,5,2,3:1:0:0:
30,212,99613,1,0,2:0:0:0:
114,370,99769,2,0,B|127:328|127:328|109:247,1,126,10|8,2:0|2:0,2:0:0:0:
109,247,100082,2,0,B|100:290|100:290|121:324,1,84,0|0,3:0|3:0,2:0:0:0:
320,339,100394,2,0,B|341:304|341:304|331:262,1,84,10|0,2:0|2:0,2:0:0:0:
254,113,100707,5,2,3:1:0:0:
254,113,100863,1,0,2:0:0:0:
431,177,101019,2,0,B|398:144|340:157|340:157|320:177,1,126,10|8,2:0|2:0,2:0:0:0:
320,177,101332,2,0,P|286:201|244:207,1,84,2|0,3:1|3:0,2:0:0:0:
436,299,101644,2,0,P|401:275|360:269,1,84,10|8,2:0|2:0,2:0:0:0:
196,279,101957,6,0,B|225:315|225:315|275:280|244:206,1,168,4|10,3:2|2:0,2:0:0:0:
156,90,102425,2,0,B|145:128|172:182|172:182|190:140|224:134,1,168,2|2,3:0|3:0,2:0:0:0:
434,196,102894,1,10,2:0:0:0:
244,206,103050,1,2,2:3:0:0:
382,57,103207,6,0,P|373:98|364:139,1,84,0|2,3:0|3:0,2:0:0:0:
454,184,103519,1,10,2:0:0:0:
377,320,103675,2,0,P|360:237|342:155,1,168,2|2,3:0|3:0,2:0:0:0:
295,23,104144,2,0,P|258:40|254:80,1,84,10|2,2:0|2:3,2:0:0:0:
255,81,104378,1,8,2:0:0:0:
254,80,104457,5,0,3:0:0:0:
244,206,104613,1,2,2:3:0:0:
117,197,104769,1,10,2:0:0:0:
126,70,104925,1,2,3:0:0:0:
255,225,105082,2,0,B|263:265|263:265|245:302,1,84,0|2,3:0|2:3,2:0:0:0:
342,155,105394,1,10,2:0:0:0:
167,264,105550,1,2,3:0:0:0:
369,375,105707,6,0,P|374:354|375:333,3,42,8|8|8|8,2:3|2:3|2:3|2:3,2:0:0:0:
438,285,106019,2,0,P|432:264|423:246,3,42,4|4|4|4,2:3|2:3|2:3|2:3,2:0:0:0:
452,172,106332,1,8,2:0:0:0:
434,183,106410,1,8,2:0:0:0:
414,189,106488,1,8,2:0:0:0:
393,188,106566,1,8,2:0:0:0:
373,182,106644,1,8,2:0:0:0:
356,171,106722,1,8,2:0:0:0:
342,155,106800,1,8,2:0:0:0:
334,136,106878,1,8,2:0:0:0:
331,115,106957,5,4,3:1:0:0:
253,246,107113,1,0,2:0:0:0:
144,95,107269,2,0,P|90:120|95:179,1,126,10|8,2:0|2:0,2:0:0:0:
96,179,107582,2,0,P|137:171|178:179,1,84,0|0,3:0|3:0,2:0:0:0:
147,343,107894,2,0,B|132:314|132:314|136:262,1,84,10|0,2:0|2:0,2:0:0:0:
331,222,108207,5,2,3:1:0:0:
236,336,108363,1,0,2:0:0:0:
406,363,108519,2,0,B|433:332|433:332|424:247,1,126,10|8,2:0|2:0,2:0:0:0:
424,247,108832,2,0,P|399:280|408:320,1,84,2|0,3:1|3:0,2:0:0:0:
496,144,109144,2,0,P|454:138|414:127,1,84,10|0,2:0|2:0,2:0:0:0:
236,182,109457,5,2,3:1:0:0:
406,159,109613,1,0,2:0:0:0:
280,16,109769,2,0,P|320:63|309:122,1,126,10|8,2:0|2:0,2:0:0:0:
309,122,110082,2,0,P|323:84|359:65,1,84,2|0,3:1|3:0,2:0:0:0:
236,182,110394,2,0,P|216:145|178:131,1,84,10|0,2:0|2:0,2:0:0:0:
153,279,110707,5,2,3:1:0:0:
364,292,110863,1,0,2:0:0:0:
157,297,111019,2,0,B|226:289|199:323|279:316,1,126,10|8,2:0|2:0,2:0:0:0:
279,315,111332,2,0,P|269:275|293:242,1,84,0|0,3:0|3:0,2:0:0:0:
375,183,111644,2,0,L|416:184,2,42,8|8|4,3:0|3:0|3:0,2:0:0:0:
237,145,111957,6,0,P|230:104|230:62,1,84,12|0,2:0|3:0,2:0:0:0:
315,97,112269,1,0,3:0:0:0:
149,213,112425,6,0,P|156:254|156:296,1,84,12|0,2:0|3:0,2:0:0:0:
72,262,112738,1,0,3:0:0:0:
64,113,112894,6,0,P|105:120|147:120,1,84,8|0,2:0|3:0,2:0:0:0:
293,242,113207,6,0,P|334:234|376:234,1,84,12|0,2:0|3:0,2:0:0:0:
343,320,113519,1,0,3:0:0:0:
468,177,113675,6,0,P|463:135|459:94,1,84,12|0,2:0|3:0,2:0:0:0:
382,146,113988,1,0,3:0:0:0:
455,284,114144,6,0,P|450:325|445:367,1,84,8|0,2:0|3:0,2:0:0:0:
259,329,114457,6,0,P|300:324|342:319,1,84,12|0,2:0|3:0,2:0:0:0:
376,234,114769,1,0,3:0:0:0:
263,120,114925,6,0,P|267:161|272:203,1,84,12|0,2:0|3:0,2:0:0:0:
181,188,115238,1,0,3:0:0:0:
123,335,115394,6,0,P|109:295|111:253,1,84,12|0,2:0|3:0,2:0:0:0:
170,101,115707,6,8,L|166:45,2,56,8|8|8,2:3|2:3|2:3,2:3:0:0:
248,90,116019,2,0,L|244:34,2,56,4|4|4,2:3|2:3|2:3,2:0:0:0:
326,79,116332,2,0,L|322:23,2,56,8|8|8,2:0|2:0|2:0,2:0:0:0:
404,68,116644,2,0,L|400:12,2,56,0|8|4,3:0|3:0|3:0,2:0:0:0:
446,139,116957,6,0,P|395:153|352:184,2,106.5,4|0|2,3:1|3:0|3:0,2:0:0:0:
497,198,117582,1,10,2:0:0:0:
326,79,117894,1,2,2:3:0:0:
288,277,118207,6,0,P|287:224|268:174,2,106.5,0|0|2,3:0|3:0|3:0,2:0:0:0:
230,330,118832,1,10,2:0:0:0:
38,245,119144,1,2,2:3:0:0:
183,127,119457,6,0,L|179:233,2,106.5,0|0|2,3:0|3:0|3:0,2:0:0:0:
104,129,120082,1,10,2:0:0:0:
279,228,120394,1,2,2:3:0:0:
438,113,120707,2,0,L|441:6,2,106.5,0|0|0,3:0|3:0|3:0,2:0:0:0:
438,220,121332,6,8,L|485:222,2,47.3333333333333,8|8|8,2:3|2:3|2:3,2:3:0:0:
416,293,121644,2,4,L|463:295,2,47.3333333333333,4|4|4,2:3|2:3|2:3,2:3:0:0:
352,249,121957,6,0,P|357:195|362:143,2,106.5,4|0|2,3:2|3:0|3:0,2:0:0:0:
299,307,122582,2,0,P|249:258|180:261,1,142,10|0,2:0|2:0,2:0:0:0:
3,332,123207,6,0,L|0:225,2,106.5,0|0|2,3:0|3:0|3:0,2:0:0:0:
69,373,123832,2,0,B|120:350|120:350|102:265,1,142,10|0,2:0|2:0,2:0:0:0:
148,80,124457,6,0,P|97:74|79:27,2,106.5,0|0|2,3:0|3:0|3:0,2:0:0:0:
214,39,125082,2,0,P|225:73|228:109,1,71,10|0,2:0|2:0,2:0:0:0:
348,193,125394,2,0,P|351:157|361:123,1,71,12|0,2:0|2:0,2:0:0:0:
250,213,125707,5,8,3:2:0:0:
250,213,125863,1,0,3:0:0:0:
442,247,126019,1,8,3:2:0:0:
442,247,126175,1,0,3:0:0:0:
273,340,126332,1,8,2:0:0:0:
288,355,126410,2,0,P|284:319|281:284,1,71,8|0,2:0|2:0,2:0:0:0:
250,213,126644,1,4,3:2:0:0:
40,248,126957,5,4,3:1:0:0:
40,248,127113,1,2,2:3:0:0:
155,119,127269,2,0,P|166:79|154:39,1,84,10|2,2:0|2:3,2:0:0:0:
76,38,127503,1,8,0:0:0:0:
76,38,127582,2,0,P|64:77|76:117,1,84,0|2,3:0|3:0,2:0:0:0:
166,217,127894,2,0,L|249:212,1,84,10|0,2:0|2:0,2:0:0:0:
424,152,128207,5,2,3:1:0:0:
424,152,128363,1,2,2:3:0:0:
340,324,128519,2,0,P|328:283|338:243,1,84,10|2,2:0|2:3,2:0:0:0:
423,242,128753,1,8,0:0:0:0:
423,242,128832,2,0,P|434:282|424:322,1,84,2|2,3:1|3:0,2:0:0:0:
340,161,129144,2,0,P|382:157|424:152,1,84,10|0,2:0|2:0,2:0:0:0:
298,52,129457,5,2,3:1:0:0:
298,52,129613,1,2,2:3:0:0:
236,175,129769,2,0,P|231:133|224:92,1,84,10|2,2:0|2:3,2:0:0:0:
141,107,130003,1,8,0:0:0:0:
141,107,130082,2,0,P|146:148|153:190,1,84,2|2,3:1|3:0,2:0:0:0:
269,292,130394,2,0,P|230:275|189:278,1,84,10|0,2:0|2:0,2:0:0:0:
15,283,130707,5,2,3:1:0:0:
15,283,130863,1,2,2:3:0:0:
153,190,131019,2,0,B|115:207|115:207|73:203,1,84,10|2,2:0|2:3,2:0:0:0:
60,119,131332,2,0,B|97:101|97:101|139:105,1,84,0|2,3:0|3:0,2:0:0:0:
269,177,131644,1,8,3:0:0:0:
269,167,131722,1,8,3:0:0:0:
270,156,131800,1,4,3:0:0:0:
270,146,131878,1,0,2:0:0:0:
271,136,131957,6,0,P|311:135|361:119,1,83.9999974365235,12|0,2:0|3:0,2:0:0:0:
290,23,132269,1,0,3:2:0:0:
140,105,132425,2,0,P|59:97|4:156,1,168,8|0,2:0|3:0,2:0:0:0:
175,264,132894,2,0,P|180:222|189:181,1,84,8|0,2:0|3:0,2:0:0:0:
267,355,133207,5,12,0:0:0:0:
121,331,133363,1,0,3:2:0:0:
269,336,133519,1,0,3:2:0:0:
342,199,133675,2,0,B|296:162|296:162|188:180,1,168,8|0,2:0|3:0,2:0:0:0:
428,257,134144,2,0,P|430:215|432:173,1,84,8|0,2:0|3:0,2:0:0:0:
256,84,134457,6,0,P|261:167|265:251,1,168,4|8,3:1|3:2,2:0:0:0:
317,318,134925,1,8,3:2:0:0:
169,220,135082,1,8,3:2:0:0:
348,164,135238,1,8,3:2:0:0:
152,222,135394,1,8,3:2:0:0:
434,256,135550,1,2,1:2:0:0:
