osu file format v14

[General]
AudioFilename: audio.mp3
AudioLeadIn: 0
PreviewTime: 44140
Countdown: 0
SampleSet: Soft
StackLeniency: 0.7
Mode: 3
LetterboxInBreaks: 0
SpecialStyle: 0
WidescreenStoryboard: 1

[Editor]
Bookmarks: 35390,82890
DistanceSpacing: 1.1
BeatDivisor: 4
GridSize: 8
TimelineZoom: 2

[Metadata]
Title:Mou Ii kai?
TitleUnicode:もういいかい?
Artist:THE ORAL CIGARETTES
ArtistUnicode:THE ORAL CIGARETTES
Creator:Div
Version:Normal
Source:
Tags:TOC A-Sketch Kisses and Kills
BeatmapID:1773717
BeatmapSetID:847807

[Difficulty]
HPDrainRate:7.4
CircleSize:4
OverallDifficulty:7.4
ApproachRate:5
SliderMultiplier:1.7
SliderTickRate:1

[Events]
//Background and Video events
0,0,"BG.jpg",0,0
//Break Periods
//Storyboard Layer 0 (Background)
//Storyboard Layer 1 (Fail)
//Storyboard Layer 2 (Pass)
//Storyboard Layer 3 (Foreground)
//Storyboard Sound Samples

[TimingPoints]
396,312.5,4,2,1,55,1,0
45396,-100,4,2,1,55,0,1
65396,-100,4,2,1,55,0,0
75396,-100,4,2,1,55,0,1
83989,-100,4,2,1,55,0,0

[HitObjects]
320,192,83,128,0,396:0:0:0:0:
64,192,396,128,0,708:0:0:0:0:
448,192,396,1,6,0:0:0:0:
192,192,708,128,10,1021:0:0:0:0:
320,192,708,1,0,0:0:0:0:
448,192,1021,128,10,1333:0:0:0:0:
64,192,1021,1,0,0:0:0:0:
320,192,1333,128,10,1958:0:0:0:0:
192,192,1333,1,0,0:0:0:0:
64,192,1646,1,14,0:0:0:0:
448,192,1958,128,10,3208:0:0:0:0:
192,192,1958,1,0,0:0:0:0:
64,192,2271,1,10,0:0:0:0:
320,192,2583,1,10,0:0:0:0:
192,192,2896,1,14,0:0:0:0:
320,192,3208,128,10,3521:0:0:0:0:
64,192,3208,1,0,0:0:0:0:
64,192,3521,128,10,3833:0:0:0:0:
448,192,3521,1,0,0:0:0:0:
192,192,3833,128,10,4458:0:0:0:0:
320,192,3833,1,0,0:0:0:0:
448,192,4146,1,14,0:0:0:0:
320,192,4458,128,10,5708:0:0:0:0:
64,192,4458,1,0,0:0:0:0:
448,192,4771,1,10,0:0:0:0:
192,192,5083,1,10,0:0:0:0:
64,192,5396,1,14,0:0:0:0:
448,192,5708,128,10,6021:0:0:0:0:
192,192,5708,1,0,0:0:0:0:
64,192,6021,128,10,6333:0:0:0:0:
320,192,6021,1,0,0:0:0:0:
192,192,6333,128,10,6958:0:0:0:0:
448,192,6333,1,0,0:0:0:0:
320,192,6646,1,14,0:0:0:0:
320,192,6958,128,10,7583:0:0:0:0:
64,192,7271,1,10,0:0:0:0:
192,192,7583,128,10,8208:0:0:0:0:
448,192,7583,1,0,0:0:0:0:
64,192,7896,1,14,0:0:0:0:
320,192,8208,128,10,8833:0:0:0:0:
448,192,8208,1,0,0:0:0:0:
64,192,8521,1,10,0:0:0:0:
448,192,8833,128,10,9458:0:0:0:0:
192,192,8833,1,0,0:0:0:0:
320,192,9146,1,14,0:0:0:0:
64,192,9458,128,10,9771:0:0:0:0:
192,192,9458,1,0,0:0:0:0:
320,192,9771,128,2,10083:0:0:0:0:
448,192,9771,1,0,0:0:0:0:
448,192,10083,128,0,10396:0:0:0:0:
64,192,10083,1,14,0:0:0:0:
192,192,10396,1,10,0:0:0:0:
192,192,10552,1,10,0:0:0:0:
320,192,10864,1,10,0:0:0:0:
192,192,11177,1,10,0:0:0:0:
64,192,11489,1,10,0:0:0:0:
448,192,11489,1,4,0:0:0:0:
192,192,11802,1,10,0:0:0:0:
192,192,11958,1,10,0:0:0:0:
448,192,12271,128,8,12583:0:0:0:0:
64,192,12583,128,8,12896:0:0:0:0:
320,192,12896,1,8,0:0:0:0:
320,192,13052,1,8,0:0:0:0:
192,192,13208,1,8,0:0:0:0:
64,192,13364,1,2,0:0:0:0:
448,192,13364,1,4,0:0:0:0:
64,192,13677,1,2,0:0:0:0:
448,192,13677,1,4,0:0:0:0:
448,192,13989,1,6,0:0:0:0:
64,192,13989,128,0,14302:0:0:0:0:
320,192,14302,1,10,0:0:0:0:
192,192,14458,1,10,0:0:0:0:
320,192,14614,1,10,0:0:0:0:
192,192,14771,128,2,15083:0:0:0:0:
320,192,15083,128,2,15396:0:0:0:0:
64,192,15396,1,2,0:0:0:0:
448,192,15396,1,4,0:0:0:0:
64,192,15708,1,2,0:0:0:0:
192,192,15708,1,8,0:0:0:0:
320,192,16021,1,2,0:0:0:0:
192,192,16177,1,2,0:0:0:0:
64,192,16333,1,2,0:0:0:0:
448,192,16333,1,8,0:0:0:0:
192,192,16646,1,2,0:0:0:0:
320,192,16958,1,2,0:0:0:0:
448,192,16958,1,8,0:0:0:0:
192,192,17271,1,2,0:0:0:0:
320,192,17427,1,2,0:0:0:0:
448,192,17583,1,2,0:0:0:0:
64,192,17583,1,8,0:0:0:0:
192,192,17896,1,2,0:0:0:0:
64,192,18208,1,8,0:0:0:0:
320,192,18208,1,2,0:0:0:0:
448,192,18521,1,2,0:0:0:0:
320,192,18677,1,2,0:0:0:0:
64,192,18833,1,8,0:0:0:0:
192,192,18833,1,2,0:0:0:0:
320,192,19146,1,2,0:0:0:0:
448,192,19458,1,2,0:0:0:0:
64,192,19458,1,8,0:0:0:0:
320,192,19771,1,2,0:0:0:0:
192,192,19927,1,2,0:0:0:0:
320,192,20083,1,2,0:0:0:0:
448,192,20083,1,8,0:0:0:0:
64,192,20396,1,2,0:0:0:0:
192,192,20708,1,2,0:0:0:0:
448,192,20708,1,8,0:0:0:0:
320,192,21021,1,2,0:0:0:0:
192,192,21177,1,2,0:0:0:0:
64,192,21333,1,2,0:0:0:0:
448,192,21333,1,8,0:0:0:0:
192,192,21646,1,2,0:0:0:0:
64,192,21958,1,2,0:0:0:0:
320,192,21958,1,8,0:0:0:0:
448,192,22271,1,2,0:0:0:0:
320,192,22427,1,2,0:0:0:0:
192,192,22583,1,2,0:0:0:0:
64,192,22583,1,8,0:0:0:0:
320,192,22896,1,2,0:0:0:0:
448,192,23208,1,8,0:0:0:0:
64,192,23208,1,2,0:0:0:0:
192,192,23521,1,2,0:0:0:0:
320,192,23677,1,2,0:0:0:0:
448,192,23833,1,2,0:0:0:0:
64,192,23833,1,8,0:0:0:0:
192,192,24146,1,2,0:0:0:0:
320,192,24458,1,2,0:0:0:0:
448,192,24458,1,12,0:0:0:0:
64,192,24771,128,10,25083:0:0:0:0:
448,192,25083,128,10,25396:0:0:0:0:
64,192,25396,1,4,0:0:0:0:
192,192,25396,1,10,0:0:0:0:
448,192,25708,1,8,0:0:0:0:
64,192,25708,1,2,0:0:0:0:
320,192,26021,1,2,0:0:0:0:
192,192,26177,1,2,0:0:0:0:
320,192,26333,1,2,0:0:0:0:
448,192,26333,1,8,0:0:0:0:
64,192,26646,1,2,0:0:0:0:
192,192,26958,1,8,0:0:0:0:
448,192,26958,1,2,0:0:0:0:
320,192,27271,1,2,0:0:0:0:
192,192,27427,1,2,0:0:0:0:
64,192,27583,1,2,0:0:0:0:
448,192,27583,1,8,0:0:0:0:
320,192,27896,1,2,0:0:0:0:
64,192,28208,1,8,0:0:0:0:
192,192,28208,1,2,0:0:0:0:
448,192,28521,1,2,0:0:0:0:
192,192,28677,1,2,0:0:0:0:
320,192,28833,1,2,0:0:0:0:
448,192,28833,1,8,0:0:0:0:
192,192,29146,1,2,0:0:0:0:
64,192,29458,1,2,0:0:0:0:
448,192,29458,1,8,0:0:0:0:
192,192,29771,1,2,0:0:0:0:
320,192,29927,1,2,0:0:0:0:
64,192,30083,1,8,0:0:0:0:
448,192,30083,1,2,0:0:0:0:
192,192,30396,1,2,0:0:0:0:
320,192,30396,1,4,0:0:0:0:
64,192,30708,1,8,0:0:0:0:
448,192,30708,1,2,0:0:0:0:
192,192,31021,1,2,0:0:0:0:
320,192,31177,1,2,0:0:0:0:
192,192,31333,1,2,0:0:0:0:
64,192,31333,1,8,0:0:0:0:
448,192,31646,1,2,0:0:0:0:
320,192,31958,1,2,0:0:0:0:
64,192,31958,1,8,0:0:0:0:
448,192,32271,1,2,0:0:0:0:
192,192,32427,1,2,0:0:0:0:
320,192,32583,1,2,0:0:0:0:
448,192,32583,1,8,0:0:0:0:
64,192,32896,1,4,0:0:0:0:
192,192,32896,1,2,0:0:0:0:
320,192,33208,1,8,0:0:0:0:
448,192,33208,1,2,0:0:0:0:
192,192,33521,1,2,0:0:0:0:
320,192,33677,1,2,0:0:0:0:
64,192,33833,1,8,0:0:0:0:
448,192,33833,1,2,0:0:0:0:
192,192,34146,1,2,0:0:0:0:
320,192,34458,1,6,0:0:0:0:
448,192,34458,1,8,0:0:0:0:
192,192,34771,128,10,35083:0:0:0:0:
448,192,35083,128,10,35396:0:0:0:0:
64,192,35396,1,10,0:0:0:0:
320,192,35396,1,4,0:0:0:0:
192,192,35708,128,10,36021:0:0:0:0:
320,192,36021,128,2,36333:0:0:0:0:
64,192,36333,128,10,36646:0:0:0:0:
320,192,36646,1,2,0:0:0:0:
448,192,36646,1,0,0:0:0:0:
192,192,36958,128,10,37271:0:0:0:0:
448,192,37271,128,2,37583:0:0:0:0:
64,192,37583,128,10,37896:0:0:0:0:
192,192,37896,1,0,0:0:0:0:
448,192,37896,1,2,0:0:0:0:
320,192,38208,128,10,38521:0:0:0:0:
64,192,38521,128,2,38833:0:0:0:0:
192,192,38833,128,14,39146:0:0:0:0:
320,192,39146,1,4,0:0:0:0:
448,192,39146,1,10,0:0:0:0:
64,192,39614,1,10,0:0:0:0:
448,192,39614,1,4,0:0:0:0:
448,192,40083,128,10,40396:0:0:0:0:
64,192,40396,1,10,0:0:0:0:
192,192,40396,1,4,0:0:0:0:
320,192,40708,1,10,0:0:0:0:
448,192,41021,1,8,0:0:0:0:
64,192,41021,1,2,0:0:0:0:
192,192,41333,1,10,0:0:0:0:
320,192,41646,1,8,0:0:0:0:
448,192,41646,1,2,0:0:0:0:
192,192,41958,1,10,0:0:0:0:
64,192,42271,1,8,0:0:0:0:
320,192,42271,1,2,0:0:0:0:
448,192,42583,1,10,0:0:0:0:
192,192,42896,1,8,0:0:0:0:
64,192,42896,1,6,0:0:0:0:
448,192,43208,128,2,43521:0:0:0:0:
320,192,43521,128,2,43833:0:0:0:0:
64,192,43833,1,2,0:0:0:0:
192,192,43833,1,4,0:0:0:0:
448,192,44146,1,14,0:0:0:0:
64,192,44302,1,6,0:0:0:0:
320,192,44614,1,6,0:0:0:0:
192,192,44927,1,6,0:0:0:0:
448,192,45396,1,4,0:0:0:0:
64,192,45396,1,2,0:0:0:0:
448,192,45708,1,8,0:0:0:0:
320,192,45708,1,2,0:0:0:0:
192,192,46021,1,2,0:0:0:0:
320,192,46177,1,2,0:0:0:0:
448,192,46333,1,2,0:0:0:0:
64,192,46333,1,8,0:0:0:0:
320,192,46646,1,2,0:0:0:0:
192,192,46958,1,2,0:0:0:0:
64,192,46958,1,8,0:0:0:0:
320,192,47271,1,2,0:0:0:0:
192,192,47427,1,2,0:0:0:0:
64,192,47583,1,2,0:0:0:0:
448,192,47583,1,8,0:0:0:0:
320,192,47896,1,2,0:0:0:0:
448,192,48208,1,8,0:0:0:0:
192,192,48208,1,2,0:0:0:0:
64,192,48521,1,2,0:0:0:0:
192,192,48677,1,2,0:0:0:0:
448,192,48833,1,8,0:0:0:0:
320,192,48833,1,2,0:0:0:0:
192,192,49146,1,2,0:0:0:0:
64,192,49458,1,2,0:0:0:0:
448,192,49458,1,8,0:0:0:0:
192,192,49771,1,2,0:0:0:0:
320,192,49927,1,2,0:0:0:0:
192,192,50083,1,2,0:0:0:0:
64,192,50083,1,8,0:0:0:0:
448,192,50396,1,2,0:0:0:0:
192,192,50396,1,4,0:0:0:0:
320,192,50708,1,2,0:0:0:0:
64,192,50708,1,8,0:0:0:0:
192,192,51021,1,2,0:0:0:0:
320,192,51177,1,2,0:0:0:0:
448,192,51333,1,8,0:0:0:0:
64,192,51333,1,2,0:0:0:0:
320,192,51646,1,2,0:0:0:0:
448,192,51958,1,8,0:0:0:0:
192,192,51958,1,2,0:0:0:0:
64,192,52271,1,2,0:0:0:0:
192,192,52427,1,2,0:0:0:0:
320,192,52583,1,2,0:0:0:0:
448,192,52583,1,8,0:0:0:0:
192,192,52896,1,2,0:0:0:0:
64,192,53208,1,2,0:0:0:0:
448,192,53208,1,8,0:0:0:0:
320,192,53521,1,2,0:0:0:0:
192,192,53677,1,2,0:0:0:0:
64,192,53833,1,2,0:0:0:0:
448,192,53833,1,8,0:0:0:0:
320,192,54146,128,2,54458:0:0:0:0:
192,192,54458,128,2,54771:0:0:0:0:
448,192,54771,128,10,55083:0:0:0:0:
64,192,55083,128,10,55396:0:0:0:0:
448,192,55396,1,4,0:0:0:0:
320,192,55396,1,2,0:0:0:0:
64,192,55708,1,8,0:0:0:0:
448,192,55708,1,2,0:0:0:0:
192,192,56021,1,2,0:0:0:0:
320,192,56177,1,2,0:0:0:0:
192,192,56333,1,2,0:0:0:0:
64,192,56333,1,8,0:0:0:0:
448,192,56646,1,2,0:0:0:0:
320,192,56958,1,2,0:0:0:0:
64,192,56958,1,8,0:0:0:0:
192,192,57271,1,2,0:0:0:0:
320,192,57427,1,2,0:0:0:0:
448,192,57583,1,2,0:0:0:0:
64,192,57583,1,8,0:0:0:0:
192,192,57896,1,2,0:0:0:0:
448,192,58208,1,8,0:0:0:0:
320,192,58208,1,2,0:0:0:0:
64,192,58521,1,2,0:0:0:0:
320,192,58677,1,2,0:0:0:0:
192,192,58833,1,2,0:0:0:0:
64,192,58833,1,8,0:0:0:0:
320,192,59146,1,2,0:0:0:0:
448,192,59458,1,2,0:0:0:0:
64,192,59458,1,8,0:0:0:0:
320,192,59771,1,2,0:0:0:0:
192,192,59927,1,2,0:0:0:0:
448,192,60083,1,0,0:0:0:0:
64,192,60083,1,2,0:0:0:0:
320,192,60396,1,10,0:0:0:0:
192,192,60396,1,4,0:0:0:0:
448,192,60708,1,8,0:0:0:0:
64,192,60708,1,2,0:0:0:0:
64,192,61021,1,2,0:0:0:0:
192,192,61021,1,8,0:0:0:0:
320,192,61333,1,2,0:0:0:0:
448,192,61333,1,8,0:0:0:0:
64,192,61646,1,8,0:0:0:0:
320,192,61646,1,2,0:0:0:0:
192,192,61958,1,2,0:0:0:0:
448,192,61958,1,8,0:0:0:0:
64,192,62271,1,8,0:0:0:0:
448,192,62271,1,2,0:0:0:0:
192,192,62583,1,2,0:0:0:0:
320,192,62583,1,8,0:0:0:0:
192,192,62896,1,8,0:0:0:0:
64,192,62896,1,2,0:0:0:0:
320,192,63208,1,2,0:0:0:0:
448,192,63208,1,8,0:0:0:0:
192,192,63521,1,2,0:0:0:0:
448,192,63521,1,8,0:0:0:0:
320,192,63833,1,2,0:0:0:0:
64,192,63833,1,8,0:0:0:0:
448,192,64146,128,10,64458:0:0:0:0:
192,192,64458,128,10,64771:0:0:0:0:
320,192,64771,128,2,65083:0:0:0:0:
64,192,65083,128,2,65396:0:0:0:0:
320,192,65396,1,6,0:0:0:0:
448,192,65396,128,0,66021:0:0:0:0:
192,192,66021,128,0,66646:0:0:0:0:
64,192,66021,1,12,0:0:0:0:
320,192,66646,128,2,67271:0:0:0:0:
64,192,67271,128,0,67896:0:0:0:0:
448,192,67271,1,12,0:0:0:0:
320,192,67896,128,2,68521:0:0:0:0:
448,192,68521,128,0,69146:0:0:0:0:
64,192,68521,1,12,0:0:0:0:
192,192,69146,128,2,69771:0:0:0:0:
448,192,69771,128,2,70083:0:0:0:0:
64,192,70083,128,2,70396:0:0:0:0:
320,192,70396,128,0,71021:0:0:0:0:
448,192,70396,1,6,0:0:0:0:
192,192,71021,128,0,71646:0:0:0:0:
448,192,71021,1,12,0:0:0:0:
448,192,71646,128,2,72271:0:0:0:0:
64,192,72271,128,0,72896:0:0:0:0:
320,192,72271,1,12,0:0:0:0:
320,192,72896,128,2,73521:0:0:0:0:
192,192,73521,128,0,74146:0:0:0:0:
64,192,73521,1,12,0:0:0:0:
448,192,74146,1,10,0:0:0:0:
448,192,74302,1,10,0:0:0:0:
64,192,74458,1,10,0:0:0:0:
64,192,74614,1,10,0:0:0:0:
320,192,74771,128,10,75083:0:0:0:0:
64,192,75083,1,10,0:0:0:0:
192,192,75083,1,4,0:0:0:0:
448,192,75396,1,2,0:0:0:0:
64,192,75396,1,4,0:0:0:0:
448,192,75708,1,8,0:0:0:0:
320,192,75708,1,2,0:0:0:0:
192,192,76021,1,2,0:0:0:0:
320,192,76177,1,2,0:0:0:0:
448,192,76333,1,8,0:0:0:0:
64,192,76333,1,2,0:0:0:0:
320,192,76646,1,2,0:0:0:0:
192,192,76958,1,2,0:0:0:0:
64,192,76958,1,8,0:0:0:0:
320,192,77271,1,2,0:0:0:0:
192,192,77427,1,2,0:0:0:0:
64,192,77583,1,2,0:0:0:0:
448,192,77583,1,8,0:0:0:0:
320,192,77896,1,2,0:0:0:0:
448,192,78208,1,8,0:0:0:0:
192,192,78208,1,2,0:0:0:0:
64,192,78521,1,2,0:0:0:0:
192,192,78677,1,2,0:0:0:0:
448,192,78833,1,8,0:0:0:0:
320,192,78833,1,2,0:0:0:0:
192,192,79146,1,2,0:0:0:0:
64,192,79458,1,2,0:0:0:0:
448,192,79458,1,8,0:0:0:0:
320,192,79771,1,2,0:0:0:0:
192,192,79927,1,2,0:0:0:0:
64,192,80083,128,2,80396:0:0:0:0:
448,192,80396,1,4,0:0:0:0:
320,192,80396,1,10,0:0:0:0:
64,192,80864,1,10,0:0:0:0:
448,192,80864,1,4,0:0:0:0:
64,192,81333,1,10,0:0:0:0:
192,192,81333,1,4,0:0:0:0:
320,192,81646,1,10,0:0:0:0:
448,192,81646,1,4,0:0:0:0:
320,192,82114,1,4,0:0:0:0:
192,192,82114,1,10,0:0:0:0:
64,192,82583,1,10,0:0:0:0:
448,192,82583,1,4,0:0:0:0:
192,192,82896,1,10,0:0:0:0:
320,192,82896,1,4,0:0:0:0:
448,192,83208,1,10,0:0:0:0:
448,192,83364,1,10,0:0:0:0:
64,192,83521,1,10,0:0:0:0:
64,192,83677,1,10,0:0:0:0:
320,192,83833,1,10,0:0:0:0:
64,192,83989,1,10,0:0:0:0:
448,192,83989,1,0,0:0:0:0:
