osu file format v14

[General]
AudioFilename: audio.mp3
AudioLeadIn: 0
PreviewTime: 53166
Countdown: 0
SampleSet: Soft
StackLeniency: 0.4
Mode: 0
LetterboxInBreaks: 0
WidescreenStoryboard: 1

[Editor]
DistanceSpacing: 1
BeatDivisor: 4
GridSize: 4
TimelineZoom: 0.9500018

[Metadata]
Title:Monster Effect
TitleUnicode:モンスターエフェクト
Artist:THE ORAL CIGARETTES
ArtistUnicode:THE ORAL CIGARETTES
Creator:sparxo
Version:Boss' Normal
Source:
Tags:The BKW Show!! Japanese Rock xandit bossandy yshadowxop_ mkguh nyantiaz kujinn reform
BeatmapID:2141173
BeatmapSetID:1010401

[Difficulty]
HPDrainRate:4.4
CircleSize:3.4
OverallDifficulty:4
ApproachRate:6
SliderMultiplier:1.1
SliderTickRate:1

[Events]
//Background and Video events
0,0,"Konachan.com - 269937 sample.jpg",0,0
//Break Periods
2,26331,30242
//Storyboard Layer 0 (Background)
//Storyboard Layer 1 (Fail)
//Storyboard Layer 2 (Pass)
//Storyboard Layer 3 (Foreground)
//Storyboard Layer 4 (Overlay)
//Storyboard Sound Samples

[TimingPoints]
325,322.58064516129,4,2,1,90,1,0
5486,-100,4,2,1,92,0,0
15808,-100,4,2,1,86,0,0
17744,-100,4,2,1,55,0,0
17905,-100,4,2,1,86,0,0
18066,-100,4,2,1,86,0,0
26131,-100,4,2,1,92,0,0
26156,-100,4,2,1,65,0,0
31292,-100,4,2,1,86,0,0
31317,-100,4,2,1,55,0,0
31615,-100,4,2,1,86,0,0
31775,-100,4,2,1,86,0,0
33228,-100,4,2,1,55,0,0
33388,-100,4,2,1,86,0,0
33550,-100,4,2,1,86,0,0
41615,-100,4,2,1,88,0,0
44195,-100,4,2,1,90,0,0
44356,-100,4,2,1,90,0,0
44517,-100,4,2,1,90,0,0
46776,-100,4,2,1,88,0,0
46801,-100,4,2,1,65,0,0
47098,-100,4,2,1,88,0,0
47259,-100,4,2,1,88,0,0
49357,-100,4,2,1,90,0,0
51937,-100,4,2,1,75,0,0
53228,-100,4,2,1,92,0,1
53389,-100,4,2,1,85,0,1
53550,-100,4,2,1,92,0,1
55485,-100,4,2,1,92,0,1
55969,-100,4,2,1,85,0,1
56131,-100,4,2,1,92,0,1
57905,-100,4,2,1,92,0,1
58066,-100,4,2,1,92,0,1
59034,-100,4,2,1,85,0,1
59195,-100,4,2,1,92,0,1
63711,-100,4,2,1,85,0,1
63873,-100,4,2,1,92,0,1
65807,-100,4,2,1,92,0,1
66292,-100,4,2,1,85,0,1
66454,-100,4,2,1,92,0,1
68227,-100,4,2,1,92,0,1
68388,-100,4,2,1,92,0,1
73873,-100,4,2,1,74,0,0
79034,-100,4,2,1,90,0,1
81614,-100,4,2,1,92,0,1
81615,-100,4,2,1,92,0,0
86130,-100,4,2,1,74,0,0
86131,-100,4,2,1,74,0,0
86776,-100,4,2,1,92,0,1
91937,-100,4,2,1,92,0,0

[Colours]
Combo1 : 254,180,202
Combo2 : 255,162,121
Combo3 : 232,130,130
SliderBorder : 255,228,145
SliderTrackOverride : 48,22,14

[HitObjects]
32,252,325,6,0,L|48:152,1,82.5,14|14,0:0|0:0,0:0:0:0:
60,88,808,2,0,L|176:56,1,110,14|10,0:0|0:0,0:0:0:0:
166,58,1292,1,10,0:0:0:0:
232,144,1615,6,0,L|218:225,1,82.5,14|14,0:0|0:0,0:0:0:0:
208,308,2099,2,0,L|314:278,1,110,14|10,0:0|0:0,0:0:0:0:
314,278,2583,1,10,0:0:0:0:
420,248,2905,6,0,L|436:148,1,82.5,14|14,0:0|0:0,0:0:0:0:
444,84,3389,2,0,L|337:113,1,110,14|10,0:0|0:0,0:0:0:0:
338,114,3873,1,10,0:0:0:0:
256,40,4195,1,14,1:2:0:0:
256,40,5486,6,0,L|140:48,1,110,6|10,1:2|0:0,0:0:0:0:
92,52,5970,2,0,P|100:108|60:184,1,110,2|2,1:2|1:2,0:0:0:0:
40,192,6454,1,10,0:0:0:0:
136,244,6776,2,0,B|172:244|172:244|208:235|208:235|244:235,1,110,2|10,1:2|0:0,2:0:0:0:
300,236,7260,2,0,P|344:284|276:332,1,165,2|10,1:2|0:0,0:0:0:0:
196,264,8066,6,0,P|192:208|224:160,1,110,2|10,1:2|0:0,0:0:0:0:
272,140,8550,2,0,L|256:32,1,110,2|2,1:2|1:2,0:0:0:0:
304,4,9034,1,10,0:0:0:0:
412,16,9357,2,0,L|428:124,1,110,2|10,1:2|0:0,2:0:0:0:
476,152,9841,2,0,L|460:260,1,110,2|0,1:2|1:2,0:0:0:0:
488,308,10324,1,10,0:0:0:0:
396,368,10647,6,0,P|340:372|280:344,1,110,6|10,1:2|0:0,0:0:0:0:
268,304,11131,2,0,P|212:300|152:328,1,110,2|2,1:2|1:2,0:0:0:0:
144,372,11615,1,10,0:0:0:0:
48,320,11937,2,0,L|64:184,1,110,2|10,1:2|0:0,2:0:0:0:
72,156,12421,2,0,B|156:168|156:168|168:80,1,165,2|10,1:2|0:0,0:0:0:0:
268,40,13228,6,0,P|320:60|392:52,1,110,2|10,1:2|0:0,0:0:0:0:
424,32,13712,2,0,L|396:164,1,110,2|2,1:2|1:2,0:0:0:0:
388,192,14195,1,10,0:0:0:0:
360,300,14518,2,0,L|220:316,1,110,2|10,1:2|0:0,2:0:0:0:
208,348,15002,2,0,P|148:360|84:328,1,110,2|0,1:2|1:2,0:0:0:0:
64,304,15486,2,0,L|60:240,1,55,10|10,0:0|0:0,0:0:0:0:
28,204,15808,5,6,1:2:0:0:
56,96,16131,1,10,0:0:0:0:
56,96,16292,2,0,L|188:108,1,110,2|2,1:2|1:2,0:0:0:0:
264,52,16937,1,2,0:0:0:0:
264,52,17099,2,0,L|396:64,1,110,2|10,1:2|0:0,0:0:0:0:
412,100,17583,2,0,B|432:132|432:156|432:156|416:208,1,110,2|2,1:2|1:2,0:0:0:0:
396,256,18066,1,8,0:0:0:0:
340,352,18389,6,0,P|304:312|288:256,1,110,2|10,1:2|0:0,0:0:0:0:
320,212,18873,2,0,B|332:172|332:172|316:104,1,110,2|2,1:2|1:2,0:0:0:0:
288,4,19518,1,2,0:0:0:0:
288,4,19679,2,0,L|168:24,1,110,2|10,1:2|0:0,0:0:0:0:
196,76,20163,2,0,B|211:142|211:142|199:182,1,110,2|2,1:2|1:2,0:0:0:0:
180,236,20647,1,8,0:0:0:0:
132,336,20970,5,2,1:2:0:0:
48,264,21292,1,10,0:0:0:0:
48,264,21454,2,0,P|80:216|84:148,1,110,2|2,1:2|1:2,0:0:0:0:
20,76,22099,1,2,0:0:0:0:
56,32,22260,2,0,L|116:32,1,55,2|2,1:2|0:0,0:0:0:0:
148,72,22583,2,0,L|274:72,1,110,10|2,0:0|0:0,0:0:0:0:
296,32,23066,1,2,1:2:0:0:
296,32,23228,1,10,0:0:0:0:
396,80,23550,6,0,P|408:132|388:192,1,110,2|8,1:2|0:0,0:0:0:0:
392,185,24034,1,2,1:2:0:0:
392,185,24195,1,2,0:0:0:0:
288,220,24518,2,0,L|296:292,2,55,8|2|2,0:0|0:0|1:2,0:0:0:0:
184,188,25163,2,0,L|190:133,1,55,8|2,0:0|1:2,0:0:0:0:
196,80,25486,2,0,L|68:92,1,110,2|10,0:0|0:0,0:0:0:0:
32,96,25970,1,10,0:0:0:0:
32,96,26131,1,6,1:2:0:0:
488,36,31292,5,6,1:2:0:0:
408,112,31615,1,10,0:0:0:0:
408,112,31776,2,0,B|352:100|352:100|296:120,1,110,2|2,1:2|1:2,0:0:0:0:
208,176,32421,1,2,0:0:0:0:
208,176,32583,2,0,B|152:164|152:164|96:184,1,110,2|10,1:2|0:2,0:0:0:0:
52,200,33066,2,0,P|40:248|68:304,1,110,2|2,1:2|1:2,0:0:0:0:
120,292,33550,1,8,0:0:0:0:
208,360,33873,6,0,B|244:360|244:360|280:351|280:351|316:351,1,110,2|10,1:2|0:0,0:0:0:0:
372,352,34357,2,0,B|372:316|372:316|363:280|363:280|363:244,1,110,2|2,1:2|1:2,0:0:0:0:
364,132,35002,1,2,0:0:0:0:
364,132,35163,2,0,L|476:132,1,110,2|10,1:2|0:0,0:0:0:0:
500,84,35647,2,0,P|480:36|428:8,1,110,2|2,1:2|1:2,0:0:0:0:
380,32,36131,1,8,0:0:0:0:
284,84,36454,5,2,1:2:0:0:
188,32,36776,1,10,0:0:0:0:
188,32,36937,2,0,P|140:57|119:107,1,110,2|2,1:2|1:2,0:0:0:0:
188,192,37583,1,2,0:0:0:0:
232,224,37744,2,0,P|236:252|232:284,1,55,2|2,1:2|0:0,0:0:0:0:
260,328,38066,2,0,P|312:340|370:328,1,110,10|2,0:0|0:0,0:0:0:0:
392,280,38550,1,2,1:2:0:0:
392,280,38712,1,10,0:0:0:0:
352,180,39034,6,0,B|340:140|340:140|360:68,1,110,2|8,1:2|0:0,0:0:0:0:
358,74,39518,1,2,1:2:0:0:
358,74,39679,1,2,0:0:0:0:
260,20,40002,2,0,L|188:28,2,55,8|2|2,0:0|0:0|1:2,0:0:0:0:
220,124,40647,2,0,L|165:130,1,55,8|2,0:0|1:2,0:0:0:0:
112,132,40970,2,0,L|124:260,1,110,2|10,0:0|0:0,0:0:0:0:
52,328,41615,6,0,P|100:352|168:344,1,110,8|8,0:0|0:0,0:0:0:0:
155,349,42099,1,10,0:0:0:0:
220,260,42421,1,2,0:0:0:0:
136,116,42905,2,0,P|184:92|252:100,1,110,10|10,0:0|0:0,0:0:0:0:
239,94,43389,1,10,0:0:0:0:
304,184,43712,1,2,0:0:0:0:
448,108,44195,6,0,L|432:40,1,55,6|0,1:2|3:0,0:0:0:0:
420,0,44518,1,8,0:0:0:0:
336,72,44841,1,2,1:2:0:0:
256,0,45163,1,8,0:0:0:0:
172,72,45486,6,0,L|159:125,1,55,2|0,1:2|3:0,0:0:0:0:
144,180,45808,1,10,0:2:0:0:
252,152,46131,2,0,L|226:258,1,110,2|10,1:2|0:2,0:0:0:0:
256,364,46776,6,0,P|208:368|152:344,1,110,8|8,0:0|0:0,0:0:0:0:
148,340,47260,1,10,0:0:0:0:
120,232,47583,1,2,0:0:0:0:
88,80,48066,2,0,P|136:76|192:100,1,110,10|10,0:0|0:0,0:0:0:0:
192,100,48550,1,10,0:0:0:0:
224,204,48873,1,2,0:0:0:0:
288,52,49357,6,0,L|352:64,1,55,14|0,0:0|0:0,0:0:0:0:
392,44,49679,2,0,L|456:56,1,55,8|10,0:0|0:0,0:0:0:0:
484,96,50002,1,10,0:0:0:0:
464,204,50324,2,0,L|448:276,1,55,8|10,0:0|0:0,0:0:0:0:
436,312,50647,2,0,P|368:304|308:328,1,110,10|8,0:0|0:0,0:0:0:0:
280,343,51131,1,10,0:0:0:0:
232,367,51292,2,0,P|164:375|104:351,1,110,10|8,0:0|0:0,0:0:0:0:
80,331,51776,1,8,0:0:0:0:
432,53,53228,6,0,L|412:105,1,55,6|0,1:2|1:2,0:0:0:0:
388,156,53550,1,8,0:0:0:0:
388,156,53712,2,0,P|336:128|272:132,1,110,2|2,1:2|1:2,0:0:0:0:
240,156,54195,1,10,0:0:0:0:
308,244,54518,2,0,P|264:268|196:260,1,110,0|8,1:2|0:0,0:0:0:0:
172,220,55002,2,0,B|141:189|96:204|96:204|80:250|111:280,1,165,2|8,1:2|0:0,0:0:0:0:
40,364,55808,6,0,P|16:336|0:300,1,55,6|0,1:2|1:2,0:0:0:0:
0,264,56131,1,8,0:0:0:0:
0,264,56292,2,0,P|0:212|24:136,1,110,2|2,1:2|1:2,0:0:0:0:
44,108,56776,1,10,0:0:0:0:
144,60,57099,2,0,L|136:0,2,55,0|2|8,1:2|1:2|0:0,0:0:0:0:
156,112,57583,2,0,P|208:120|260:96,1,110,2|2,1:2|1:2,0:0:0:0:
256,44,58066,1,8,0:0:0:0:
368,40,58389,6,0,P|384:100|368:152,1,110,6|10,1:2|0:0,0:0:0:0:
324,176,58873,2,0,P|340:236|324:288,1,110,2|2,1:2|1:2,0:0:0:0:
284,316,59357,1,10,0:0:0:0:
376,380,59679,1,2,1:2:0:0:
376,380,59841,2,0,L|485:365,1,110,2|2,1:2|1:2,0:0:0:0:
492,312,60324,2,0,L|500:244,1,55,2|2,0:0|1:2,0:0:0:0:
504,204,60647,1,10,0:0:0:0:
408,152,60970,6,0,P|344:176|332:92,1,165,2|2,1:2|1:2,0:0:0:0:
344,48,61615,2,0,B|303:37|262:48|262:48|222:58|181:48,1,165,2|2,1:2|0:0,0:0:0:0:
132,24,62260,1,2,1:2:0:0:
40,88,62583,2,0,L|44:156,1,55,12|2,0:0|0:0,0:0:0:0:
80,180,62905,2,0,L|76:234,1,55,10|8,0:0|0:0,0:0:0:0:
108,280,63228,1,8,0:0:0:0:
216,252,63550,6,0,L|276:260,1,55,6|0,1:2|1:2,0:0:0:0:
324,268,63873,1,8,0:0:0:0:
324,268,64034,2,0,B|368:272|368:272|384:284|384:284|432:288,1,110,2|2,1:2|1:2,0:0:0:0:
484,292,64518,1,10,0:0:0:0:
444,188,64841,2,0,L|460:76,1,110,0|8,1:2|0:0,0:0:0:0:
420,40,65324,2,0,B|391:15|346:27|346:27|368:67|352:118,1,165,2|8,1:2|0:0,0:0:0:0:
332,208,66131,6,0,L|316:276,1,55,6|0,1:2|1:2,0:0:0:0:
288,308,66454,1,8,0:0:0:0:
288,308,66615,2,0,P|224:312|180:272,1,110,2|2,1:2|1:2,0:0:0:0:
188,232,67099,1,10,0:0:0:0:
80,260,67421,2,0,L|72:320,2,55,0|2|8,1:2|1:2|0:0,0:0:0:0:
40,224,67905,2,0,B|40:188|64:168|64:168|72:120,1,110,2|2,1:2|1:2,0:0:0:0:
84,68,68389,1,8,0:0:0:0:
192,88,68712,6,0,L|308:104,1,110,14|8,0:0|0:0,0:0:0:0:
340,64,69195,1,2,1:2:0:0:
340,64,69357,2,0,L|456:80,1,110,10|10,0:2|0:2,0:0:0:0:
500,176,70002,2,0,L|384:160,1,110,14|10,0:2|0:2,0:0:0:0:
352,200,70486,1,0,1:2:0:0:
352,200,70647,2,0,L|236:184,1,110,10|10,0:2|0:2,0:0:0:0:
160,112,71292,6,0,P|132:176|172:272,1,165,6|8,1:2|0:0,0:0:0:0:
200,296,71937,2,0,B|227:302|254:296|254:296|281:289|308:296|308:296|335:302|362:296,1,165,6|8,1:2|0:0,0:0:0:0:
408,262,72583,1,6,1:2:0:0:
456,164,72905,2,0,L|448:96,1,55,8|8,0:0|0:0,0:0:0:0:
412,68,73228,2,0,L|418:13,2,55,4|8|6,1:2|1:3|1:3,0:0:0:0:
344,156,73873,6,0,B|320:187|320:187|280:204|280:204|242:187|242:187|218:156,2,165,6|2|2,1:2|0:0|0:0,0:0:0:0:
344,44,75163,2,0,B|320:12|320:12|281:-4|281:-4|242:12|242:12|218:44,1,165,2|2,1:2|0:0,0:0:0:0:
148,192,76131,1,2,0:0:0:0:
40,212,76454,6,0,B|28:174|46:141|46:141|43:123|43:123|14:98|13:59,2,165,2|2|2,1:2|0:0|0:0,0:0:0:0:
148,192,77744,2,0,B|160:263|160:263|232:251|232:251|219:179,1,220,2|0,1:2|0:0,0:0:0:0:
200,72,78712,1,2,0:0:0:0:
304,104,79034,6,0,L|364:96,1,55,14|0,0:2|0:0,0:0:0:0:
400,132,79357,2,0,L|454:124,1,55,10|10,0:2|0:2,0:0:0:0:
504,148,79679,2,0,P|508:208|472:264,1,110,8|10,0:0|0:2,0:0:0:0:
400,320,80324,2,0,P|376:271|381:216,1,110,10|8,0:2|0:0,0:0:0:0:
412,172,80808,1,10,0:2:0:0:
368,72,81131,1,2,0:0:0:0:
368,72,81292,1,2,0:0:0:0:
276,132,81615,6,0,P|216:140|152:120,1,110,6|10,1:2|0:0,0:0:0:0:
124,96,82099,2,0,L|112:216,1,110,2|2,1:2|1:2,0:0:0:0:
108,260,82583,1,10,0:0:0:0:
208,300,82905,2,0,B|260:316|260:316|316:291,1,110,2|10,1:2|0:0,0:0:0:0:
364,276,83389,2,0,B|436:316|436:316|484:240,1,165,2|10,1:2|0:0,0:0:0:0:
404,164,84195,6,0,P|400:108|432:60,1,110,2|10,1:2|0:0,0:0:0:0:
384,28,84679,2,0,P|336:58|279:53,1,110,2|2,1:2|1:2,0:0:0:0:
236,32,85163,1,10,0:0:0:0:
176,124,85486,2,0,L|196:232,1,110,2|10,1:2|0:0,0:0:0:0:
216,340,86131,2,0,L|140:356,1,55,2|2,0:0|0:0,0:0:0:0:
112,328,86454,2,0,L|36:344,1,55,2|2,0:0|0:0,0:0:0:0:
12,308,86776,6,0,L|28:184,1,110,14|10,0:2|0:2,0:0:0:0:
64,160,87260,1,2,1:2:0:0:
64,160,87421,2,0,L|80:36,1,110,10|10,0:2|0:2,0:0:0:0:
180,92,88066,2,0,L|164:216,1,110,10|10,0:2|0:2,0:0:0:0:
128,240,88550,1,2,1:2:0:0:
128,240,88711,2,0,L|112:364,1,110,10|10,0:2|0:2,0:0:0:0:
220,324,89357,6,0,L|296:336,1,55,10|2,0:2|1:2,0:0:0:0:
320,300,89679,2,0,L|396:312,1,55,10|2,0:2|1:2,0:0:0:0:
428,292,90002,2,0,P|456:244|452:184,1,110,10|10,0:2|1:2,0:0:0:0:
380,112,90647,2,0,P|324:111|274:145,1,110,10|10,0:2|0:2,0:0:0:0:
248,244,91292,2,0,P|275:292|329:318,1,110,10|10,0:2|0:2,0:0:0:0:
376,308,91776,1,2,1:2:0:0:
428,292,91937,5,10,0:2:0:0:
