osu file format v14

[General]
AudioFilename: audio.mp3
AudioLeadIn: 0
PreviewTime: 134556
Countdown: 0
SampleSet: Soft
StackLeniency: 0.4
Mode: 0
LetterboxInBreaks: 0
WidescreenStoryboard: 1

[Editor]
Bookmarks: 423,4293,5584,10745,15906,26229,31390,41713,53326,71390,76552,81713,92035,101068,112681,123003,130745,133326,134616,141068,142358,144939,155261,163003,168164,173326
DistanceSpacing: 0.5
BeatDivisor: 4
GridSize: 16
TimelineZoom: 1.3

[Metadata]
Title:Monster Effect
TitleUnicode:モンスターエフェクト
Artist:THE ORAL CIGARETTES
ArtistUnicode:THE ORAL CIGARETTES
Creator:Scott D3
Version:Normal
Source:
Tags:the bkw show!! japanese rock Jrock J-rock Full ver version あきらかにあきら Akira Akirakani 中西雅哉 Masaya Nakanishi 山中拓也 Takuya Yamanaka 鈴木重伸 Shigenobu Suzuki W M WM aiea ai ea
BeatmapID:2899056
BeatmapSetID:1392861

[Difficulty]
HPDrainRate:4
CircleSize:4.4
OverallDifficulty:5
ApproachRate:6
SliderMultiplier:1.1
SliderTickRate:1

[Events]
//Background and Video events
0,0,"bg.jpg",0,0
//Break Periods
//Storyboard Layer 0 (Background)
//Storyboard Layer 1 (Fail)
//Storyboard Layer 2 (Pass)
//Storyboard Layer 3 (Foreground)
//Storyboard Layer 4 (Overlay)
//Storyboard Sound Samples

[TimingPoints]
423,322.58064516129,4,2,1,65,1,0
5584,-100,4,2,1,55,0,0
10583,-100,4,2,1,60,0,0
10745,-100,4,2,1,55,0,0
15906,-100,4,2,1,45,0,0
26229,-100,4,2,1,55,0,0
31390,-100,4,2,1,45,0,0
41713,-100,4,2,1,60,0,0
42196,-100,4,2,1,30,0,0
43003,-100,4,2,1,60,0,0
43487,-100,4,2,1,30,0,0
44293,-100,4,2,1,55,0,0
46874,-100,4,2,1,60,0,0
47358,-100,4,2,1,30,0,0
48164,-100,4,2,1,60,0,0
48648,-100,4,2,1,30,0,0
49455,-100,4,2,1,55,0,0
53326,-100,4,2,1,70,0,1
70100,-100,4,2,1,60,0,1
71390,-100,4,2,1,55,0,0
76390,-100,4,2,1,60,0,0
76552,-100,4,2,1,55,0,0
77035,-100,4,2,1,60,0,0
77196,-100,4,2,1,55,0,0
80261,-100,4,2,1,60,0,0
80422,-100,4,2,1,55,0,0
81713,-100,4,2,1,45,0,0
92035,-100,4,2,1,30,0,0
92357,-100,4,2,1,60,0,0
93003,-100,4,2,1,30,0,0
93648,-100,4,2,1,60,0,0
94293,-100,4,2,1,30,0,0
94938,-100,4,2,1,60,0,0
95583,-100,4,2,1,30,0,0
96228,-100,4,2,1,60,0,0
96874,-100,4,2,1,30,0,0
97519,-100,4,2,1,60,0,0
98164,-100,4,2,1,30,0,0
98809,-100,4,2,1,60,0,0
99454,-100,4,2,1,30,0,0
99777,-98.0392156862745,4,2,1,30,0,0
100100,-96.1538461538461,4,2,1,40,0,0
100422,-94.3396226415094,4,2,1,50,0,0
100745,-92.5925925925926,4,2,1,60,0,0
101068,-90.9090909090909,4,2,1,65,0,0
102358,-90.9090909090909,4,2,1,55,0,0
103325,-90.9090909090909,4,2,1,60,0,0
103648,-90.9090909090909,4,2,1,55,0,0
104455,-90.9090909090909,4,2,1,60,0,0
104616,-90.9090909090909,4,2,1,55,0,0
104777,-90.9090909090909,4,2,1,60,0,0
104939,-90.9090909090909,4,2,1,55,0,0
105825,-90.9090909090909,4,2,1,60,0,0
106229,-90.9090909090909,4,2,1,55,0,0
110986,-90.9090909090909,4,2,1,60,0,0
111390,-90.9090909090909,4,2,1,55,0,0
113647,-90.9090909090909,4,2,1,60,0,0
113810,-90.9090909090909,4,2,1,55,0,0
115422,-90.9090909090909,4,2,1,60,0,0
115584,-90.9090909090909,4,2,1,55,0,0
116713,-90.9090909090909,4,2,1,60,0,0
116874,-90.9090909090909,4,2,1,55,0,0
121713,-89.2857142857143,4,2,1,55,0,0
122035,-87.719298245614,4,2,1,55,0,0
122358,-86.2068965517241,4,2,1,55,0,0
122681,-84.7457627118644,4,2,1,55,0,0
123003,-83.3333333333333,4,2,1,60,0,0
134616,-83.3333333333333,4,2,1,70,0,1
139777,-83.3333333333333,4,2,1,50,0,0
143648,-83.3333333333333,4,2,1,35,0,0
143970,-83.3333333333333,4,2,1,60,0,0
144132,-83.3333333333333,4,2,1,35,0,0
144615,-83.3333333333333,4,2,1,60,0,0
144939,-83.3333333333333,4,2,1,70,0,1
155261,-83.3333333333333,4,2,1,35,0,0
160422,-83.3333333333333,4,2,1,70,0,0
163003,-83.3333333333333,4,2,1,55,0,0
167519,-83.3333333333333,4,2,1,60,0,0
168164,-80,4,2,1,70,0,1
173164,-80,4,2,1,60,0,1
173326,-80,4,2,1,70,0,0

[Colours]
Combo1 : 254,180,202
Combo2 : 255,162,121
Combo3 : 232,130,130
SliderBorder : 255,228,145
SliderTrackOverride : 48,22,14

[HitObjects]
375,145,423,6,0,B|429:133|473:152,2,82.5,6|10|14,3:2|0:0|0:0,0:0:0:0:
297,103,1229,1,2,3:2:0:0:
297,103,1390,2,0,P|253:98|232:105,1,55,10|10,0:0|0:0,0:0:0:0:
204,80,1713,2,0,P|215:36|208:-5,2,82.5,6|10|10,3:2|0:0|0:0,0:0:0:0:
175,163,2519,1,2,3:2:0:0:
175,163,2680,2,0,L|175:223,1,55,10|10,0:0|0:0,0:0:0:0:
158,258,3003,6,0,B|129:263|129:263|76:246,2,82.5,6|10|10,3:2|0:0|0:0,0:0:0:0:
230,308,3810,1,2,3:2:0:0:
230,308,3971,2,0,P|264:305|289:300,1,55,10|10,0:0|0:0,0:0:0:0:
322,278,4293,1,10,0:0:0:0:
424,320,5584,6,0,P|412:269|421:205,1,110,4|8,3:2|0:0,0:0:0:0:
376,199,6068,2,0,P|388:148|379:84,1,110,0|0,3:2|3:2,0:0:0:0:
346,64,6552,1,8,0:0:0:0:
262,90,6874,2,0,B|207:77|207:77|147:91,1,110,0|8,3:0|0:0,0:0:0:0:
113,105,7358,2,0,L|115:222,1,110,0|0,3:0|3:0,0:0:0:0:
92,253,7842,1,8,0:0:0:0:
179,254,8164,6,0,P|271:263|286:255,1,110,0|8,3:0|0:0,0:0:0:0:
307,219,8648,2,0,B|296:152|317:109,1,110,0|0,3:0|3:0,0:0:0:0:
352,85,9132,1,8,0:0:0:0:
428,128,9455,2,0,P|442:202|431:233,1,110,0|8,3:0|0:0,0:0:0:0:
389,248,9939,2,0,L|269:248,1,110,0|0,3:0|3:0,0:0:0:0:
241,225,10422,1,8,0:0:0:0:
189,153,10745,6,0,L|189:42,1,110,4|8,3:2|0:0,0:0:0:0:
232,49,11229,2,0,B|295:69|295:69|341:53,1,110,0|0,3:0|3:0,0:0:0:0:
375,75,11713,1,8,0:0:0:0:
443,129,12035,2,0,P|450:185|446:243,1,110,0|8,3:0|0:0,0:0:0:0:
424,276,12519,2,0,B|366:264|366:264|305:272,1,110,0|0,3:0|3:0,0:0:0:0:
274,287,13003,1,8,0:0:0:0:
188,308,13326,6,0,P|174:253|178:200,1,110,0|8,3:0|0:0,0:0:0:0:
133,196,13810,2,0,P|149:133|143:82,1,110,0|0,3:0|3:0,0:0:0:0:
125,49,14293,1,8,0:0:0:0:
212,40,14616,2,0,B|276:51|276:51|341:40,1,110,0|8,3:0|0:0,0:0:0:0:
345,80,15100,2,0,L|345:201,1,110,0|0,3:0|3:0,0:0:0:0:
328,230,15584,2,0,P|286:239|274:237,1,55,8|10,0:0|0:0,0:0:0:0:
232,224,15906,6,0,P|191:156|193:118,1,110,6|10,3:2|0:0,0:0:0:0:
205,85,16390,1,2,3:2:0:0:
289,58,16713,1,2,3:2:0:0:
289,58,16874,2,0,P|320:72|346:94,1,55,8|2,0:0|0:0,0:0:0:0:
346,127,17197,2,0,L|296:232,1,110,2|10,3:2|0:0,0:0:0:0:
269,259,17681,2,0,P|246:311|198:338,1,110,2|2,3:2|3:2,0:0:0:0:
155,344,18164,1,8,0:0:0:0:
78,301,18487,6,0,P|85:236|77:182,1,110,2|10,3:2|0:0,0:0:0:0:
59,152,18971,1,2,3:2:0:0:
66,64,19293,1,2,3:2:0:0:
66,64,19455,2,0,B|99:56|99:56|136:65,1,55,8|2,0:0|0:0,0:0:0:0:
162,54,19777,2,0,P|212:81|249:125,1,110,2|10,3:2|0:0,0:0:0:0:
246,167,20261,2,0,P|231:205|249:276,1,110,2|2,3:2|3:2,0:0:0:0:
273,304,20745,1,8,0:0:0:0:
359,321,21068,6,0,L|378:206,1,110,2|10,3:2|0:0,0:0:0:0:
406,179,21552,2,0,P|430:144|438:73,1,110,2|2,3:2|3:2,0:0:0:0:
415,41,22035,1,8,0:0:0:0:
327,48,22358,2,0,B|275:68|275:68|213:53,1,110,2|10,3:2|0:0,0:0:0:0:
194,89,22842,2,0,B|129:200,1,110,2|2,3:2|3:2,0:0:0:0:
114,221,23326,1,10,0:0:0:0:
117,308,23648,6,0,P|166:326|224:313,1,110,2|8,3:2|0:0,0:0:0:0:
268,326,24132,1,2,3:2:0:0:
268,326,24293,2,0,L|282:209,1,110,2|8,0:0|0:0,0:0:0:0:
323,203,24777,1,2,0:0:0:0:
323,203,24939,2,0,L|311:92,1,110,2|8,3:2|0:0,0:0:0:0:
237,45,25584,2,0,P|191:57|126:58,1,110,2|10,3:2|0:0,0:0:0:0:
87,43,26068,1,10,0:0:0:0:
86,86,26229,6,0,L|110:195,1,110,6|8,3:2|0:0,0:0:0:0:
127,233,26713,2,0,P|85:318|97:344,1,110,0|0,3:0|3:0,0:0:0:0:
128,341,27197,1,8,0:0:0:0:
211,312,27519,2,0,P|285:300|321:304,1,110,0|8,3:0|0:0,0:0:0:0:
361,291,28003,2,0,P|417:301|470:292,1,110,0|0,3:0|3:0,0:0:0:0:
506,298,28487,1,8,0:0:0:0:
493,210,28810,6,0,B|443:179|443:179|438:179|438:179|396:152,1,110,0|8,3:0|0:0,0:0:0:0:
369,121,29293,2,0,P|312:111|272:74,1,110,0|0,3:0|3:0,0:0:0:0:
230,69,29777,1,8,0:0:0:0:
169,133,30100,2,0,P|131:148|66:123,1,110,0|8,3:0|0:0,0:0:0:0:
32,151,30584,2,0,L|33:265,1,110,0|0,3:0|3:0,0:0:0:0:
60,295,31068,1,8,0:0:0:0:
153,284,31390,6,0,P|185:283|265:297,1,110,6|10,3:2|0:0,0:0:0:0:
298,320,31874,1,2,3:2:0:0:
370,269,32197,1,2,3:2:0:0:
370,269,32358,2,0,L|372:204,1,55,10|2,0:0|0:0,0:0:0:0:
364,187,32681,1,2,3:2:0:0:
352,93,33003,1,10,0:0:0:0:
361,56,33164,2,0,P|434:60|474:58,1,110,2|2,3:2|3:2,0:0:0:0:
512,39,33648,1,8,0:0:0:0:
484,122,33971,6,0,P|466:193|473:227,1,110,2|10,3:2|0:0,0:0:0:0:
493,266,34455,1,2,3:2:0:0:
413,302,34777,1,2,3:2:0:0:
413,302,34939,2,0,L|355:297,1,55,10|2,0:0|0:0,0:0:0:0:
319,318,35261,2,0,B|278:315|256:322|256:322|210:317,1,110,2|10,3:2|0:0,0:0:0:0:
169,299,35745,2,0,P|144:265|140:195,1,110,2|2,3:2|3:2,0:0:0:0:
156,158,36229,1,8,0:0:0:0:
211,89,36552,6,0,P|156:73|95:38,1,110,2|10,3:2|0:0,0:0:0:0:
67,59,37035,2,0,L|82:168,1,110,2|2,3:2|3:2,0:0:0:0:
80,212,37519,1,8,0:0:0:0:
59,297,37842,2,0,B|123:304|177:297,1,110,2|10,3:2|0:0,0:0:0:0:
207,329,38326,1,2,3:2:0:0:
207,329,38487,2,0,P|273:323|331:330,1,110,2|10,0:0|0:0,0:0:0:0:
398,294,39132,6,0,P|389:216|396:182,1,110,2|8,3:2|0:0,0:0:0:0:
379,144,39616,1,2,3:2:0:0:
379,144,39777,2,0,B|311:132|311:132|266:138,1,110,2|8,0:0|0:0,0:0:0:0:
226,137,40261,1,2,0:0:0:0:
226,137,40422,2,0,P|219:80|229:21,1,110,2|8,3:2|0:0,0:0:0:0:
315,32,41068,2,0,P|393:48|436:42,1,110,2|10,0:0|0:0,0:0:0:0:
448,129,41713,6,0,L|383:138,1,55,10|10,0:0|0:0,0:0:0:0:
366,170,42035,2,0,L|429:162,1,55,10|2,0:0|3:2,0:0:0:0:
201,183,43003,2,0,L|210:238,1,55,10|10,0:0|0:0,0:0:0:0:
177,267,43326,2,0,L|168:212,1,55,10|2,0:0|3:0,0:0:0:0:
178,99,44293,6,0,P|239:88|293:93,1,110,6|8,3:2|0:0,0:0:0:0:
351,152,44939,2,0,P|358:193|351:262,1,110,2|8,3:2|0:0,0:0:0:0:
263,250,45584,2,0,L|150:263,1,110,2|10,3:2|0:0,0:0:0:0:
73,225,46229,2,0,P|51:280|57:334,1,110,2|10,3:2|0:0,0:0:0:0:
143,336,46874,6,0,L|199:323,1,55,10|10,0:0|0:0,0:0:0:0:
224,289,47197,2,0,L|287:273,1,55,10|0,0:0|3:2,0:0:0:0:
487,340,48164,2,0,L|468:284,1,55,10|10,0:0|0:0,0:0:0:0:
477,244,48487,2,0,L|461:187,1,55,10|2,0:0|3:2,0:0:0:0:
273,78,49455,5,6,3:2:0:0:
203,131,49777,2,0,L|139:141,2,55,8|10|10,0:0|0:0|0:0,0:0:0:0:
279,175,50422,2,0,L|340:192,2,55,8|10|10,0:0|0:0|0:0,0:0:0:0:
202,218,51068,2,0,L|136:231,2,55,8|10|10,0:0|0:0|0:0,0:0:0:0:
273,269,51713,2,0,L|348:289,1,55,10|10,0:0|0:0,0:0:0:0:
337,358,53326,6,0,P|346:323|356:244,1,110,6|8,3:2|0:0,0:0:0:0:
352,205,53810,2,0,P|342:135|341:90,1,110,2|2,3:2|3:2,0:0:0:0:
352,53,54293,1,10,0:0:0:0:
265,39,54616,2,0,B|189:52|189:52|152:39,1,110,0|8,3:2|0:0,0:0:0:0:
116,56,55100,2,0,P|103:174|103:175,1,110,2|2,3:2|3:2,0:0:0:0:
113,207,55584,1,8,0:0:0:0:
147,287,55906,6,0,P|222:286|267:278,1,110,6|8,3:2|0:0,0:0:0:0:
286,248,56390,2,0,B|309:197|309:197|288:142,1,110,2|2,3:2|3:2,0:0:0:0:
266,108,56874,1,10,0:0:0:0:
340,61,57197,2,0,P|416:55|452:73,1,110,0|8,3:2|0:0,0:0:0:0:
470,104,57681,2,0,L|465:218,1,110,2|2,3:2|3:2,0:0:0:0:
479,255,58164,1,8,0:0:0:0:
420,320,58487,6,0,P|353:330|302:315,1,110,6|10,3:2|0:0,0:0:0:0:
269,329,58971,2,0,L|161:348,1,110,2|2,3:2|3:2,0:0:0:0:
122,326,59455,1,10,0:0:0:0:
94,242,59777,1,2,3:2:0:0:
94,242,59939,2,0,L|111:132,1,110,2|2,0:0|3:2,0:0:0:0:
102,90,60422,1,2,0:0:0:0:
177,44,60745,2,0,L|238:54,1,55,10|2,0:0|0:0,0:0:0:0:
267,78,61068,6,0,P|297:92|375:83,1,110,6|8,3:2|0:0,0:0:0:0:
410,64,61552,1,2,3:2:0:0:
410,64,61713,2,0,L|416:177,1,110,2|8,0:0|0:0,0:0:0:0:
450,254,62358,2,0,P|363:267|320:263,1,110,2|12,3:2|0:0,0:0:0:0:
307,237,62842,1,2,0:0:0:0:
307,237,63003,2,0,L|287:127,1,110,10|8,0:0|0:0,0:0:0:0:
211,83,63648,6,0,L|101:36,1,110,6|8,3:2|0:0,0:0:0:0:
65,37,64132,2,0,L|48:148,1,110,2|2,3:2|3:2,0:0:0:0:
54,188,64616,1,10,0:0:0:0:
90,268,64939,2,0,P|165:273|203:276,1,110,0|8,3:2|0:0,0:0:0:0:
238,256,65422,2,0,B|253:200|253:200|242:141,1,110,2|2,3:2|3:2,0:0:0:0:
228,107,65906,1,8,0:0:0:0:
302,60,66229,6,0,B|366:68|366:68|418:95,1,110,6|8,3:2|0:0,0:0:0:0:
410,132,66713,2,0,L|427:245,1,110,2|2,3:2|3:2,0:0:0:0:
409,281,67197,1,10,0:0:0:0:
335,328,67519,2,0,P|247:332|218:326,1,110,0|8,3:2|0:0,0:0:0:0:
191,300,68003,2,0,L|176:185,1,110,2|2,3:2|3:2,0:0:0:0:
183,147,68487,1,8,0:0:0:0:
239,79,68810,5,6,3:2:0:0:
317,117,69132,2,0,L|380:133,1,55,8|2,0:0|3:2,0:0:0:0:
401,162,69455,2,0,P|435:211|435:271,1,110,2|14,0:0|0:0,0:0:0:0:
405,289,69939,1,2,0:0:0:0:
361,285,70100,1,6,3:2:0:0:
67,334,71390,6,0,P|68:287|71:225,1,110,6|8,3:2|0:0,0:0:0:0:
108,200,71874,2,0,B|170:180|170:180|225:205,1,110,0|0,3:0|3:0,0:0:0:0:
243,227,72358,1,8,0:0:0:0:
312,281,72681,2,0,P|352:241|371:166,1,110,0|8,3:0|0:0,0:0:0:0:
371,147,73164,2,0,L|375:29,1,110,0|0,3:0|3:0,0:0:0:0:
341,8,73648,1,8,0:0:0:0:
255,28,73971,6,0,P|209:37|144:27,1,110,0|8,3:0|0:0,0:0:0:0:
103,21,74455,2,0,P|103:75|95:135,1,110,0|0,3:0|3:0,0:0:0:0:
82,172,74939,1,8,0:0:0:0:
137,240,75261,2,0,L|261:245,1,110,0|8,3:0|0:0,0:0:0:0:
288,230,75745,2,0,P|306:173|297:122,1,110,0|0,3:0|3:0,0:0:0:0:
330,94,76229,1,8,0:0:0:0:
429,90,76552,6,0,P|471:82|486:77,2,55,8|0|4,0:0|3:0|3:2,0:0:0:0:
416,131,77035,2,0,L|407:203,2,55,0|8|8,0:0|0:0|0:0,0:0:0:0:
309,209,77842,2,0,P|219:228|198:221,1,110,4|8,3:2|0:0,0:0:0:0:
160,220,78326,2,0,L|144:343,1,110,0|0,3:0|3:0,0:0:0:0:
109,354,78810,1,8,0:0:0:0:
29,316,79132,6,0,P|31:282|27:205,1,110,0|8,3:0|0:0,0:0:0:0:
37,163,79616,2,0,P|36:108|42:43,1,110,0|0,3:0|3:0,0:0:0:0:
62,15,80100,2,0,L|125:25,1,55,8|0,0:0|0:0,0:0:0:0:
148,53,80422,1,8,0:0:0:0:
401,297,81713,6,0,P|322:284|290:293,1,110,6|10,3:2|0:0,0:0:0:0:
252,306,82197,1,2,3:2:0:0:
164,311,82519,1,2,3:2:0:0:
164,311,82681,2,0,L|153:251,1,55,8|2,0:0|3:2,0:0:0:0:
163,214,83003,2,0,P|166:147|161:83,1,110,2|10,3:2|0:0,0:0:0:0:
195,73,83487,2,0,B|254:54|254:54|314:88,1,110,2|2,3:2|3:2,0:0:0:0:
325,110,83971,1,8,0:0:0:0:
406,143,84293,6,0,B|406:189|406:189|399:219|399:219|396:268,1,110,2|10,3:2|0:0,0:0:0:0:
377,291,84777,1,2,3:2:0:0:
297,328,85100,1,2,3:2:0:0:
297,328,85261,2,0,L|223:325,1,55,10|2,0:0|3:2,0:0:0:0:
209,295,85584,2,0,P|191:224|164:193,1,110,2|10,3:2|0:0,0:0:0:0:
128,178,86068,2,0,B|84:192|84:192|23:162,1,110,2|2,3:2|3:2,0:0:0:0:
6,124,86552,1,8,0:0:0:0:
77,72,86874,6,0,P|137:78|199:66,1,110,2|10,3:2|0:0,0:0:0:0:
224,91,87358,2,0,L|226:204,1,110,2|2,3:2|3:2,0:0:0:0:
195,233,87842,1,8,0:0:0:0:
142,303,88164,2,0,P|218:312|259:296,1,110,2|10,3:2|0:0,0:0:0:0:
272,264,88648,2,0,L|271:149,1,110,2|2,3:2|3:2,0:0:0:0:
259,111,89132,1,10,0:0:0:0:
221,31,89455,6,0,P|175:37|106:23,1,110,2|8,3:2|0:0,0:0:0:0:
72,43,89939,1,2,3:2:0:0:
45,78,90100,2,0,L|45:195,1,110,2|8,3:2|0:0,0:0:0:0:
54,231,90584,1,2,3:2:0:0:
88,258,90745,2,0,B|135:290|159:287,2,55,10|10|10,0:0|0:0|0:0,0:0:0:0:
270,67,92035,6,0,P|334:71|383:92,1,110,6|0,3:2|0:0,0:0:0:0:
360,174,92681,2,0,P|308:155|253:153,1,110,0|2,0:0|0:0,0:0:0:0:
166,166,93326,2,0,L|135:280,1,110,2|0,3:2|0:0,0:0:0:0:
51,251,93971,2,0,L|79:144,1,110,0|2,0:0|3:2,0:0:0:0:
124,69,94616,6,0,L|238:72,1,110,2|0,3:2|0:0,0:0:0:0:
204,154,95261,2,0,L|318:157,1,110,0|2,0:0|0:0,0:0:0:0:
401,144,95906,2,0,L|415:266,1,110,2|0,3:2|0:0,0:0:0:0:
430,340,96552,1,0,0:0:0:0:
430,340,96874,1,2,0:0:0:0:
341,337,97197,6,0,P|270:324|222:330,1,110,2|0,3:2|0:0,0:0:0:0:
238,239,97842,2,0,P|292:236|346:248,1,110,0|2,0:0|0:0,0:0:0:0:
428,218,98487,2,0,L|414:106,1,110,2|0,3:2|0:0,0:0:0:0:
330,81,99132,2,0,L|343:190,1,110,0|2,0:0|0:0,0:0:0:0:
309,271,99777,5,6,3:2:0:0:
250,341,100100,1,4,3:2:0:0:
203,260,100422,1,4,3:2:0:0:
143,334,100745,1,4,3:2:0:0:
86,255,101068,5,8,0:0:0:0:
156,102,102358,6,0,P|187:73|196:107,2,90.7500027694703,4|0|0,3:2|3:0|3:0,0:0:0:0:
136,146,103003,2,0,P|125:212|130:271,1,121.000003692627,12|0,0:0|0:0,0:0:0:0:
225,276,103648,2,0,B|270:298|270:298|309:282,2,90.7500027694703,0|0|0,3:0|3:0|3:0,0:0:0:0:
199,234,104293,1,8,0:0:0:0:
199,234,104455,2,0,P|183:200|184:168,2,60.5000018463135,0|4|0,0:0|0:0|0:0,0:0:0:0:
245,218,104939,2,0,P|303:200|345:162,1,90.7500027694703,4|0,3:2|3:0,0:0:0:0:
363,119,105422,5,0,3:0:0:0:
363,119,105584,2,0,P|323:98|266:84,1,90.7500027694703,8|0,0:0|0:0,0:0:0:0:
211,58,106068,1,0,0:0:0:0:
211,58,106229,2,0,P|170:98|169:150,1,90.7500027694703,0|0,3:0|3:0,0:0:0:0:
152,200,106713,2,0,L|156:263,1,60.5000018463135,0|8,3:0|0:0,0:0:0:0:
342,311,107519,6,0,P|405:304|428:289,2,90.7500027694703,4|0|0,3:2|3:0|3:0,0:0:0:0:
293,307,108164,1,8,0:0:0:0:
105,256,108810,2,0,B|87:308|87:308|41:341,2,90.7500027694703,0|0|0,3:0|3:0|3:0,0:0:0:0:
117,209,109455,1,8,0:0:0:0:
281,107,110100,6,0,P|280:75|293:109,2,90.7500027694703,4|0|0,3:2|3:0|3:0,0:0:0:0:
260,150,110745,2,0,P|233:217|211:232,1,90.7500027694703,8|0,0:0|0:0,0:0:0:0:
153,256,111229,1,0,0:0:0:0:
115,286,111390,2,0,B|79:316|79:316|91:274,2,90.7500027694703,4|0|0,3:2|3:0|3:0,0:0:0:0:
162,295,112035,1,8,0:0:0:0:
345,282,112681,6,0,P|350:226|348:161,1,121.000003692627,6|2,3:2|0:0,0:0:0:0:
327,123,113164,1,2,3:2:0:0:
327,123,113325,2,0,L|200:126,1,121.000003692627,8|0,0:0|0:0,0:0:0:0:
159,140,113810,1,2,0:0:0:0:
147,186,113971,2,0,P|131:257|134:305,1,121.000003692627,2|2,3:2|0:0,0:0:0:0:
176,328,114455,2,0,L|262:323,2,60.5000018463135,2|8|2,3:2|0:0|0:0,0:0:0:0:
84,315,115100,5,2,0:0:0:0:
84,315,115261,2,0,P|81:274|88:236,1,60.5000018463135,2|0,3:2|0:0,0:0:0:0:
97,208,115584,2,0,B|131:196|131:196|169:215,2,60.5000018463135,2|2|8,0:0|3:2|0:0,0:0:0:0:
48,213,116068,1,2,0:0:0:0:
50,116,116390,5,2,0:0:0:0:
50,116,116552,2,0,P|86:107|106:94,2,60.5000018463135,2|0|2,3:2|0:0|0:0,0:0:0:0:
2,105,117035,2,0,L|10:37,1,60.5000018463135,2|8,3:2|0:0,0:0:0:0:
107,53,117519,1,8,0:0:0:0:
145,41,117681,1,10,0:0:0:0:
161,50,117842,2,0,B|160:124,1,60.5000018463135,6|2,3:2|3:2,0:0:0:0:
192,96,118164,2,0,B|191:170,1,60.5000018463135,2|2,0:0|3:2,0:0:0:0:
250,211,118648,2,0,P|219:225|176:224,1,60.5000018463135,2|2,0:0|0:0,0:0:0:0:
132,232,119132,2,0,P|146:263|145:306,1,60.5000018463135,2|2,3:2|0:0,0:0:0:0:
173,344,119616,2,0,P|204:330|247:331,1,60.5000018463135,2|10,3:2|0:0,0:0:0:0:
291,344,120100,2,0,P|277:313|278:270,1,60.5000018463135,2|2,0:0|0:0,0:0:0:0:
323,250,120584,1,2,0:0:0:0:
391,166,120906,1,2,3:2:0:0:
391,166,121068,6,0,B|306:147|306:147|276:125,1,121.000003692627,10|2,0:0|0:0,0:0:0:0:
213,55,121713,1,8,0:0:0:0:
158,138,122035,1,10,0:0:0:0:
102,51,122358,1,10,0:0:0:0:
62,147,122681,1,10,0:0:0:0:
139,218,123003,6,0,P|175:245|270:269,1,131.99999597168,4|8,3:2|0:0,0:0:0:0:
308,252,123487,2,0,L|376:238,1,65.9999979858399,0|0,3:0|0:0,0:0:0:0:
407,198,123810,1,0,3:0:0:0:
294,86,124293,2,0,P|249:104|166:93,1,131.99999597168,4|8,3:2|0:0,0:0:0:0:
115,101,124777,2,0,B|101:139|101:139|115:177,1,65.9999979858399,0|0,3:0|0:0,0:0:0:0:
139,206,125100,1,0,3:0:0:0:
176,359,125584,6,0,L|44:352,1,131.99999597168,4|8,3:2|0:0,0:0:0:0:
1,320,126068,2,0,P|-1:279|11:248,1,65.9999979858399,0|0,3:0|0:0,0:0:0:0:
33,210,126390,1,0,3:0:0:0:
140,94,126874,2,0,P|205:108|269:96,1,131.99999597168,4|8,3:2|0:0,0:0:0:0:
321,89,127358,2,0,L|329:159,1,65.9999979858399,0|0,3:0|0:0,0:0:0:0:
366,191,127681,1,0,3:0:0:0:
366,191,127842,2,0,L|361:259,1,65.9999979858399,8|0,0:0|0:0,0:0:0:0:
337,303,128164,6,0,P|255:312|203:301,1,131.99999597168,4|8,3:2|0:0,0:0:0:0:
163,332,128648,2,0,P|120:327|86:331,1,65.9999979858399,0|0,3:0|0:0,0:0:0:0:
46,314,128971,1,0,3:0:0:0:
60,156,129455,2,0,B|51:134|59:121|59:121|153:143,1,131.99999597168,4|8,3:2|0:0,0:0:0:0:
203,131,129939,2,0,L|269:127,1,65.9999979858399,0|0,3:0|0:0,0:0:0:0:
317,147,130261,1,0,3:0:0:0:
323,285,130745,6,0,L|414:297,2,87.9999973144532,4|0|0,3:2|3:2|3:2,0:0:0:0:
329,236,131390,2,0,L|430:248,2,87.9999973144532,4|0|0,3:2|3:2|3:2,0:0:0:0:
283,209,132035,2,0,L|180:193,2,87.9999973144532,4|0|0,3:2|3:2|3:2,0:0:0:0:
272,143,132681,2,0,L|169:128,1,87.9999973144532,4|0,3:2|3:2,0:0:0:0:
141,121,133111,1,0,3:2:0:0:
74,292,134616,6,0,P|131:267|201:259,1,131.99999597168,6|8,3:2|0:0,0:0:0:0:
224,211,135100,2,0,P|302:207|354:187,1,131.99999597168,2|2,3:2|3:2,0:0:0:0:
404,197,135584,1,10,0:0:0:0:
466,111,135906,2,0,B|410:78|410:78|341:94,1,131.99999597168,0|8,3:2|0:0,0:0:0:0:
297,111,136390,2,0,L|156:130,1,131.99999597168,2|2,3:2|3:2,0:0:0:0:
113,131,136874,1,8,0:0:0:0:
56,220,137197,6,0,P|67:280|66:356,1,131.99999597168,6|8,3:2|0:0,0:0:0:0:
119,355,137681,2,0,P|172:346|234:295,1,131.99999597168,2|2,3:2|3:2,0:0:0:0:
266,258,138164,1,10,0:0:0:0:
366,291,138487,2,0,P|388:251|406:161,1,131.99999597168,0|8,3:2|0:0,0:0:0:0:
392,115,138971,2,0,L|253:108,1,131.99999597168,2|2,3:2|3:2,0:0:0:0:
209,93,139455,2,0,L|133:81,1,65.9999979858399,8|2,0:0|0:0,0:0:0:0:
91,86,139777,5,6,3:2:0:0:
65,188,140100,1,10,0:0:0:0:
110,283,140422,1,8,0:0:0:0:
215,285,140745,1,10,0:0:0:0:
264,191,141068,1,10,0:0:0:0:
350,139,141390,1,8,0:0:0:0:
455,141,141713,1,10,0:0:0:0:
491,239,142035,1,10,0:0:0:0:
409,305,142358,6,0,P|347:299|280:269,1,131.99999597168,10|8,0:0|0:0,0:0:0:0:
239,252,142842,1,8,0:0:0:0:
239,252,143003,2,0,L|241:117,1,131.99999597168,8|8,0:0|0:0,0:0:0:0:
242,71,143487,1,8,0:0:0:0:
242,71,143648,2,0,P|175:67|119:35,1,131.99999597168,2|0,0:0|0:0,0:0:0:0:
71,51,144132,1,2,0:0:0:0:
71,51,144293,2,0,L|70:187,1,131.99999597168,2|0,0:0|0:0,0:0:0:0:
70,289,144939,6,0,P|127:279|201:293,1,131.99999597168,6|8,3:2|0:0,0:0:0:0:
240,255,145422,2,0,P|309:257|377:246,1,131.99999597168,2|2,3:2|3:2,0:0:0:0:
416,275,145906,1,10,0:0:0:0:
437,171,146229,2,0,B|401:108|398:39,1,131.99999597168,0|8,3:2|0:0,0:0:0:0:
357,12,146713,2,0,P|274:31|221:26,1,131.99999597168,2|2,3:2|3:2,0:0:0:0:
175,20,147197,1,8,0:0:0:0:
70,33,147519,6,0,P|71:82|93:166,1,131.99999597168,6|8,3:2|0:0,0:0:0:0:
142,176,148003,2,0,L|285:178,1,131.99999597168,2|2,3:2|3:2,0:0:0:0:
326,188,148487,1,10,0:0:0:0:
368,284,148810,2,0,B|295:302|295:302|229:283,1,131.99999597168,0|8,3:2|0:0,0:0:0:0:
193,262,149293,2,0,L|54:262,1,131.99999597168,2|2,3:2|3:2,0:0:0:0:
22,225,149777,1,12,0:0:0:0:
62,127,150100,6,0,P|157:128|197:118,1,131.99999597168,14|8,0:0|0:0,0:0:0:0:
242,102,150584,1,2,3:2:0:0:
242,102,150745,2,0,L|249:240,1,131.99999597168,10|10,0:0|0:0,0:0:0:0:
310,319,151390,2,0,P|378:300|417:240,1,131.99999597168,14|10,0:0|0:0,0:0:0:0:
431,202,151874,1,0,3:0:0:0:
431,202,152035,2,0,B|435:108|435:108|422:66,1,131.99999597168,10|10,0:0|0:0,0:0:0:0:
317,78,152681,6,0,P|224:86|164:65,1,131.99999597168,6|10,3:2|0:0,0:0:0:0:
151,175,153326,2,0,L|139:307,1,131.99999597168,6|10,3:2|0:0,0:0:0:0:
244,317,153971,2,0,P|346:316|376:328,2,131.99999597168,6|8|0,3:2|0:0|3:0,0:0:0:0:
144,280,154939,1,2,3:2:0:0:
96,192,155261,5,6,3:2:0:0:
256,64,156552,1,2,3:2:0:0:
416,192,157842,1,2,3:2:0:0:
256,320,159132,1,0,3:0:0:0:
70,231,160422,6,0,L|85:92,1,131.99999597168,4|10,3:2|0:0,0:0:0:0:
137,84,160906,1,10,0:0:0:0:
137,84,161068,2,0,P|195:91|279:82,1,131.99999597168,8|10,0:0|0:0,0:0:0:0:
317,64,161552,1,8,0:0:0:0:
317,64,161713,2,0,L|309:137,1,65.9999979858399,10|8,0:0|0:0,0:0:0:0:
277,171,162035,2,0,L|284:253,1,65.9999979858399,8|10,0:0|0:0,0:0:0:0:
422,312,163003,6,0,P|426:268|423:179,1,131.99999597168,6|8,3:2|0:0,0:0:0:0:
378,151,163487,2,0,B|309:129|309:129|250:147,1,131.99999597168,0|0,3:0|3:0,0:0:0:0:
208,177,163971,1,8,0:0:0:0:
153,267,164293,2,0,P|98:222|84:160,1,131.99999597168,0|8,3:2|0:0,0:0:0:0:
98,114,164777,2,0,L|230:79,1,131.99999597168,0|0,3:0|3:0,0:0:0:0:
278,73,165261,1,8,0:0:0:0:
378,39,165584,6,0,L|389:178,1,131.99999597168,0|8,3:2|0:0,0:0:0:0:
433,198,166068,2,0,L|416:332,1,131.99999597168,0|0,3:0|3:0,0:0:0:0:
373,359,166552,1,8,0:0:0:0:
274,322,166874,2,0,P|209:305|135:303,1,131.99999597168,0|8,3:2|0:0,0:0:0:0:
96,279,167358,2,0,L|104:205,1,65.9999979858399,0|0,3:0|0:0,0:0:0:0:
132,54,168164,6,0,P|183:74|270:82,1,137.5,12|8,0:0|0:0,0:0:0:0:
319,79,168648,1,0,3:0:0:0:
319,79,168810,2,0,P|310:217|310:218,1,137.5,8|8,0:0|0:0,0:0:0:0:
290,324,169455,2,0,B|224:315|224:315|151:323,1,137.5,8|8,0:0|0:0,0:0:0:0:
99,331,169939,1,0,3:0:0:0:
99,331,170100,2,0,P|101:226|94:194,1,137.5,8|8,0:0|0:0,0:0:0:0:
142,95,170745,6,0,P|193:101|296:92,1,137.5,8|8,0:0|0:0,0:0:0:0:
332,83,171229,1,0,3:0:0:0:
332,83,171390,2,0,P|332:157|366:221,1,137.5,8|8,0:0|0:0,0:0:0:0:
455,266,172035,6,0,P|453:161|460:127,1,137.5,8|8,0:0|0:0,0:0:0:0:
472,75,172519,1,0,3:0:0:0:
472,75,172681,2,0,P|398:74|321:65,1,137.5,8|12,0:0|0:0,0:0:0:0:
304,82,173164,1,0,0:0:0:0:
295,115,173326,1,8,0:0:0:0:
