osu file format v14

[General]
AudioFilename: audio.mp3
AudioLeadIn: 0
PreviewTime: 134556
Countdown: 0
SampleSet: Soft
StackLeniency: 0.4
Mode: 0
LetterboxInBreaks: 0
WidescreenStoryboard: 1

[Editor]
Bookmarks: 423,4293,5584,10745,15906,26229,31390,41713,53326,71390,76552,81713,92035,101068,112681,123003,130745,133326,134616,141068,142358,144939,155261,163003,168164,173326
DistanceSpacing: 1
BeatDivisor: 4
GridSize: 16
TimelineZoom: 1.9

[Metadata]
Title:Monster Effect
TitleUnicode:モンスターエフェクト
Artist:THE ORAL CIGARETTES
ArtistUnicode:THE ORAL CIGARETTES
Creator:Scott D3
Version:Hard
Source:
Tags:the bkw show!! japanese rock Jrock J-rock Full ver version あきらかにあきら Akira Akirakani 中西雅哉 Masaya Nakanishi 山中拓也 Takuya Yamanaka 鈴木重伸 Shigenobu Suzuki W M WM aiea ai ea
BeatmapID:2878072
BeatmapSetID:1392861

[Difficulty]
HPDrainRate:5
CircleSize:3.4
OverallDifficulty:6
ApproachRate:7.2
SliderMultiplier:1.2
SliderTickRate:1

[Events]
//Background and Video events
0,0,"bg.jpg",0,0
//Break Periods
//Storyboard Layer 0 (Background)
//Storyboard Layer 1 (Fail)
//Storyboard Layer 2 (Pass)
//Storyboard Layer 3 (Foreground)
//Storyboard Layer 4 (Overlay)
//Storyboard Sound Samples

[TimingPoints]
423,322.58064516129,4,2,1,65,1,0
5584,-100,4,2,1,55,0,0
5664,-100,4,2,1,60,0,0
5906,-100,4,2,1,55,0,0
6229,-100,4,2,1,60,0,0
6390,-100,4,2,1,55,0,0
6713,-100,4,2,1,60,0,0
6874,-100,4,2,1,55,0,0
7035,-100,4,2,1,60,0,0
7197,-100,4,2,1,55,0,0
7519,-100,4,2,1,60,0,0
7680,-100,4,2,1,55,0,0
8003,-100,4,2,1,60,0,0
8164,-100,4,2,1,55,0,0
8244,-100,4,2,1,60,0,0
8487,-100,4,2,1,55,0,0
8809,-100,4,2,1,60,0,0
8970,-100,4,2,1,55,0,0
9293,-100,4,2,1,60,0,0
9455,-100,4,2,1,55,0,0
9616,-100,4,2,1,60,0,0
9777,-100,4,2,1,55,0,0
10100,-100,4,2,1,60,0,0
10261,-100,4,2,1,55,0,0
10584,-100,4,2,1,60,0,0
10745,-100,4,2,1,55,0,0
10825,-100,4,2,1,60,0,0
11068,-100,4,2,1,55,0,0
11390,-100,4,2,1,60,0,0
11551,-100,4,2,1,55,0,0
11874,-100,4,2,1,60,0,0
12035,-100,4,2,1,55,0,0
12196,-100,4,2,1,60,0,0
12358,-100,4,2,1,55,0,0
12681,-100,4,2,1,60,0,0
12842,-100,4,2,1,55,0,0
13164,-100,4,2,1,60,0,0
13326,-100,4,2,1,55,0,0
13406,-100,4,2,1,60,0,0
13648,-100,4,2,1,55,0,0
13971,-100,4,2,1,60,0,0
14132,-100,4,2,1,55,0,0
14454,-100,4,2,1,60,0,0
14616,-100,4,2,1,55,0,0
14777,-100,4,2,1,60,0,0
14939,-100,4,2,1,55,0,0
15261,-100,4,2,1,60,0,0
15422,-100,4,2,1,55,0,0
15906,-100,4,2,1,45,0,0
17358,-100,4,2,1,60,0,0
17519,-100,4,2,1,45,0,0
19938,-100,4,2,1,60,0,0
20099,-100,4,2,1,45,0,0
21229,-100,4,2,1,60,0,0
21390,-100,4,2,1,45,0,0
22519,-100,4,2,1,60,0,0
22681,-100,4,2,1,45,0,0
23487,-100,4,2,1,60,0,0
23648,-100,4,2,1,45,0,0
26229,-100,4,2,1,55,0,0
26390,-100,4,2,1,60,0,0
26552,-100,4,2,1,55,0,0
26874,-100,4,2,1,60,0,0
27035,-100,4,2,1,55,0,0
27358,-100,4,2,1,60,0,0
27519,-100,4,2,1,55,0,0
27680,-100,4,2,1,60,0,0
27842,-100,4,2,1,55,0,0
28164,-100,4,2,1,60,0,0
28326,-100,4,2,1,55,0,0
28648,-100,4,2,1,60,0,0
28810,-100,4,2,1,55,0,0
29454,-100,4,2,1,60,0,0
29616,-100,4,2,1,55,0,0
29938,-100,4,2,1,60,0,0
30100,-100,4,2,1,55,0,0
30261,-100,4,2,1,60,0,0
30423,-100,4,2,1,55,0,0
30745,-100,4,2,1,60,0,0
30906,-100,4,2,1,55,0,0
31390,-100,4,2,1,45,0,0
32035,-100,4,2,1,60,0,0
32196,-100,4,2,1,45,0,0
33325,-100,4,2,1,60,0,0
33487,-100,4,2,1,45,0,0
41551,-100,4,2,1,60,0,0
42196,-100,4,2,1,30,0,0
43003,-100,4,2,1,60,0,0
43486,-100,4,2,1,30,0,0
44293,-90.9090909090909,4,2,1,55,0,0
45745,-90.9090909090909,4,2,1,60,0,0
45906,-90.9090909090909,4,2,1,55,0,0
46067,-90.9090909090909,4,2,1,60,0,0
46229,-90.9090909090909,4,2,1,55,0,0
46390,-90.9090909090909,4,2,1,60,0,0
46552,-90.9090909090909,4,2,1,55,0,0
46713,-90.9090909090909,4,2,1,60,0,0
47357,-90.9090909090909,4,2,1,30,0,0
48164,-90.9090909090909,4,2,1,60,0,0
48648,-90.9090909090909,4,2,1,30,0,0
49455,-90.9090909090909,4,2,1,55,0,0
49616,-90.9090909090909,4,2,1,60,0,0
49777,-90.9090909090909,4,2,1,55,0,0
53164,-90.9090909090909,4,2,1,35,0,0
53326,-80,4,2,1,70,0,1
59616,-80,4,2,1,60,0,1
59777,-80,4,2,1,70,0,1
66068,-80,4,2,1,60,0,1
66229,-80,4,2,1,70,0,1
68971,-80,4,2,1,60,0,1
69132,-80,4,2,1,70,0,1
70100,-80,4,2,1,60,0,1
71390,-100,4,2,1,55,0,0
71470,-100,4,2,1,60,0,0
71713,-100,4,2,1,55,0,0
72035,-100,4,2,1,60,0,0
72196,-100,4,2,1,55,0,0
72519,-100,4,2,1,60,0,0
72681,-100,4,2,1,55,0,0
72842,-100,4,2,1,60,0,0
73003,-100,4,2,1,55,0,0
73325,-100,4,2,1,60,0,0
73486,-100,4,2,1,55,0,0
73809,-100,4,2,1,60,0,0
73971,-100,4,2,1,55,0,0
74132,-100,4,2,1,60,0,0
74293,-100,4,2,1,55,0,0
74616,-100,4,2,1,60,0,0
74777,-100,4,2,1,55,0,0
75100,-100,4,2,1,60,0,0
75261,-100,4,2,1,55,0,0
75422,-100,4,2,1,60,0,0
75584,-100,4,2,1,55,0,0
75906,-100,4,2,1,60,0,0
76067,-100,4,2,1,55,0,0
76390,-100,4,2,1,60,0,0
76552,-100,4,2,1,55,0,0
76793,-100,4,2,1,60,0,0
76874,-100,4,2,1,55,0,0
77035,-100,4,2,1,60,0,0
77197,-100,4,2,1,55,0,0
77922,-100,4,2,1,60,0,0
78164,-100,4,2,1,55,0,0
78406,-100,4,2,1,60,0,0
78648,-100,4,2,1,55,0,0
78971,-100,4,2,1,60,0,0
79132,-100,4,2,1,55,0,0
79212,-100,4,2,1,60,0,0
79455,-100,4,2,1,55,0,0
79777,-100,4,2,1,60,0,0
79938,-100,4,2,1,55,0,0
80260,-100,4,2,1,60,0,0
80422,-100,4,2,1,55,0,0
81552,-100,4,2,1,45,0,0
81632,-100,4,2,1,60,0,0
81713,-100,4,2,1,45,0,0
92035,-133.333333333333,4,2,1,30,0,0
92357,-133.333333333333,4,2,1,60,0,0
93003,-133.333333333333,4,2,1,30,0,0
93648,-133.333333333333,4,2,1,60,0,0
94293,-133.333333333333,4,2,1,30,0,0
94938,-133.333333333333,4,2,1,60,0,0
95583,-133.333333333333,4,2,1,30,0,0
96228,-133.333333333333,4,2,1,60,0,0
96390,-133.333333333333,4,2,1,30,0,0
96552,-133.333333333333,4,2,1,60,0,0
96874,-133.333333333333,4,2,1,30,0,0
97035,-133.333333333333,4,2,1,60,0,0
97197,-133.333333333333,4,2,1,30,0,0
97519,-133.333333333333,4,2,1,60,0,0
98164,-133.333333333333,4,2,1,30,0,0
98809,-133.333333333333,4,2,1,60,0,0
99454,-133.333333333333,4,2,1,30,0,0
99938,-133.333333333333,4,2,1,60,0,0
100100,-133.333333333333,4,2,1,40,0,0
100261,-133.333333333333,4,2,1,60,0,0
100422,-133.333333333333,4,2,1,50,0,0
100583,-133.333333333333,4,2,1,60,0,0
101068,-133.333333333333,4,2,1,65,0,0
101713,-90.9090909090909,4,2,1,60,0,0
101793,-90.9090909090909,4,2,1,5,0,0
102358,-90.9090909090909,4,2,1,55,0,0
103325,-90.9090909090909,4,2,1,60,0,0
103648,-90.9090909090909,4,2,1,55,0,0
104455,-90.9090909090909,4,2,1,60,0,0
104616,-90.9090909090909,4,2,1,55,0,0
104777,-90.9090909090909,4,2,1,60,0,0
104939,-90.9090909090909,4,2,1,55,0,0
105825,-90.9090909090909,4,2,1,60,0,0
106229,-90.9090909090909,4,2,1,55,0,0
107035,-90.9090909090909,4,2,1,60,0,0
107196,-90.9090909090909,4,2,1,55,0,0
107357,-90.9090909090909,4,2,1,60,0,0
107519,-90.9090909090909,4,2,1,55,0,0
108326,-90.9090909090909,4,2,1,60,0,0
108810,-90.9090909090909,4,2,1,55,0,0
109616,-90.9090909090909,4,2,1,60,0,0
109777,-90.9090909090909,4,2,1,55,0,0
109939,-90.9090909090909,4,2,1,60,0,0
110100,-90.9090909090909,4,2,1,55,0,0
110986,-90.9090909090909,4,2,1,60,0,0
111390,-90.9090909090909,4,2,1,55,0,0
112842,-90.9090909090909,4,2,1,60,0,0
113003,-90.9090909090909,4,2,1,55,0,0
113648,-90.9090909090909,4,2,1,60,0,0
113809,-90.9090909090909,4,2,1,55,0,0
114132,-90.9090909090909,4,2,1,60,0,0
114293,-90.9090909090909,4,2,1,55,0,0
114939,-90.9090909090909,4,2,1,60,0,0
115100,-90.9090909090909,4,2,1,55,0,0
115422,-90.9090909090909,4,2,1,60,0,0
115584,-90.9090909090909,4,2,1,55,0,0
116229,-90.9090909090909,4,2,1,60,0,0
116390,-90.9090909090909,4,2,1,55,0,0
116713,-90.9090909090909,4,2,1,60,0,0
116874,-90.9090909090909,4,2,1,55,0,0
118003,-90.9090909090909,4,2,1,60,0,0
118164,-90.9090909090909,4,2,1,55,0,0
120745,-90.9090909090909,4,2,1,60,0,0
120906,-90.9090909090909,4,2,1,55,0,0
121229,-90.9090909090909,4,2,1,60,0,0
121390,-90.9090909090909,4,2,1,55,0,0
122519,-90.9090909090909,4,2,1,60,0,0
122681,-90.9090909090909,4,2,1,55,0,0
123003,-83.3333333333333,4,2,1,60,0,0
130745,-76.9230769230769,4,2,1,60,0,0
134616,-71.4285714285714,4,2,1,70,0,1
139777,-71.4285714285714,4,2,1,50,0,0
141874,-71.4285714285714,4,2,1,60,0,0
142035,-71.4285714285714,4,2,1,50,0,0
143648,-71.4285714285714,4,2,1,35,0,0
144939,-66.6666666666667,4,2,1,70,0,1
150261,-66.6666666666667,4,2,1,60,0,1
150422,-66.6666666666667,4,2,1,70,0,1
152519,-66.6666666666667,4,2,1,60,0,1
152681,-66.6666666666667,4,2,1,70,0,1
152842,-66.6666666666667,4,2,1,60,0,1
153003,-66.6666666666667,4,2,1,70,0,1
155100,-66.6666666666667,4,2,1,60,0,1
155261,-66.6666666666667,4,2,1,35,0,0
156552,-133.333333333333,4,2,1,35,0,0
156632,-133.333333333333,4,2,1,5,0,0
157842,-133.333333333333,4,2,1,35,0,0
157922,-133.333333333333,4,2,1,5,0,0
159132,-133.333333333333,4,2,1,35,0,0
160422,-66.6666666666667,4,2,1,70,0,0
160583,-66.6666666666667,4,2,1,60,0,0
160745,-66.6666666666667,4,2,1,70,0,0
163003,-66.6666666666667,4,2,1,55,0,0
163083,-66.6666666666667,4,2,1,60,0,0
163326,-66.6666666666667,4,2,1,55,0,0
163648,-66.6666666666667,4,2,1,60,0,0
163809,-66.6666666666667,4,2,1,55,0,0
164132,-66.6666666666667,4,2,1,60,0,0
164293,-66.6666666666667,4,2,1,55,0,0
164454,-66.6666666666667,4,2,1,60,0,0
164616,-66.6666666666667,4,2,1,55,0,0
164938,-66.6666666666667,4,2,1,60,0,0
165099,-66.6666666666667,4,2,1,55,0,0
165422,-66.6666666666667,4,2,1,60,0,0
165584,-66.6666666666667,4,2,1,55,0,0
165664,-66.6666666666667,4,2,1,60,0,0
165906,-66.6666666666667,4,2,1,55,0,0
166229,-66.6666666666667,4,2,1,60,0,0
166390,-66.6666666666667,4,2,1,55,0,0
166713,-66.6666666666667,4,2,1,60,0,0
166874,-66.6666666666667,4,2,1,55,0,0
167035,-66.6666666666667,4,2,1,60,0,0
167197,-66.6666666666667,4,2,1,55,0,0
167519,-66.6666666666667,4,2,1,60,0,0
168164,-62.5,4,2,1,70,0,1
173164,-62.5,4,2,1,60,0,1
173326,-62.5,4,2,1,70,0,0

[Colours]
Combo1 : 254,180,202
Combo2 : 255,162,121
Combo3 : 232,130,130
SliderBorder : 255,228,145
SliderTrackOverride : 48,22,14

[HitObjects]
141,159,423,6,0,P|122:123|77:100,2,90,6|10|14,3:2|0:0|0:0,0:0:0:0:
205,312,1229,2,0,L|142:323,2,60,2|10|10,3:2|0:0|0:0,0:0:0:0:
317,326,1713,6,0,P|345:292|353:248,1,90,6|10,3:2|0:0,0:0:0:0:
340,150,2197,2,0,B|314:96|242:93,1,120,10|2,0:0|3:2,0:0:0:0:
159,104,2681,1,10,0:0:0:0:
123,195,2842,1,10,0:0:0:0:
201,253,3003,6,0,P|211:296|208:368,2,90,6|10|10,3:2|0:0|0:0,0:0:0:0:
265,184,3810,2,0,L|332:188,2,60,2|10|10,3:2|0:0|0:0,0:0:0:0:
123,192,4293,1,10,0:0:0:0:
258,287,5584,6,0,P|265:312|276:334,2,30,4|0|0,3:2|0:0|0:0,0:0:0:0:
310,191,5906,1,8,0:0:0:0:
190,176,6068,2,0,P|149:176|124:181,2,60,0|0|0,3:2|0:0|3:2,0:0:0:0:
256,98,6552,2,0,L|276:40,1,60,8|0,0:0|0:0,0:0:0:0:
375,49,6874,6,0,P|406:67|428:83,1,60,0|0,3:0|0:0,0:0:0:0:
384,166,7197,1,8,0:0:0:0:
426,241,7358,1,0,3:0:0:0:
392,324,7519,2,0,P|360:319|324:323,1,60,0|0,0:0|3:0,0:0:0:0:
254,283,7842,2,0,P|224:285|195:281,1,60,8|0,0:0|0:0,0:0:0:0:
92,284,8164,5,0,3:0:0:0:
92,284,8245,1,0,0:0:0:0:
92,284,8326,1,0,0:0:0:0:
151,221,8487,1,8,0:0:0:0:
127,129,8648,2,0,P|90:137|67:133,2,60,0|0|0,3:0|0:0|3:0,0:0:0:0:
208,65,9132,2,0,B|244:70|274:83|276:85,1,60,8|0,0:0|0:0,0:0:0:0:
335,136,9455,6,0,L|323:202,1,60,0|0,3:0|0:0,0:0:0:0:
386,269,9777,1,8,0:0:0:0:
310,316,9939,1,0,3:0:0:0:
225,248,10100,2,0,L|164:261,1,60,0|0,0:0|3:0,0:0:0:0:
75,228,10422,1,8,0:0:0:0:
138,152,10584,1,0,0:0:0:0:
83,74,10745,6,0,P|54:58|32:55,2,30,4|0|0,3:2|0:0|0:0,0:0:0:0:
200,79,11068,1,8,0:0:0:0:
288,114,11229,2,0,P|307:86|312:57,2,60,0|0|0,3:0|0:0|3:0,0:0:0:0:
324,211,11713,2,0,B|352:195|352:195|382:206,1,60,8|0,0:0|0:0,0:0:0:0:
464,164,12035,6,0,P|446:128|448:104,1,60,0|0,3:0|0:0,0:0:0:0:
379,46,12358,1,8,0:0:0:0:
284,86,12519,1,0,3:0:0:0:
191,36,12681,2,0,P|162:55|148:75,1,60,0|0,0:0|3:0,0:0:0:0:
216,144,13003,2,0,P|231:174|233:199,1,60,8|0,0:0|0:0,0:0:0:0:
157,268,13326,5,0,3:0:0:0:
157,268,13406,1,0,0:0:0:0:
157,268,13487,1,0,0:0:0:0:
240,310,13648,1,8,0:0:0:0:
328,266,13810,2,0,P|357:291|384:303,2,60,0|0|0,3:0|0:0|3:0,0:0:0:0:
407,218,14293,2,0,P|435:194|449:168,1,60,8|0,0:0|0:0,0:0:0:0:
354,138,14616,6,0,P|297:139|288:133,1,60,0|0,3:0|0:0,0:0:0:0:
265,58,14939,1,8,0:0:0:0:
166,51,15100,1,0,3:0:0:0:
133,137,15261,2,0,P|131:186|125:205,1,60,0|0,0:0|3:0,0:0:0:0:
152,282,15584,1,8,0:0:0:0:
57,233,15745,1,10,0:0:0:0:
57,233,15826,1,8,0:0:0:0:
57,233,15906,6,0,P|45:181|64:117,1,120,6|10,3:2|0:0,0:0:0:0:
153,150,16390,2,0,P|203:150|274:131,1,120,2|2,3:2|3:2,0:0:0:0:
348,63,16874,2,0,L|359:132,1,60,8|2,0:0|0:0,0:0:0:0:
411,199,17197,6,0,P|437:174|447:139,2,60,2|0|10,3:2|0:0|0:0,0:0:0:0:
357,122,17681,2,0,B|322:119|322:119|248:169,1,120,2|2,3:2|3:2,0:0:0:0:
160,202,18165,1,8,0:0:0:0:
174,298,18326,1,2,0:0:0:0:
273,283,18487,6,0,B|299:247|299:247|382:233,1,120,2|10,3:2|0:0,0:0:0:0:
477,232,18971,2,0,B|465:197|445:179|445:179|463:163|470:128,1,120,2|2,3:2|3:2,0:0:0:0:
357,121,19455,2,0,P|321:127|294:127,1,60,8|2,0:0|0:0,0:0:0:0:
224,191,19777,6,0,B|246:222|244:258,2,60,2|0|10,3:2|0:0|0:0,0:0:0:0:
219,110,20261,2,0,P|189:60|118:39,1,120,2|2,3:2|3:2,0:0:0:0:
44,24,20745,1,8,0:0:0:0:
18,115,20906,1,2,0:0:0:0:
108,140,21068,6,0,P|108:175|97:206,1,60,2|0,3:2|0:0,0:0:0:0:
38,263,21390,1,10,0:0:0:0:
66,352,21552,2,0,P|93:327|188:329,2,120,2|2|2,3:2|3:2|0:0,0:0:0:0:
23,281,22358,6,0,L|22:201,1,60,2|0,3:2|0:0,0:0:0:0:
116,165,22681,2,0,L|116:224,1,60,10|2,0:0|3:2,0:0:0:0:
195,284,23003,2,0,L|194:204,1,60,2|2,0:0|3:2,0:0:0:0:
288,168,23326,2,0,L|288:227,1,60,10|0,0:0|0:0,0:0:0:0:
312,358,23648,6,0,P|366:344|409:292,1,120,2|8,3:2|0:0,0:0:0:0:
460,223,24132,1,2,3:2:0:0:
475,142,24293,2,0,B|413:127|423:84|369:73,1,120,2|8,0:0|0:0,0:0:0:0:
290,62,24777,1,2,0:0:0:0:
271,145,24939,2,0,B|247:220|247:220|217:221|207:187,1,120,2|8,3:2|0:0,0:0:0:0:
176,115,25422,5,2,3:2:0:0:
77,103,25584,2,0,L|89:166,1,60,2|2,3:2|3:2,0:0:0:0:
171,209,25906,1,10,0:0:0:0:
252,309,26068,1,10,0:0:0:0:
252,309,26148,1,8,0:0:0:0:
252,309,26229,6,0,L|333:275,1,60,6|0,3:2|0:0,0:0:0:0:
392,225,26552,1,8,0:0:0:0:
291,183,26713,2,0,P|250:203|228:198,2,60,0|0|0,3:0|0:0|3:0,0:0:0:0:
374,134,27197,2,0,P|390:99|391:57,1,60,8|0,0:0|0:0,0:0:0:0:
280,51,27519,6,0,L|215:71,1,60,0|0,3:0|0:0,0:0:0:0:
125,116,27842,2,0,L|143:192,1,60,8|0,0:0|3:0,0:0:0:0:
148,264,28164,1,0,0:0:0:0:
248,218,28326,1,0,3:0:0:0:
320,294,28487,2,0,P|353:279|369:255,1,60,8|0,0:0|0:0,0:0:0:0:
445,198,28810,6,0,P|419:135|417:79,1,120,0|8,3:0|0:0,0:0:0:0:
321,61,29293,2,0,P|276:74|235:73,1,60,0|0,3:0|0:0,0:0:0:0:
177,83,29616,1,0,3:0:0:0:
200,162,29777,2,0,P|196:199|203:235,1,60,8|0,0:0|0:0,0:0:0:0:
102,246,30100,6,0,P|106:209|99:173,1,60,0|0,3:0|0:0,0:0:0:0:
38,114,30423,1,8,0:0:0:0:
99,44,30584,1,0,3:0:0:0:
173,100,30745,2,0,P|225:110|237:107,1,60,0|0,0:0|3:0,0:0:0:0:
331,88,31068,1,8,0:0:0:0:
307,220,31229,1,10,0:0:0:0:
307,220,31310,1,8,0:0:0:0:
307,220,31390,6,0,P|252:237|227:233,1,60,6|0,3:2|3:0,0:0:0:0:
155,221,31713,1,10,0:0:0:0:
100,302,31874,2,0,P|127:322|154:324,2,60,2|0|2,3:2|0:0|3:2,0:0:0:0:
19,236,32358,2,0,L|20:173,1,60,10|2,0:0|0:0,0:0:0:0:
120,190,32681,1,2,3:2:0:0:
139,97,32842,1,0,3:0:0:0:
64,47,33003,2,0,P|26:33|-16:47,2,60,10|2|0,0:0|3:2|0:0,0:0:0:0:
159,17,33487,1,2,3:2:0:0:
248,52,33648,2,0,P|254:101|262:117,1,60,8|2,0:0|0:0,0:0:0:0:
327,150,33971,6,0,P|336:190|350:206,2,60,2|0|10,3:2|3:0|0:0,0:0:0:0:
364,47,34455,2,0,P|399:70|430:142,1,120,2|2,3:2|3:2,0:0:0:0:
348,204,34939,2,0,P|340:246|329:271,1,60,10|2,0:0|0:0,0:0:0:0:
237,299,35261,2,0,P|204:293|182:279,1,60,2|0,3:2|3:0,0:0:0:0:
92,314,35584,1,10,0:0:0:0:
39,238,35745,2,0,P|32:204|66:129,2,120,2|2|2,3:2|3:2|0:0,0:0:0:0:
135,233,36552,6,0,P|186:251|257:250,1,120,2|10,3:2|0:0,0:0:0:0:
333,310,37035,2,0,P|355:240|341:179,1,120,2|2,3:2|3:2,0:0:0:0:
286,126,37519,2,0,P|252:133|217:127,1,60,8|2,0:0|0:0,0:0:0:0:
140,90,37842,6,0,P|122:158|138:216,1,120,2|10,3:2|0:0,0:0:0:0:
41,135,38487,2,0,P|59:67|43:9,1,120,2|10,0:0|0:0,0:0:0:0:
146,34,38971,1,2,0:0:0:0:
235,41,39132,2,0,P|249:95|285:158,1,120,2|8,3:2|0:0,0:0:0:0:
179,173,39616,1,2,3:2:0:0:
219,241,39777,2,0,P|240:267|347:286,1,120,2|8,0:0|0:0,0:0:0:0:
304,191,40261,1,2,0:0:0:0:
382,220,40422,2,0,P|402:259|461:319,1,120,2|8,3:2|0:0,0:0:0:0:
350,339,40906,1,2,3:2:0:0:
265,265,41068,6,0,P|212:256|181:266,1,60,2|0,0:0|3:0,0:0:0:0:
354,264,41390,2,0,P|407:273|438:263,1,60,10|0,0:0|0:0,0:0:0:0:
400,353,41713,5,10,0:0:0:0:
487,321,41874,2,0,P|508:308|513:308,4,30,10|10|10|10|2,0:0|0:0|0:0|0:0|3:2,0:0:0:0:
499,250,43003,5,10,0:0:0:0:
416,168,43164,2,0,P|399:146|394:143,4,30,10|10|10|10|2,0:0|0:0|0:0|0:0|3:0,0:0:0:0:
416,168,44293,6,0,P|381:118|320:82,1,132.00000402832,6|8,3:2|0:0,0:0:0:0:
228,81,44777,1,2,0:0:0:0:
133,82,44939,2,0,P|76:114|37:167,1,132.00000402832,2|8,3:2|0:0,0:0:0:0:
18,254,45422,1,2,0:0:0:0:
121,232,45584,2,0,P|160:212|182:212,1,66.0000020141602,2|0,3:2|0:0,0:0:0:0:
175,297,45906,2,0,P|147:314|114:317,1,66.0000020141602,10|0,0:0|0:0,0:0:0:0:
55,282,46229,1,2,3:2:0:0:
45,176,46390,1,0,0:0:0:0:
121,232,46552,1,10,0:0:0:0:
129,123,46713,1,0,0:0:0:0:
221,227,46874,5,10,0:0:0:0:
273,326,47035,2,0,P|300:308|303:303,4,33.0000010070801,10|10|10|10|0,0:0|0:0|0:0|0:0|3:2,0:0:0:0:
302,238,48164,5,10,0:0:0:0:
359,334,48326,2,0,P|369:310|379:298,4,33.0000010070801,10|10|10|10|2,0:0|0:0|0:0|0:0|3:2,0:0:0:0:
359,334,49455,6,0,P|355:287|359:262,1,66.0000020141602,6|0,3:2|0:0,0:0:0:0:
328,177,49777,1,8,0:0:0:0:
388,95,49939,1,10,0:0:0:0:
274,68,50100,2,0,P|221:69|189:79,1,66.0000020141602,10|8,0:0|0:0,0:0:0:0:
121,70,50422,2,0,P|112:126|116:147,1,66.0000020141602,8|10,0:0|0:0,0:0:0:0:
163,233,50745,2,0,P|167:283|161:313,1,66.0000020141602,10|8,0:0|0:0,0:0:0:0:
223,170,51068,2,0,P|227:120|221:90,1,66.0000020141602,8|10,0:0|0:0,0:0:0:0:
291,258,51390,5,10,0:0:0:0:
361,192,51552,1,8,0:0:0:0:
299,115,51713,1,10,0:0:0:0:
369,57,51874,1,10,0:0:0:0:
369,57,53164,5,2,0:0:0:0:
488,44,53326,2,0,B|465:100|465:100|433:121|433:121|412:174,1,150,6|8,3:2|0:0,0:0:0:0:
484,243,53810,2,0,P|440:270|339:257,1,150,2|2,3:2|3:2,0:0:0:0:
260,178,54293,2,0,P|224:228|226:255,1,75,10|2,0:0|0:0,0:0:0:0:
240,348,54616,5,0,3:2:0:0:
143,333,54777,2,0,P|127:275|107:258,1,75,2|8,0:0|0:0,0:0:0:0:
14,233,55100,2,0,P|8:188|56:84,1,150,2|2,3:2|3:2,0:0:0:0:
148,50,55584,1,8,0:0:0:0:
223,122,55745,1,2,0:0:0:0:
315,42,55906,6,0,P|312:86|344:191,1,150,6|8,3:2|0:0,0:0:0:0:
284,261,56390,2,0,P|240:258|135:290,1,150,2|2,3:2|3:2,0:0:0:0:
42,348,56874,1,10,0:0:0:0:
185,339,57035,2,0,P|162:311|127:299,1,75,2|0,0:0|3:2,0:0:0:0:
48,221,57358,6,0,P|42:184|56:150,1,75,2|8,0:0|0:0,0:0:0:0:
161,154,57681,2,0,P|220:170|321:162,1,150,2|2,3:2|3:2,0:0:0:0:
413,169,58164,1,8,0:0:0:0:
435,66,58326,1,2,0:0:0:0:
316,31,58487,6,0,L|285:177,1,150,6|10,3:2|0:0,0:0:0:0:
192,221,58971,2,0,P|253:277|324:266,1,150,2|2,3:2|3:2,0:0:0:0:
408,218,59455,2,0,P|411:164|430:123,1,75,10|0,0:0|0:0,0:0:0:0:
457,58,59777,1,2,3:2:0:0:
347,81,59939,2,0,P|301:98|200:86,1,150,2|2,0:0|3:2,0:0:0:0:
107,146,60422,2,0,L|120:226,1,75,2|0,0:0|3:0,0:0:0:0:
212,192,60745,1,10,0:0:0:0:
195,293,60906,1,2,0:0:0:0:
292,329,61068,6,0,B|339:301|339:301|364:204,1,150,6|8,3:2|0:0,3:0:0:0:
344,123,61552,1,2,3:2:0:0:
247,136,61713,2,0,P|206:137|89:108,1,150,2|8,0:0|0:0,0:0:0:0:
48,183,62197,1,2,0:0:0:0:
130,231,62358,2,0,B|156:271|137:309|137:309|174:297|202:314,1,150,2|12,3:2|0:0,0:0:0:0:
322,280,62842,1,2,0:0:0:0:
252,230,63003,2,0,L|242:185,3,37.5,10|8|8|8,0:0|0:0|0:0|0:0,0:0:0:0:
204,181,63326,2,0,L|194:136,3,37.5,8|8|8|8,0:0|0:0|0:0|0:0,0:0:0:0:
249,146,63648,6,0,P|284:127|396:137,1,150,6|8,3:2|0:0,0:0:0:0:
263,43,64132,2,0,P|193:69|121:54,1,150,2|2,3:2|3:2,0:0:0:0:
12,29,64616,2,0,P|19:77|10:113,1,75,10|2,0:0|0:0,0:0:0:0:
70,180,64939,5,0,3:2:0:0:
26,282,65100,2,0,B|70:269|70:269|119:280,1,75,2|8,0:0|0:0,0:0:0:0:
212,327,65422,2,0,P|209:248|227:177,1,150,2|2,3:2|3:2,0:0:0:0:
228,77,65906,1,8,0:0:0:0:
338,59,66068,1,0,0:0:0:0:
300,190,66229,6,0,P|307:274|343:337,1,150,6|8,3:2|0:0,0:0:0:0:
448,323,66713,2,0,P|481:256|485:182,1,150,2|2,3:2|3:2,0:0:0:0:
470,62,67197,2,0,B|446:76|446:76|377:58,1,75,10|2,0:0|0:0,0:0:0:0:
314,8,67519,5,0,3:2:0:0:
308,115,67681,2,0,P|299:164|303:217,1,75,2|8,0:0|0:0,0:0:0:0:
189,175,68003,2,0,P|151:162|36:186,1,150,2|2,3:2|3:2,0:0:0:0:
59,260,68487,1,8,0:0:0:0:
137,318,68648,1,2,0:0:0:0:
226,246,68810,6,0,P|277:244|303:235,1,75,6|0,3:2|0:0,0:0:0:0:
361,178,69132,1,8,0:0:0:0:
269,129,69293,1,2,3:2:0:0:
187,175,69455,2,0,P|139:184|112:173,1,75,2|2,0:0|3:2,0:0:0:0:
59,260,69777,2,0,P|101:283|129:281,1,75,14|2,0:0|0:0,0:0:0:0:
246,293,70100,1,6,3:2:0:0:
304,317,71390,6,0,P|324:350|338:359,2,30,6|0|0,3:2|0:0|0:0,0:0:0:0:
253,224,71713,1,8,0:0:0:0:
331,158,71874,2,0,P|371:155|409:144,2,60,0|0|0,3:0|0:0|3:0,0:0:0:0:
207,137,72358,2,0,P|166:131|137:134,1,60,8|0,0:0|0:0,0:0:0:0:
58,201,72681,6,0,P|66:237|84:268,1,60,0|0,3:0|0:0,0:0:0:0:
178,293,73003,1,8,0:0:0:0:
306,287,73164,2,0,P|335:298|379:302,2,60,0|0|0,3:0|0:0|3:0,0:0:0:0:
240,203,73648,2,0,P|242:155|258:123,1,60,8|0,0:0|0:0,0:0:0:0:
325,59,73971,6,0,L|393:63,1,60,0|0,3:0|0:0,0:0:0:0:
501,47,74293,1,8,0:0:0:0:
439,160,74455,2,0,P|459:187|487:202,2,60,0|0|0,3:0|0:0|3:0,0:0:0:0:
384,62,74939,2,0,L|325:59,1,60,8|0,0:0|0:0,0:0:0:0:
233,141,75261,6,0,L|233:81,1,60,0|0,3:0|0:0,0:0:0:0:
153,124,75584,2,0,L|153:184,1,60,8|0,0:0|3:0,0:0:0:0:
80,130,75906,2,0,L|80:70,1,60,0|0,0:0|3:0,0:0:0:0:
0,113,76229,2,0,L|0:173,1,60,8|0,0:0|0:0,0:0:0:0:
44,274,76552,6,0,P|78:274|84:273,4,30,8|0|0|0|4,0:0|3:0|3:0|0:0|3:2,0:0:0:0:
136,193,77035,1,0,0:0:0:0:
136,193,77116,1,0,0:0:0:0:
136,193,77197,2,0,P|168:190|170:189,4,30,8|8|8|8|0,0:0|0:0|0:0|0:0|3:0,0:0:0:0:
242,265,77842,6,0,L|243:308,2,30,4|0|0,3:2|0:0|0:0,0:0:0:0:
302,208,78164,1,8,0:0:0:0:
382,226,78326,2,0,L|427:230,2,30,0|0|0,3:0|0:0|0:0,0:0:0:0:
358,146,78648,1,0,3:0:0:0:
274,135,78810,1,8,0:0:0:0:
233,58,78971,1,0,0:0:0:0:
324,57,79132,6,0,P|346:34|347:32,2,30,0|0|0,3:0|0:0|0:0,0:0:0:0:
454,30,79455,2,0,P|453:77|445:94,1,60,8|0,0:0|3:0,0:0:0:0:
418,184,79777,2,0,P|443:211|483:232,1,60,0|0,0:0|3:0,0:0:0:0:
400,291,80099,2,0,P|367:295|339:308,1,60,8|0,0:0|0:0,0:0:0:0:
256,367,80422,1,8,0:0:0:0:
176,292,81552,1,2,0:0:0:0:
176,292,81632,1,0,0:0:0:0:
176,292,81713,6,0,L|183:207,1,60,6|0,3:2|3:0,0:0:0:0:
224,159,82035,1,10,0:0:0:0:
313,157,82197,2,0,P|340:174|371:174,2,60,2|0|2,3:2|3:0|3:2,0:0:0:0:
235,73,82681,2,0,P|194:76|172:83,1,60,8|2,0:0|3:2,0:0:0:0:
114,164,83003,2,0,P|67:166|49:173,2,60,2|0|10,3:2|3:0|0:0,0:0:0:0:
211,218,83487,2,0,P|258:220|276:227,2,60,2|0|2,3:2|3:0|3:2,0:0:0:0:
108,255,83971,1,8,0:0:0:0:
116,348,84132,1,2,3:2:0:0:
205,326,84293,6,0,P|241:317|268:301,1,60,2|0,3:2|3:0,0:0:0:0:
311,241,84616,1,10,0:0:0:0:
386,298,84777,2,0,P|393:329|416:349,2,60,2|0|2,3:2|3:0|3:2,0:0:0:0:
441,228,85261,1,10,0:0:0:0:
363,180,85422,1,2,3:2:0:0:
437,123,85584,2,0,P|476:121|496:113,2,60,2|0|10,3:2|3:0|0:0,0:0:0:0:
333,88,86068,2,0,L|260:89,1,60,2|0,3:2|3:0,0:0:0:0:
186,134,86390,1,2,3:2:0:0:
277,194,86552,2,0,L|271:257,1,60,8|2,0:0|3:2,0:0:0:0:
193,326,86874,6,0,P|155:325|115:312,1,60,2|0,3:2|3:0,0:0:0:0:
56,263,87197,1,10,0:0:0:0:
84,181,87358,2,0,P|81:116|87:61,2,120,2|2|2,3:2|3:2|3:2,0:0:0:0:
79,275,88164,1,2,3:2:0:0:
172,292,88326,1,0,3:0:0:0:
195,201,88487,2,0,L|254:221,1,60,10|2,0:0|3:2,0:0:0:0:
338,232,88810,1,2,3:2:0:0:
414,180,88971,1,2,3:2:0:0:
381,101,89132,2,0,P|341:99|311:94,1,60,10|2,0:0|3:2,0:0:0:0:
230,54,89455,6,0,P|187:70|109:84,1,120,2|8,3:2|0:0,0:0:0:0:
22,59,89939,1,2,3:2:0:0:
42,149,90100,2,0,P|70:200|123:240,1,120,2|8,3:2|0:0,0:0:0:0:
216,159,90584,1,2,3:2:0:0:
218,267,90745,2,0,P|245:293|267:299,2,60,10|10|10,0:0|0:0|0:0,0:0:0:0:
99,325,92035,6,0,L|99:232,1,90.0000034332277,6|0,3:2|0:0,0:0:0:0:
173,248,92681,2,0,L|173:155,1,90.0000034332277,0|2,0:0|0:0,0:0:0:0:
249,87,93326,2,0,L|249:177,1,90.0000034332277,2|0,3:2|0:0,0:0:0:0:
323,10,93971,2,0,L|323:100,1,90.0000034332277,0|2,0:0|3:2,0:0:0:0:
249,177,94616,6,0,P|202:188|156:180,3,90.0000034332277,2|0|0|2,3:2|0:0|0:0|0:0,0:0:0:0:
44,109,95906,2,0,P|91:98|137:106,1,90.0000034332277,2|0,3:2|0:0,0:0:0:0:
166,224,96390,5,2,0:0:0:0:
238,160,96552,2,0,B|257:147|257:147|266:171,3,45.0000017166138,0|0|2|0,0:0|0:0|0:0|0:0,0:0:0:0:
274,276,97197,6,0,P|321:288|367:278,1,90.0000034332277,2|0,3:2|0:0,0:0:0:0:
384,353,97842,2,0,P|425:328|451:288,1,90.0000034332277,0|2,0:0|0:0,0:0:0:0:
500,226,98487,2,0,P|453:214|407:224,1,90.0000034332277,2|0,3:2|0:0,0:0:0:0:
390,149,99132,2,0,P|348:173|322:213,1,90.0000034332277,0|2,0:0|0:0,0:0:0:0:
274,276,99777,6,0,P|238:268|229:262,1,45.0000017166138,6|0,3:2|0:0,0:0:0:0:
176,311,100100,2,0,P|156:279|154:269,1,45.0000017166138,4|0,3:2|0:0,0:0:0:0:
82,270,100422,2,0,P|90:234|96:224,1,45.0000017166138,4|0,3:2|0:0,0:0:0:0:
47,172,100745,2,0,P|78:152|88:150,1,45.0000017166138,4|0,3:2|0:0,0:0:0:0:
203,128,101068,5,8,0:0:0:0:
203,128,101713,6,0,B|283:144|299:192|299:192|315:240|395:256,1,231.000007049561
413,228,102358,6,0,P|438:229|416:230,2,99.0000030212403,4|0|0,3:2|3:0|3:0,0:0:0:0:
379,314,103003,2,0,P|331:316|245:283,1,132.00000402832,12|0,0:0|0:0,0:0:0:0:
189,215,103487,1,0,0:0:0:0:
263,147,103648,2,0,B|287:105|287:105|311:154,2,99.0000030212403,0|0|0,3:0|3:0|3:0,0:0:0:0:
156,116,104293,1,8,0:0:0:0:
141,32,104455,2,0,P|96:28|62:18,2,66.0000020141602,0|4|0,0:0|0:0|0:0,0:0:0:0:
228,86,104939,6,0,B|236:117|226:147|226:147|256:140|285:155,2,99.0000030212403,4|0|0,3:2|3:0|3:0,0:0:0:0:
345,49,105584,2,0,B|348:102|356:110|356:110|346:170,1,99.0000030212403,8|0,0:0|0:0,0:0:0:0:
347,159,106068,1,0,0:0:0:0:
272,229,106229,2,0,B|246:209|229:226|229:226|231:278,2,99.0000030212403,0|0|0,3:0|3:0|3:0,0:0:0:0:
346,290,106874,1,8,0:0:0:0:
421,247,107035,2,0,P|441:218|449:187,2,66.0000020141602,0|4|0,0:0|0:0|0:0,0:0:0:0:
326,191,107519,6,0,P|288:191|237:153,2,99.0000030212403,4|0|0,3:2|3:0|3:0,0:0:0:0:
341,91,108164,1,8,0:0:0:0:
255,72,108326,2,0,B|286:63|319:62,2,66.0000020141602
149,57,108810,2,0,P|127:59|146:59,2,99.0000030212403,0|0|0,3:0|3:0|3:0,0:0:0:0:
135,152,109455,2,0,P|135:192|125:220,1,66.0000020141602,8|0,0:0|0:0,0:0:0:0:
47,272,109777,1,4,0:0:0:0:
107,359,109939,1,0,0:0:0:0:
196,310,110100,6,0,B|211:266|211:266|247:271|247:271|259:298,2,99.0000030212403,4|0|0,3:2|3:0|3:0,0:0:0:0:
270,355,110745,2,0,P|306:339|310:258,2,99.0000030212403,8|0|0,0:0|0:0|0:0,0:0:0:0:
381,216,111390,2,0,B|351:217|351:217|341:185|341:185|319:213|319:213,2,99.0000030212403,4|0|0,3:2|3:0|3:0,0:0:0:0:
408,102,112035,1,8,0:0:0:0:
478,185,112358,2,0,P|479:223|468:241,3,33.0000010070801,8|8|8|8,0:0|0:0|0:0|0:0,0:0:0:0:
493,248,112681,6,0,P|461:283|422:289,1,66.0000020141602,6|0,3:2|0:0,0:0:0:0:
348,264,113003,1,2,0:0:0:0:
274,328,113164,2,0,P|222:325|188:306,2,66.0000020141602,2|8|2,3:2|0:0|0:0,0:0:0:0:
348,264,113648,2,0,P|323:227|318:192,1,66.0000020141602,0|2,0:0|0:0,0:0:0:0:
312,104,113971,6,0,B|257:97|257:97|232:113,1,66.0000020141602,2|0,3:2|0:0,0:0:0:0:
165,152,114293,1,2,0:0:0:0:
77,80,114455,2,0,P|67:114|79:169,1,66.0000020141602,2|8,3:2|0:0,0:0:0:0:
100,226,114777,1,2,0:0:0:0:
107,320,114939,1,0,0:0:0:0:
185,275,115100,6,0,P|231:277|260:286,2,66.0000020141602,2|2|0,0:0|3:2|0:0,0:0:0:0:
100,226,115584,1,2,0:0:0:0:
69,144,115745,2,0,P|67:111|77:80,1,66.0000020141602,2|8,3:2|0:0,0:0:0:0:
176,28,116068,2,0,P|177:60|168:92,1,66.0000020141602,2|0,0:0|0:0,0:0:0:0:
160,170,116390,1,2,0:0:0:0:
261,227,116552,2,0,B|282:258|282:258|313:264,2,66.0000020141602,2|0|2,3:2|0:0|0:0,0:0:0:0:
281,127,117035,1,2,3:2:0:0:
379,90,117197,2,0,L|425:42,1,66.0000020141602,8|2,0:0|0:0,0:0:0:0:
457,145,117519,1,8,0:0:0:0:
374,203,117681,1,10,0:0:0:0:
460,259,117842,6,0,P|441:303|412:312,1,66.0000020141602,6|0,3:2|0:0,0:0:0:0:
350,353,118164,1,2,0:0:0:0:
318,266,118326,2,0,P|297:226|294:201,1,66.0000020141602,2|12,3:2|0:0,0:0:0:0:
349,127,118648,1,2,0:0:0:0:
246,124,118810,2,0,P|212:159|137:202,1,132.00000402832,2|2,0:0|3:2,0:0:0:0:
94,301,119293,2,0,P|63:241|64:168,1,132.00000402832,2|2,0:0|3:2,0:0:0:0:
108,77,119777,2,0,B|173:107|173:107|239:84,1,132.00000402832,10|2,0:0|0:0,0:0:0:0:
265,154,120261,2,0,B|225:168|225:168|188:203,1,66.0000020141602,2|0,0:0|3:0,0:0:0:0:
115,188,120584,1,2,0:0:0:0:
153,265,120745,2,0,P|190:281|228:285,1,66.0000020141602,0|2,0:0|3:2,0:0:0:0:
324,313,121068,6,0,B|328:273|346:232,1,66.0000020141602,10|0,0:0|0:0,0:0:0:0:
421,207,121390,1,2,0:0:0:0:
434,116,121552,1,2,0:0:0:0:
355,64,121713,2,0,P|317:74|289:72,1,66.0000020141602,8|2,0:0|3:2,0:0:0:0:
140,44,122035,2,0,P|178:34|206:36,1,66.0000020141602,10|0,0:0|3:0,0:0:0:0:
253,111,122358,1,10,0:0:0:0:
217,194,122519,1,0,0:0:0:0:
325,193,122681,1,10,0:0:0:0:
325,193,122761,1,8,0:0:0:0:
325,193,122842,1,8,0:0:0:0:
404,127,123003,6,0,L|406:82,2,35.9999989013672,4|0|0,3:2|0:0|0:0,0:0:0:0:
458,206,123326,1,8,0:0:0:0:
384,287,123487,2,0,P|335:291|289:285,2,71.9999978027344,0|0|0,3:0|0:0|3:0,0:0:0:0:
371,167,124293,5,4,3:2:0:0:
371,167,124374,1,0,0:0:0:0:
371,167,124455,2,0,P|330:146|287:145,1,71.9999978027344,0|8,0:0|0:0,0:0:0:0:
207,202,124777,2,0,P|160:199|138:187,2,71.9999978027344,0|0|0,3:0|0:0|3:0,0:0:0:0:
229,103,125584,6,0,B|225:84|225:84|212:94,2,35.9999989013672,4|0|0,3:2|0:0|0:0,0:0:0:0:
138,100,125906,2,0,L|139:187,1,71.9999978027344,8|0,0:0|3:0,0:0:0:0:
45,189,126229,2,0,L|69:266,1,71.9999978027344,0|0,0:0|3:0,0:0:0:0:
164,303,126874,6,0,B|176:323|176:323|193:314,2,35.9999989013672,4|0|0,3:2|0:0|0:0,0:0:0:0:
195,220,127197,1,8,0:0:0:0:
291,185,127358,2,0,P|321:211|363:224,2,71.9999978027344,0|0|0,3:0|0:0|3:0,0:0:0:0:
261,96,127842,2,0,P|225:94|185:83,1,71.9999978027344,8|0,0:0|0:0,0:0:0:0:
92,47,128164,5,4,3:2:0:0:
92,47,128245,1,0,0:0:0:0:
92,47,128326,1,0,0:0:0:0:
182,72,128487,1,8,0:0:0:0:
131,160,128648,2,0,P|82:163|46:148,2,71.9999978027344,0|0|0,3:0|0:0|3:0,0:0:0:0:
229,147,129455,5,4,3:2:0:0:
229,147,129535,1,0,0:0:0:0:
229,147,129616,2,0,P|267:162|297:169,1,71.9999978027344,0|8,0:0|0:0,0:0:0:0:
354,259,129939,2,0,P|316:283|278:288,1,71.9999978027344,0|0,3:0|0:0,0:0:0:0:
183,263,130261,1,0,3:0:0:0:
111,194,130745,6,0,B|69:198|69:198|108:134,2,103.999995239258,4|0|0,3:2|3:2|3:2,0:0:0:0:
239,163,131390,2,0,P|247:113|229:51,1,103.999995239258,4|0,3:2|3:2,0:0:0:0:
189,12,131820,1,0,3:2:0:0:
314,44,132035,2,0,P|375:87|424:93,1,103.999995239258,4|0,3:2|3:2,0:0:0:0:
500,100,132466,1,0,3:2:0:0:
450,197,132681,2,0,P|418:215|446:192,2,103.999995239258,4|0|0,3:2|3:2|3:2,0:0:0:0:
323,167,133406,5,8,0:0:0:0:
303,72,133648,1,8,0:0:0:0:
303,72,133729,1,8,0:0:0:0:
303,72,133810,2,0,P|262:62|240:67,6,38.9999982147218,8|8|8|8|8|8|0,0:0|0:0|0:0|0:0|0:0|0:0|3:0,0:0:0:0:
167,3,134455,5,2,0:0:0:0:
87,91,134616,2,0,B|94:145|94:145|113:169|113:169|122:251,1,167.999994873047,6|8,3:2|0:0,0:0:0:0:
211,189,135100,2,0,B|215:243|215:243|203:270|203:270|212:353,1,167.999994873047,2|2,3:2|3:2,0:0:0:0:
332,356,135584,2,0,P|368:306|367:271,1,83.9999974365235,10|2,0:0|0:0,0:0:0:0:
434,217,135906,5,0,3:2:0:0:
351,153,136068,2,0,P|318:126|277:121,1,83.9999974365235,2|8,0:0|0:0,0:0:0:0:
168,155,136390,2,0,P|98:110|15:110,1,167.999994873047,2|2,3:2|3:2,0:0:0:0:
46,212,136874,1,8,0:0:0:0:
180,247,137035,1,2,0:0:0:0:
242,129,137197,6,0,B|348:99|348:99|374:140|336:170,1,167.999994873047,6|8,3:2|0:0,0:0:0:0:
269,229,137681,2,0,B|265:308|279:338|279:338|239:340|223:352,1,167.999994873047,2|2,3:2|3:2,0:0:0:0:
85,333,138164,2,0,P|83:277|94:237,1,83.9999974365235,10|2,0:0|0:0,0:0:0:0:
49,126,138487,6,0,P|97:132|136:126,1,83.9999974365235,0|2,3:2|0:0,0:0:0:0:
237,77,138810,1,8,0:0:0:0:
306,162,138971,2,0,P|309:221|416:304,1,167.999994873047,2|2,3:2|3:2,0:0:0:0:
394,124,139455,2,0,P|391:208|391:209,1,83.9999974365235,8|2,0:0|0:0,0:0:0:0:
276,327,139777,6,0,P|212:307|154:222,1,167.999994873047,6|10,3:2|0:0,0:0:0:0:
39,134,140422,1,8,0:0:0:0:
138,9,140745,1,10,0:0:0:0:
289,41,141068,2,0,B|336:122|336:122|307:212,1,167.999994873047,10|8,0:0|0:0,0:0:0:0:
249,260,141713,2,0,L|131:253,1,83.9999974365235,10|0,0:0|0:0,0:0:0:0:
233,338,142035,2,0,L|115:331,1,83.9999974365235,10|2,0:0|0:0,0:0:0:0:
65,260,142358,6,0,P|50:271|28:270,7,41.9999987182618,10|8|8|8|8|8|8|8,0:0|0:0|0:0|0:0|0:0|0:0|0:0|0:0,0:0:0:0:
118,183,143003,2,0,P|135:171|155:173,7,41.9999987182618,8|8|8|8|8|8|8|8,0:0|0:0|0:0|0:0|0:0|0:0|0:0|0:0,0:0:0:0:
31,117,143648,1,2,0:0:0:0:
139,61,144132,1,2,0:0:0:0:
148,90,144293,1,2,0:0:0:0:
278,71,144777,5,2,0:0:0:0:
288,97,144939,2,0,P|349:132|469:115,1,180.000006866455,6|8,3:2|0:0,0:0:0:0:
331,230,145422,2,0,P|270:195|150:212,1,180.000006866455,2|2,3:2|3:2,0:0:0:0:
191,281,145906,2,0,P|239:271|279:293,1,90.0000034332277,10|2,0:0|0:0,0:0:0:0:
356,375,146229,5,0,3:2:0:0:
442,307,146390,2,0,P|451:246|437:208,1,90.0000034332277,2|8,0:0|0:0,0:0:0:0:
439,113,146713,2,0,P|396:127|266:101,1,180.000006866455,2|2,3:2|3:2,0:0:0:0:
350,25,147197,1,8,0:0:0:0:
257,95,147358,1,2,0:0:0:0:
155,32,147519,6,0,B|126:116|126:116|142:151|127:192|90:207,1,180.000006866455,6|8,3:2|0:0,0:0:0:0:
190,228,148003,2,0,B|219:144|219:144|203:109|218:68|255:53,1,180.000006866455,2|2,3:2|3:2,0:0:0:0:
296,118,148487,2,0,P|352:162|355:184,1,90.0000034332277,10|2,0:0|0:0,0:0:0:0:
334,294,148810,6,0,B|291:283|291:283|224:292,1,90.0000034332277,0|2,3:2|0:0,0:0:0:0:
170,340,149132,1,8,0:0:0:0:
63,291,149293,2,0,P|76:191|48:112,1,180.000006866455,2|2,3:2|3:2,0:0:0:0:
143,92,149777,2,0,B|149:146|175:188,1,90.0000034332277,12|2,0:0|0:0,0:0:0:0:
258,264,150100,6,0,P|317:269|352:258,1,90.0000034332277,14|0,0:0|0:0,0:0:0:0:
443,247,150422,1,8,0:0:0:0:
476,160,150584,1,2,3:2:0:0:
379,114,150745,2,0,P|315:118|289:112,1,90.0000034332277,10|0,0:0|3:0,0:0:0:0:
171,95,151068,1,10,0:0:0:0:
195,186,151229,1,0,3:0:0:0:
258,264,151390,6,0,P|211:275|157:269,1,90.0000034332277,14|0,0:0|3:0,0:0:0:0:
72,276,151713,1,10,0:0:0:0:
26,200,151874,1,0,3:0:0:0:
34,108,152035,2,0,P|99:115|124:113,1,90.0000034332277,10|0,0:0|3:0,0:0:0:0:
222,74,152358,1,10,0:0:0:0:
248,161,152519,1,0,0:0:0:0:
313,97,152681,6,0,P|371:105|396:121,1,90.0000034332277,6|0,3:2|0:0,0:0:0:0:
409,236,153003,2,0,B|409:253|409:253|383:243,4,45.0000017166138,10|8|8|8|6,0:0|0:0|0:0|0:0|3:2,0:0:0:0:
278,281,153648,2,0,P|262:285|275:279,4,45.0000017166138,10|8|8|8|6,0:0|0:0|0:0|0:0|3:2,0:0:0:0:
184,151,154293,2,0,L|178:198,4,45.0000017166138,8|8|8|8|0,0:0|0:0|0:0|0:0|3:0,0:0:0:0:
249,103,154777,2,0,L|345:103,1,90.0000034332277,0|2,3:0|3:2,0:0:0:0:
291,30,155100,2,0,L|387:30,1,90.0000034332277,0|6,0:0|3:2,0:0:0:0:
449,133,156552,6,0,B|401:53|337:85|337:165|337:165|337:245|273:277|225:197,2,360.000013732911,2|2|0,3:2|3:2|3:0,0:0:0:0:
419,323,160422,6,0,P|381:318|318:322,1,90.0000034332277,4|0,3:2|0:0,0:0:0:0:
246,299,160745,1,10,0:0:0:0:
175,336,160906,1,10,0:0:0:0:
119,270,161068,1,8,0:0:0:0:
191,232,161229,1,8,0:0:0:0:
264,190,161390,2,0,P|329:198|359:196,1,90.0000034332277,10|8,0:0|0:0,0:0:0:0:
429,148,161713,1,10,0:0:0:0:
481,87,161874,1,8,0:0:0:0:
419,32,162035,1,8,0:0:0:0:
366,86,162197,1,10,0:0:0:0:
259,36,163003,5,6,3:2:0:0:
259,36,163084,1,0,0:0:0:0:
259,36,163164,1,0,0:0:0:0:
362,68,163326,1,8,0:0:0:0:
315,177,163487,2,0,P|371:182|393:206,2,90.0000034332277,0|0|0,3:0|0:0|3:0,0:0:0:0:
217,127,163971,2,0,P|166:157|116:157,1,90.0000034332277,8|0,0:0|0:0,0:0:0:0:
22,199,164293,6,0,P|24:247|50:288,1,90.0000034332277,0|0,3:2|0:0,0:0:0:0:
143,325,164616,1,8,0:0:0:0:
259,306,164777,2,0,B|289:340|334:358,2,90.0000034332277,0|0|0,3:0|0:0|3:0,0:0:0:0:
198,227,165261,1,8,0:0:0:0:
239,140,165422,1,0,0:0:0:0:
327,188,165584,5,0,3:2:0:0:
327,188,165664,1,0,0:0:0:0:
327,188,165745,1,0,0:0:0:0:
198,227,165906,1,8,0:0:0:0:
101,171,166068,2,0,B|65:197|65:197|21:216,2,90.0000034332277,0|0|0,3:0|0:0|3:0,0:0:0:0:
156,91,166552,2,0,B|187:79|221:86|221:86|238:78|257:76,1,90.0000034332277,8|0,0:0|0:0,0:0:0:0:
349,107,166874,6,0,L|336:202,1,90.0000034332277,0|0,3:2|0:0,0:0:0:0:
427,126,167197,2,0,L|414:221,1,90.0000034332277,8|0,0:0|3:0,0:0:0:0:
319,271,167519,6,0,L|224:258,1,90.0000034332277
300,349,167842,2,0,L|205:336,1,90.0000034332277
85,301,168164,6,0,P|66:247|82:204,1,96,12|0,0:0|3:0,0:0:0:0:
134,136,168487,1,8,0:0:0:0:
221,110,168648,1,0,3:0:0:0:
204,203,168810,1,8,0:0:0:0:
295,174,168971,1,0,3:0:0:0:
256,272,169132,2,0,P|252:323|267:369,1,96,8|0,0:0|3:0,0:0:0:0:
342,267,169455,6,0,P|382:234|405:192,1,96,8|0,0:0|3:0,0:0:0:0:
398,108,169777,1,8,0:0:0:0:
398,19,169939,1,0,3:0:0:0:
310,10,170100,1,8,0:0:0:0:
260,83,170261,1,0,3:0:0:0:
317,160,170422,2,0,P|369:207|380:236,1,96,8|0,0:0|3:0,0:0:0:0:
262,231,170745,6,0,P|212:230|168:199,1,96,8|0,0:0|3:0,0:0:0:0:
115,137,171068,1,8,0:0:0:0:
177,69,171229,1,0,3:0:0:0:
260,83,171390,2,0,L|263:182,1,96,8|0,0:0|3:0,0:0:0:0:
354,122,171713,2,0,L|357:221,1,96,8|0,0:0|3:0,0:0:0:0:
353,309,172035,6,0,P|306:332|251:309,1,96,8|0,0:0|3:0,0:0:0:0:
197,234,172358,1,8,0:0:0:0:
159,145,172519,1,0,3:0:0:0:
210,63,172681,1,8,0:0:0:0:
303,42,172842,1,0,3:0:0:0:
354,122,173003,2,0,P|421:112|449:93,1,96,12|0,0:0|0:0,0:0:0:0:
491,13,173326,1,8,0:0:0:0:
