osu file format v14

[General]
AudioFilename: audio.mp3
AudioLeadIn: 0
PreviewTime: 134556
Countdown: 0
SampleSet: Soft
StackLeniency: 0.4
Mode: 0
LetterboxInBreaks: 0
WidescreenStoryboard: 1

[Editor]
Bookmarks: 423,4293,5584,10745,15906,26229,31390,41713,53326,71390,76552,81713,92035,101068,112681,123003,130745,133326,134616,141068,142358,144939,155261,163003,168164,173326
DistanceSpacing: 0.8
BeatDivisor: 4
GridSize: 16
TimelineZoom: 2

[Metadata]
Title:Monster Effect
TitleUnicode:モンスターエフェクト
Artist:THE ORAL CIGARETTES
ArtistUnicode:THE ORAL CIGARETTES
Creator:Scott D3
Version:Darkness ft. ai ea
Source:
Tags:the bkw show!! japanese rock W M WM aiea ai ea
BeatmapID:2907936
BeatmapSetID:1392861

[Difficulty]
HPDrainRate:6.5
CircleSize:4.2
OverallDifficulty:8.8
ApproachRate:9.6
SliderMultiplier:1.8
SliderTickRate:1

[Events]
//Background and Video events
0,0,"bg.jpg",0,0
//Break Periods
//Storyboard Layer 0 (Background)
//Storyboard Layer 1 (Fail)
//Storyboard Layer 2 (Pass)
//Storyboard Layer 3 (Foreground)
//Storyboard Layer 4 (Overlay)
//Storyboard Sound Samples

[TimingPoints]
423,322.58064516129,4,2,1,65,1,0
503,-100,4,2,1,60,0,0
664,-100,4,2,1,65,0,0
744,-100,4,2,1,60,0,0
906,-100,4,2,1,65,0,0
1147,-100,4,2,1,60,0,0
1229,-100,4,2,1,65,0,0
1793,-100,4,2,1,60,0,0
1955,-100,4,2,1,65,0,0
2035,-100,4,2,1,60,0,0
2197,-100,4,2,1,65,0,0
2438,-100,4,2,1,60,0,0
2519,-100,4,2,1,65,0,0
3083,-100,4,2,1,60,0,0
3245,-100,4,2,1,65,0,0
3325,-100,4,2,1,60,0,0
3487,-100,4,2,1,65,0,0
3728,-100,4,2,1,60,0,0
3810,-100,4,2,1,65,0,0
5584,-100,4,2,1,55,0,0
5664,-100,4,2,1,60,0,0
5825,-100,4,2,1,55,0,0
6148,-100,4,2,1,60,0,0
6390,-100,4,2,1,55,0,0
6632,-100,4,2,1,60,0,0
6874,-100,4,2,1,55,0,0
6954,-100,4,2,1,60,0,0
7115,-100,4,2,1,55,0,0
7439,-100,4,2,1,60,0,0
7681,-100,4,2,1,55,0,0
8003,-100,4,2,1,60,0,0
8164,-100,4,2,1,55,0,0
8244,-100,4,2,1,60,0,0
8406,-100,4,2,1,55,0,0
8729,-100,4,2,1,60,0,0
8971,-100,4,2,1,55,0,0
9212,-100,4,2,1,60,0,0
9454,-100,4,2,1,55,0,0
9616,-100,4,2,1,60,0,0
9777,-100,4,2,1,55,0,0
10100,-100,4,2,1,60,0,0
10261,-100,4,2,1,55,0,0
10584,-100,4,2,1,60,0,0
10745,-100,4,2,1,55,0,0
10825,-100,4,2,1,60,0,0
10986,-100,4,2,1,55,0,0
11310,-100,4,2,1,60,0,0
11552,-100,4,2,1,55,0,0
11793,-100,4,2,1,60,0,0
12035,-100,4,2,1,55,0,0
12115,-100,4,2,1,60,0,0
12277,-100,4,2,1,55,0,0
12600,-100,4,2,1,60,0,0
12842,-100,4,2,1,55,0,0
13164,-100,4,2,1,60,0,0
13326,-100,4,2,1,55,0,0
13406,-100,4,2,1,60,0,0
13567,-100,4,2,1,55,0,0
13890,-100,4,2,1,60,0,0
14132,-100,4,2,1,55,0,0
14373,-100,4,2,1,60,0,0
14615,-100,4,2,1,55,0,0
14777,-100,4,2,1,60,0,0
14939,-100,4,2,1,55,0,0
15261,-100,4,2,1,60,0,0
15422,-100,4,2,1,55,0,0
15906,-100,4,2,1,45,0,0
16551,-100,4,2,1,60,0,0
16713,-100,4,2,1,45,0,0
17358,-100,4,2,1,60,0,0
17439,-100,4,2,1,45,0,0
17842,-100,4,2,1,60,0,0
18003,-100,4,2,1,45,0,0
18648,-100,4,2,1,60,0,0
18729,-100,4,2,1,45,0,0
19132,-100,4,2,1,60,0,0
19293,-100,4,2,1,45,0,0
19939,-100,4,2,1,60,0,0
20019,-100,4,2,1,45,0,0
20422,-100,4,2,1,60,0,0
20584,-100,4,2,1,45,0,0
21713,-100,4,2,1,60,0,0
21874,-100,4,2,1,45,0,0
22519,-100,4,2,1,60,0,0
22600,-100,4,2,1,45,0,0
23487,-100,4,2,1,60,0,0
23648,-100,4,2,1,45,0,0
26229,-100,4,2,1,55,0,0
26309,-100,4,2,1,60,0,0
26470,-100,4,2,1,55,0,0
26793,-100,4,2,1,60,0,0
27035,-100,4,2,1,55,0,0
27277,-100,4,2,1,60,0,0
27519,-100,4,2,1,55,0,0
27599,-100,4,2,1,60,0,0
27761,-100,4,2,1,55,0,0
28084,-100,4,2,1,60,0,0
28326,-100,4,2,1,55,0,0
28648,-100,4,2,1,60,0,0
28810,-100,4,2,1,55,0,0
28890,-100,4,2,1,60,0,0
29051,-100,4,2,1,55,0,0
29374,-100,4,2,1,60,0,0
29616,-100,4,2,1,55,0,0
29857,-100,4,2,1,60,0,0
30099,-100,4,2,1,55,0,0
30261,-100,4,2,1,60,0,0
30422,-100,4,2,1,55,0,0
30745,-100,4,2,1,60,0,0
30906,-100,4,2,1,55,0,0
31390,-100,4,2,1,45,0,0
31632,-100,4,2,1,60,0,0
31713,-100,4,2,1,45,0,0
32035,-100,4,2,1,60,0,0
32197,-100,4,2,1,45,0,0
33325,-100,4,2,1,60,0,0
33487,-100,4,2,1,45,0,0
34616,-100,4,2,1,60,0,0
34777,-100,4,2,1,45,0,0
35181,-100,4,2,1,60,0,0
35261,-100,4,2,1,45,0,0
35906,-100,4,2,1,60,0,0
36068,-100,4,2,1,45,0,0
37196,-100,4,2,1,60,0,0
37358,-100,4,2,1,45,0,0
37761,-100,4,2,1,60,0,0
37842,-100,4,2,1,45,0,0
39052,-100,4,2,1,60,0,0
39132,-100,4,2,1,45,0,0
40342,-100,4,2,1,60,0,0
40422,-100,4,2,1,45,0,0
41551,-100,4,2,1,60,0,0
41713,-90.9090909090909,4,2,1,60,0,0
42197,-90.9090909090909,4,2,1,30,0,0
43004,-90.9090909090909,4,2,1,60,0,0
43487,-90.9090909090909,4,2,1,30,0,0
44293,-90.9090909090909,4,2,1,55,0,0
45100,-90.9090909090909,4,2,1,60,0,0
45261,-90.9090909090909,4,2,1,55,0,0
45745,-90.9090909090909,4,2,1,60,0,0
45906,-90.9090909090909,4,2,1,55,0,0
46068,-90.9090909090909,4,2,1,60,0,0
46229,-90.9090909090909,4,2,1,55,0,0
46390,-90.9090909090909,4,2,1,60,0,0
46552,-90.9090909090909,4,2,1,55,0,0
46713,-90.9090909090909,4,2,1,60,0,0
47358,-90.9090909090909,4,2,1,30,0,0
48164,-90.9090909090909,4,2,1,60,0,0
48648,-90.9090909090909,4,2,1,30,0,0
49455,-90.9090909090909,4,2,1,55,0,0
52035,-90.9090909090909,4,2,1,60,0,0
53164,-90.9090909090909,4,2,1,35,0,0
53326,-83.3333333333333,4,2,1,70,0,1
55261,-83.3333333333333,4,2,1,60,0,1
55422,-83.3333333333333,4,2,1,70,0,1
56551,-83.3333333333333,4,2,1,60,0,1
56713,-83.3333333333333,4,2,1,70,0,1
57842,-83.3333333333333,4,2,1,60,0,1
58003,-83.3333333333333,4,2,1,70,0,1
58648,-83.3333333333333,4,2,1,60,0,1
58810,-83.3333333333333,4,2,1,70,0,1
59132,-83.3333333333333,4,2,1,60,0,1
59293,-83.3333333333333,4,2,1,70,0,1
59374,-83.3333333333333,4,2,1,60,0,1
59455,-83.3333333333333,4,2,1,70,0,1
59616,-83.3333333333333,4,2,1,60,0,1
59777,-83.3333333333333,4,2,1,70,0,1
64293,-83.3333333333333,4,2,1,60,0,1
64455,-83.3333333333333,4,2,1,70,0,1
65583,-83.3333333333333,4,2,1,60,0,1
65745,-83.3333333333333,4,2,1,70,0,1
66068,-83.3333333333333,4,2,1,60,0,1
66229,-83.3333333333333,4,2,1,70,0,1
66874,-83.3333333333333,4,2,1,60,0,1
67036,-83.3333333333333,4,2,1,70,0,1
68164,-83.3333333333333,4,2,1,60,0,1
68326,-83.3333333333333,4,2,1,70,0,1
70100,-117.647058823529,4,2,1,60,0,1
71390,-100,4,2,1,55,0,0
71471,-100,4,2,1,60,0,0
71632,-100,4,2,1,55,0,0
71955,-100,4,2,1,60,0,0
72197,-100,4,2,1,55,0,0
72439,-100,4,2,1,60,0,0
72681,-100,4,2,1,55,0,0
72842,-100,4,2,1,60,0,0
72922,-100,4,2,1,55,0,0
73809,-100,4,2,1,60,0,0
73971,-100,4,2,1,55,0,0
74051,-100,4,2,1,60,0,0
74212,-100,4,2,1,55,0,0
74616,-100,4,2,1,60,0,0
74777,-100,4,2,1,55,0,0
75019,-100,4,2,1,60,0,0
75261,-100,4,2,1,55,0,0
75422,-100,4,2,1,60,0,0
75584,-100,4,2,1,55,0,0
75906,-100,4,2,1,60,0,0
76068,-100,4,2,1,55,0,0
76390,-100,4,2,1,60,0,0
76552,-100,4,2,1,55,0,0
76793,-100,4,2,1,60,0,0
76874,-100,4,2,1,55,0,0
77922,-100,4,2,1,60,0,0
78083,-100,4,2,1,55,0,0
78487,-100,4,2,1,60,0,0
78648,-100,4,2,1,55,0,0
78971,-100,4,2,1,60,0,0
79132,-100,4,2,1,55,0,0
79213,-100,4,2,1,60,0,0
79373,-100,4,2,1,55,0,0
79777,-100,4,2,1,60,0,0
79939,-100,4,2,1,55,0,0
80180,-100,4,2,1,60,0,0
80422,-100,4,2,1,55,0,0
81552,-133.333333333333,4,2,1,45,0,0
85019,-133.333333333333,4,2,1,60,0,0
85100,-133.333333333333,4,2,1,45,0,0
91390,-133.333333333333,4,2,1,40,0,0
92035,-181.818181818181,4,2,1,30,0,0
95261,-181.818181818181,4,2,1,60,0,0
95584,-181.818181818181,4,2,1,30,0,0
96228,-181.818181818181,4,2,1,60,0,0
96390,-181.818181818181,4,2,1,30,0,0
96552,-181.818181818181,4,2,1,60,0,0
96874,-181.818181818181,4,2,1,30,0,0
97035,-181.818181818181,4,2,1,60,0,0
97197,-181.818181818181,4,2,1,30,0,0
97842,-181.818181818181,4,2,1,60,0,0
98164,-181.818181818181,4,2,1,30,0,0
99132,-181.818181818181,4,2,1,60,0,0
99455,-181.818181818181,4,2,1,30,0,0
99777,-98.0392156862745,4,2,1,30,0,0
100019,-98.0392156862745,4,2,1,5,0,0
100100,-96.1538461538461,4,2,1,40,0,0
100342,-98.0392156862745,4,2,1,5,0,0
100422,-94.3396226415094,4,2,1,50,0,0
100664,-98.0392156862745,4,2,1,5,0,0
100745,-92.5925925925926,4,2,1,60,0,0
100987,-92.5925925925926,4,2,1,5,0,0
101068,-90.9090909090909,4,2,1,65,0,0
101713,-125,4,2,1,60,0,0
102277,-125,4,2,1,5,0,0
102358,-90.9090909090909,4,2,1,55,0,0
102600,-90.9090909090909,4,2,1,55,0,0
102681,-90.9090909090909,4,2,1,60,0,0
102922,-90.9090909090909,4,2,1,5,0,0
103003,-90.9090909090909,4,2,1,55,0,0
103325,-90.9090909090909,4,2,1,60,0,0
103648,-90.9090909090909,4,2,1,55,0,0
103971,-90.9090909090909,4,2,1,60,0,0
104213,-90.9090909090909,4,2,1,5,0,0
104293,-90.9090909090909,4,2,1,55,0,0
104454,-90.9090909090909,4,2,1,60,0,0
104616,-90.9090909090909,4,2,1,55,0,0
104777,-90.9090909090909,4,2,1,60,0,0
104939,-90.9090909090909,4,2,1,55,0,0
105261,-90.9090909090909,4,2,1,60,0,0
105422,-90.9090909090909,4,2,1,55,0,0
105502,-90.9090909090909,4,2,1,60,0,0
105584,-90.9090909090909,4,2,1,55,0,0
105826,-90.9090909090909,4,2,1,5,0,0
105906,-90.9090909090909,4,2,1,60,0,0
106148,-90.9090909090909,4,2,1,5,0,0
106229,-90.9090909090909,4,2,1,55,0,0
107035,-90.9090909090909,4,2,1,60,0,0
107197,-90.9090909090909,4,2,1,55,0,0
107358,-90.9090909090909,4,2,1,60,0,0
107519,-90.9090909090909,4,2,1,55,0,0
107841,-90.9090909090909,4,2,1,60,0,0
108003,-90.9090909090909,4,2,1,55,0,0
108083,-90.9090909090909,4,2,1,60,0,0
108164,-90.9090909090909,4,2,1,55,0,0
108325,-90.9090909090909,4,2,1,60,0,0
108810,-90.9090909090909,4,2,1,55,0,0
108971,-90.9090909090909,4,2,1,60,0,0
109052,-90.9090909090909,4,2,1,55,0,0
109616,-90.9090909090909,4,2,1,60,0,0
109777,-90.9090909090909,4,2,1,55,0,0
109939,-90.9090909090909,4,2,1,60,0,0
110100,-90.9090909090909,4,2,1,55,0,0
110261,-90.9090909090909,4,2,1,60,0,0
110342,-90.9090909090909,4,2,1,55,0,0
110906,-90.9090909090909,4,2,1,60,0,0
111390,-90.9090909090909,4,2,1,55,0,0
112196,-90.9090909090909,4,2,1,60,0,0
112358,-90.9090909090909,4,2,1,55,0,0
114132,-90.9090909090909,4,2,1,60,0,0
114293,-90.9090909090909,4,2,1,55,0,0
114938,-90.9090909090909,4,2,1,60,0,0
115261,-90.9090909090909,4,2,1,55,0,0
115422,-90.9090909090909,4,2,1,60,0,0
115584,-90.9090909090909,4,2,1,55,0,0
116228,-90.9090909090909,4,2,1,60,0,0
116390,-90.9090909090909,4,2,1,55,0,0
116713,-90.9090909090909,4,2,1,60,0,0
116874,-90.9090909090909,4,2,1,55,0,0
117197,-83.3333333333333,4,2,1,55,0,0
117439,-83.3333333333333,4,2,1,5,0,0
117519,-83.3333333333333,4,2,1,55,0,0
118003,-83.3333333333333,4,2,1,60,0,0
118164,-83.3333333333333,4,2,1,55,0,0
118971,-83.3333333333333,4,2,1,60,0,0
119132,-83.3333333333333,4,2,1,55,0,0
119454,-83.3333333333333,4,2,1,60,0,0
119616,-83.3333333333333,4,2,1,55,0,0
119938,-83.3333333333333,4,2,1,60,0,0
120100,-83.3333333333333,4,2,1,55,0,0
121229,-83.3333333333333,4,2,1,60,0,0
121390,-83.3333333333333,4,2,1,55,0,0
122519,-83.3333333333333,4,2,1,60,0,0
122681,-83.3333333333333,4,2,1,55,0,0
123003,-83.3333333333333,4,2,1,60,0,0
134535,-83.3333333333333,4,2,1,5,0,0
134616,-90.9090909090909,4,2,1,70,0,1
134777,-90.9090909090909,4,2,1,60,0,1
134939,-90.9090909090909,4,2,1,70,0,1
135261,-90.9090909090909,4,2,1,60,0,1
135422,-90.9090909090909,4,2,1,70,0,1
136551,-90.9090909090909,4,2,1,60,0,1
136713,-90.9090909090909,4,2,1,70,0,1
137358,-90.9090909090909,4,2,1,60,0,1
137519,-90.9090909090909,4,2,1,70,0,1
137842,-90.9090909090909,4,2,1,60,0,1
138003,-90.9090909090909,4,2,1,70,0,1
139132,-90.9090909090909,4,2,1,60,0,1
139293,-90.9090909090909,4,2,1,70,0,1
139777,-90.9090909090909,4,2,1,50,0,0
139938,-90.9090909090909,4,2,1,60,0,0
140100,-90.9090909090909,4,2,1,50,0,0
140906,-90.9090909090909,4,2,1,60,0,0
141068,-90.9090909090909,4,2,1,50,0,0
141874,-90.9090909090909,4,2,1,60,0,0
142035,-90.9090909090909,4,2,1,50,0,0
143648,-90.9090909090909,4,2,1,35,0,0
143729,-90.9090909090909,4,2,1,60,0,0
144777,-90.9090909090909,4,2,1,35,0,0
144939,-100,4,2,1,70,0,1
145100,-100,4,2,1,60,0,1
145261,-100,4,2,1,70,0,1
145583,-100,4,2,1,60,0,1
145745,-100,4,2,1,70,0,1
146874,-100,4,2,1,60,0,1
147035,-100,4,2,1,70,0,1
147680,-100,4,2,1,60,0,1
147842,-100,4,2,1,70,0,1
148164,-100,4,2,1,60,0,1
148326,-100,4,2,1,70,0,1
149454,-100,4,2,1,60,0,1
149616,-100,4,2,1,70,0,1
150261,-100,4,2,1,60,0,1
150422,-100,4,2,1,70,0,1
152519,-100,4,2,1,60,0,1
152681,-100,4,2,1,70,0,1
152842,-100,4,2,1,60,0,1
153003,-100,4,2,1,70,0,1
153487,-100,4,2,1,60,0,1
153648,-100,4,2,1,70,0,1
154132,-100,4,2,1,60,0,1
154293,-100,4,2,1,70,0,1
155181,-100,4,2,1,5,0,1
155261,-200,4,2,1,35,0,0
156471,-200,4,2,1,5,0,0
156552,-200,4,2,1,35,0,0
159777,-200,4,2,1,60,0,0
160100,-200,4,2,1,35,0,0
160422,-200,4,2,1,70,0,0
160584,-200,4,2,1,60,0,0
160745,-200,4,2,1,70,0,0
162197,-100,4,2,1,70,0,0
162358,-100,4,2,1,60,0,0
162519,-100,4,2,1,70,0,0
162842,-100,4,2,1,60,0,0
163003,-100,4,2,1,55,0,0
163083,-100,4,2,1,60,0,0
163244,-100,4,2,1,55,0,0
163648,-100,4,2,1,60,0,0
163809,-100,4,2,1,55,0,0
164051,-100,4,2,1,60,0,0
164293,-100,4,2,1,55,0,0
164454,-100,4,2,1,60,0,0
164535,-100,4,2,1,55,0,0
164939,-100,4,2,1,60,0,0
165100,-100,4,2,1,55,0,0
165422,-100,4,2,1,60,0,0
165584,-100,4,2,1,55,0,0
165664,-100,4,2,1,60,0,0
165825,-100,4,2,1,55,0,0
166229,-100,4,2,1,60,0,0
166390,-100,4,2,1,55,0,0
166632,-100,4,2,1,60,0,0
166874,-100,4,2,1,55,0,0
166954,-100,4,2,1,60,0,0
167115,-100,4,2,1,55,0,0
167277,-100,4,2,1,60,0,0
167357,-100,4,2,1,55,0,0
167438,-100,4,2,1,60,0,0
167519,-200,4,2,1,60,0,0
168164,-90.9090909090909,4,2,1,70,0,1
169213,-90.9090909090909,4,2,1,60,0,1
169293,-90.9090909090909,4,2,1,70,0,1
170502,-90.9090909090909,4,2,1,60,0,1
170584,-90.9090909090909,4,2,1,70,0,1
170664,-90.9090909090909,4,2,1,60,0,1
170745,-90.9090909090909,4,2,1,70,0,1
171793,-90.9090909090909,4,2,1,60,0,1
171874,-90.9090909090909,4,2,1,70,0,1
173164,-90.9090909090909,4,2,1,60,0,1
173326,-90.9090909090909,4,2,1,70,0,0

[Colours]
Combo1 : 254,180,202
Combo2 : 255,162,121
Combo3 : 232,130,130
SliderBorder : 255,228,145
SliderTrackOverride : 48,22,14

[HitObjects]
139,155,423,6,0,L|112:199,2,45,6|0|0,3:2|0:0|0:0,0:0:0:0:
235,103,664,2,0,L|258:64,2,45,10|0|0,0:0|0:0|0:0,0:0:0:0:
217,225,906,2,0,P|206:282|146:343,1,135,14|0,0:0|0:0,0:0:0:0:
125,335,1229,1,2,3:2:0:0:
26,124,1390,1,10,0:0:0:0:
18,350,1552,1,10,0:0:0:0:
240,239,1713,6,0,L|218:186,2,45,6|0|0,3:2|0:0|0:0,0:0:0:0:
314,315,1955,2,0,L|296:356,2,45,10|0|0,0:0|0:0|0:0,0:0:0:0:
341,200,2197,2,0,P|351:131|403:78,1,135,10|0,0:0|0:0,0:0:0:0:
416,77,2519,1,2,3:2:0:0:
447,281,2681,1,10,0:0:0:0:
500,44,2842,1,10,0:0:0:0:
274,120,3003,6,0,L|289:77,2,45,6|0|0,3:2|0:0|0:0,0:0:0:0:
286,240,3245,2,0,L|270:282,2,45,10|0|0,0:0|0:0|0:0,0:0:0:0:
185,202,3487,2,0,P|99:180|68:136,1,135,10|0,0:0|0:0,0:0:0:0:
64,115,3810,1,2,3:2:0:0:
320,94,3971,1,10,0:0:0:0:
51,35,4132,1,10,0:0:0:0:
208,253,4293,1,10,0:0:0:0:
176,47,5584,6,0,P|165:81|162:106,1,45,4|0,3:2|0:0,0:0:0:0:
300,183,5745,2,0,P|311:149|314:124,1,45,0|0,0:0|3:2,0:0:0:0:
147,209,5906,2,0,P|139:277|144:312,1,90,8|0,0:0|3:2,0:0:0:0:
155,311,6148,1,0,0:0:0:0:
155,311,6229,1,0,0:0:0:0:
264,202,6390,1,0,3:2:0:0:
316,317,6552,2,0,P|346:311|370:278,1,45,8|0,0:0|0:0,0:0:0:0:
463,168,6713,1,0,0:0:0:0:
463,168,6793,1,0,0:0:0:0:
463,168,6874,6,0,P|470:220|462:241,1,45,0|0,3:0|0:0,0:0:0:0:
358,277,7035,2,0,P|342:236|345:213,1,45,0|0,0:0|3:0,0:0:0:0:
364,97,7197,2,0,P|313:79|253:89,1,90,8|0,0:0|3:0,0:0:0:0:
258,88,7439,1,0,0:0:0:0:
258,88,7519,1,0,0:0:0:0:
208,228,7681,1,0,3:0:0:0:
177,23,7842,1,8,0:0:0:0:
4,100,8003,1,0,0:0:0:0:
102,241,8164,6,0,P|155:230|177:236,1,45,0|0,3:0|0:0,0:0:0:0:
241,335,8326,2,0,P|220:343|198:346,1,45,0|0,0:0|3:0,0:0:0:0:
271,204,8487,2,0,P|341:207|392:222,1,90,8|0,0:0|3:0,0:0:0:0:
379,226,8729,1,0,0:0:0:0:
379,226,8810,1,0,0:0:0:0:
273,342,8971,1,0,3:0:0:0:
140,278,9132,1,8,0:0:0:0:
122,243,9212,1,0,0:0:0:0:
112,204,9293,1,0,0:0:0:0:
110,165,9373,1,0,0:0:0:0:
117,127,9454,5,0,3:0:0:0:
319,198,9616,1,0,0:0:0:0:
164,291,9777,1,8,0:0:0:0:
104,107,9939,1,0,3:0:0:0:
270,298,10100,1,0,0:0:0:0:
212,47,10261,1,0,3:0:0:0:
157,312,10422,1,8,0:0:0:0:
300,42,10584,1,0,0:0:0:0:
104,197,10745,6,0,P|91:161|91:149,1,45,4|0,3:2|0:0,0:0:0:0:
199,220,10906,2,0,P|214:259|213:268,1,45,0|0,0:0|3:0,0:0:0:0:
147,92,11068,2,0,B|173:49|226:38,1,90,8|0,0:0|3:0,0:0:0:0:
235,45,11310,1,0,0:0:0:0:
235,45,11390,1,0,0:0:0:0:
279,201,11552,1,0,3:0:0:0:
330,47,11713,2,0,P|366:39|381:41,1,45,8|0,0:0|0:0,0:0:0:0:
419,169,11874,1,0,0:0:0:0:
419,169,11955,1,0,0:0:0:0:
419,169,12035,6,0,P|411:210|413:223,1,45,0|0,3:0|0:0,0:0:0:0:
505,259,12197,2,0,P|513:218|511:205,1,45,0|0,0:0|3:0,0:0:0:0:
400,292,12358,2,0,P|407:343|435:374,1,90,8|0,0:0|3:0,0:0:0:0:
464,370,12600,1,0,0:0:0:0:
464,370,12681,1,0,0:0:0:0:
485,156,12842,1,0,3:0:0:0:
312,217,13003,1,8,0:0:0:0:
293,37,13164,1,0,0:0:0:0:
201,192,13326,6,0,P|196:243|200:258,1,45,0|0,3:0|0:0,0:0:0:0:
94,139,13487,2,0,P|83:85|68:72,1,45,0|0,0:0|3:0,0:0:0:0:
89,274,13648,2,0,P|76:324|44:356,1,90,8|0,0:0|3:0,0:0:0:0:
29,359,13890,1,0,0:0:0:0:
29,359,13971,1,0,0:0:0:0:
43,150,14132,1,0,3:0:0:0:
210,178,14293,1,8,0:0:0:0:
246,163,14373,1,0,0:0:0:0:
285,157,14454,1,0,0:0:0:0:
324,159,14534,1,0,0:0:0:0:
362,170,14615,5,0,3:0:0:0:
211,324,14777,1,0,0:0:0:0:
255,107,14939,1,8,0:0:0:0:
352,323,15100,1,0,3:0:0:0:
136,153,15261,1,0,0:0:0:0:
229,345,15422,1,0,3:0:0:0:
272,57,15584,1,8,0:0:0:0:
406,190,15745,5,10,0:0:0:0:
406,190,15826,1,8,0:0:0:0:
406,190,15906,2,0,P|427:141|432:52,1,135,6|0,3:2|3:0,0:0:0:0:
428,38,16229,1,10,0:0:0:0:
211,102,16390,2,0,P|152:108|111:92,1,90,2|0,3:2|0:0,0:0:0:0:
293,198,16713,2,0,P|352:192|393:208,1,90,2|8,3:2|0:0,0:0:0:0:
495,276,17035,1,2,0:0:0:0:
329,330,17197,5,2,3:2:0:0:
356,145,17358,1,0,0:0:0:0:
356,145,17439,1,0,3:0:0:0:
356,145,17519,1,10,0:0:0:0:
239,211,17681,2,0,P|171:201|143:185,1,90,2|0,3:2|0:0,0:0:0:0:
96,295,18003,2,0,P|54:278|9:275,1,90,2|8,3:2|0:0,0:0:0:0:
200,372,18326,1,2,0:0:0:0:
248,230,18487,6,0,P|250:182|260:137,1,90,2|0,3:2|0:0,0:0:0:0:
272,127,18729,1,0,3:0:0:0:
272,127,18810,1,10,0:0:0:0:
402,200,18971,2,0,P|453:210|494:200,1,90,2|0,3:2|0:0,0:0:0:0:
498,47,19293,2,0,P|454:36|410:45,1,90,2|8,3:2|0:0,0:0:0:0:
296,151,19616,1,2,0:0:0:0:
341,307,19777,5,2,3:2:0:0:
182,245,19939,1,0,0:0:0:0:
182,245,20019,1,0,3:0:0:0:
182,245,20100,1,10,0:0:0:0:
235,90,20261,2,0,P|260:53|272:5,1,90,2|0,3:2|0:0,0:0:0:0:
64,25,20584,2,0,P|100:50|148:62,1,90,2|8,3:2|0:0,0:0:0:0:
342,78,20906,1,2,0:0:0:0:
221,213,21068,6,0,P|221:268|248:348,1,135,2|0,3:2|3:0,0:0:0:0:
262,360,21390,1,10,0:0:0:0:
359,254,21552,2,0,P|416:263|452:285,1,90,2|0,3:2|0:0,3:0:0:0:
281,164,21874,2,0,P|240:144|196:139,1,90,2|8,3:2|0:0,3:0:0:0:
50,179,22197,1,2,0:0:0:0:
166,317,22358,5,2,3:2:0:0:
276,198,22519,1,0,0:0:0:0:
276,198,22600,1,0,3:0:0:0:
276,198,22681,1,10,0:0:0:0:
70,158,22842,1,2,3:2:0:0:
198,28,23003,1,2,0:0:0:0:
136,206,23164,1,2,3:2:0:0:
264,76,23326,2,0,P|312:57|381:59,1,90,10|0,0:0|0:0,0:0:0:0:
472,114,23648,6,0,P|477:178|435:234,1,135,2|0,3:2|3:0,0:0:0:0:
413,245,23971,1,8,0:0:0:0:
341,73,24132,1,2,3:2:0:0:
184,137,24293,2,0,B|175:122|170:101|170:101|151:170|151:170|152:192|152:192|136:242,1,180,2|8,0:0|0:0,0:0:0:0:
148,364,24777,1,2,0:0:0:0:
304,344,24939,6,0,P|352:330|407:265,1,135,2|0,3:2|3:0,0:0:0:0:
413,245,25261,1,8,0:0:0:0:
265,63,25422,1,2,3:2:0:0:
166,243,25584,1,2,3:2:0:0:
195,57,25745,1,2,3:2:0:0:
281,247,25906,1,10,0:0:0:0:
399,52,26068,5,10,0:0:0:0:
399,52,26148,1,8,0:0:0:0:
399,52,26229,2,0,P|438:85|448:106,1,45,6|0,3:2|0:0,0:0:0:0:
311,94,26390,2,0,P|271:60|261:39,1,45,0|0,0:0|3:0,0:0:0:0:
468,159,26552,2,0,P|477:217|466:250,1,90,8|0,0:0|3:0,0:0:0:0:
453,266,26793,1,0,0:0:0:0:
453,266,26874,1,0,0:0:0:0:
330,93,27035,1,0,3:0:0:0:
216,248,27197,2,0,P|172:267|164:269,1,45,8|0,0:0|0:0,0:0:0:0:
62,156,27358,1,0,0:0:0:0:
62,156,27439,1,0,0:0:0:0:
62,156,27519,6,0,P|55:186|63:222,1,45,0|0,3:0|0:0,0:0:0:0:
172,197,27681,2,0,P|179:167|171:131,1,45,0|0,0:0|3:0,0:0:0:0:
68,279,27842,2,0,B|93:337|137:356,1,90,8|0,0:0|3:0,0:0:0:0:
146,358,28084,1,0,0:0:0:0:
146,358,28164,1,0,0:0:0:0:
290,184,28326,1,0,3:0:0:0:
337,353,28487,1,8,0:0:0:0:
364,105,28648,1,0,0:0:0:0:
124,66,28810,6,0,P|86:63|67:65,1,45,0|0,3:0|0:0,0:0:0:0:
99,169,28971,2,0,P|137:172|156:170,1,45,0|0,0:0|3:0,0:0:0:0:
131,32,29132,2,0,P|71:27|15:38,1,90,8|0,0:0|3:0,0:0:0:0:
20,35,29374,1,0,0:0:0:0:
20,35,29455,1,0,0:0:0:0:
169,166,29616,1,0,3:0:0:0:
253,61,29777,1,8,0:0:0:0:
290,46,29857,1,0,0:0:0:0:
330,41,29938,1,0,0:0:0:0:
370,47,30018,1,0,0:0:0:0:
407,63,30099,5,0,3:0:0:0:
336,256,30261,1,0,0:0:0:0:
480,86,30422,1,8,0:0:0:0:
247,188,30584,1,0,3:0:0:0:
484,273,30745,1,0,0:0:0:0:
354,54,30906,1,0,3:0:0:0:
293,293,31068,1,8,0:0:0:0:
267,24,31229,5,10,0:0:0:0:
267,24,31310,1,8,0:0:0:0:
267,24,31390,2,0,B|216:19|154:29,1,90,6|0,3:2|3:0,0:0:0:0:
157,35,31632,1,0,0:0:0:0:
157,35,31713,1,10,0:0:0:0:
9,143,31874,2,0,B|60:148|122:138,1,90,2|0,3:2|0:0,0:0:0:0:
276,90,32197,1,2,3:2:0:0:
311,246,32358,1,10,0:0:0:0:
343,67,32519,1,2,0:0:0:0:
176,201,32681,5,2,3:2:0:0:
357,164,32842,1,0,3:0:0:0:
303,266,33003,1,10,0:0:0:0:
176,201,33164,2,0,P|150:160|155:117,1,90,2|0,3:2|0:0,0:0:0:0:
298,170,33487,2,0,P|300:125|275:89,1,90,2|8,3:2|0:0,0:0:0:0:
255,242,33810,1,2,0:0:0:0:
420,232,33971,5,2,3:2:0:0:
487,131,34132,1,0,3:0:0:0:
305,87,34293,1,10,0:0:0:0:
363,264,34455,2,0,P|401:302|440:326,1,90,2|0,3:2|0:0,0:0:0:0:
500,151,34777,1,2,3:2:0:0:
313,103,34939,1,10,0:0:0:0:
231,228,35100,1,2,0:0:0:0:
231,228,35181,1,0,0:0:0:0:
231,228,35261,5,2,3:2:0:0:
133,73,35422,1,0,3:0:0:0:
60,266,35584,1,10,0:0:0:0:
162,145,35745,2,0,P|217:148|263:143,1,90,2|0,3:2|0:0,0:0:0:0:
178,275,36068,2,0,P|123:278|77:273,1,90,2|8,3:2|0:0,0:0:0:0:
278,340,36390,1,2,0:0:0:0:
398,228,36552,6,0,P|421:181|428:123,1,90,2|0,3:2|3:0,0:0:0:0:
417,21,36874,1,10,0:0:0:0:
280,126,37035,2,0,P|230:127|189:113,1,90,2|0,3:2|0:0,0:0:0:0:
44,33,37358,2,0,P|86:46|131:44,1,90,2|8,3:2|0:0,0:0:0:0:
293,7,37681,1,2,0:0:0:0:
293,7,37761,1,0,0:0:0:0:
293,7,37842,5,2,3:2:0:0:
339,197,38003,1,0,3:0:0:0:
410,85,38164,1,10,0:0:0:0:
213,88,38326,1,2,3:2:0:0:
369,14,38487,1,2,0:0:0:0:
270,194,38648,1,2,3:2:0:0:
418,165,38809,1,10,0:0:0:0:
360,317,38971,1,2,0:0:0:0:
360,317,39052,1,0,0:0:0:0:
360,317,39132,6,0,B|292:239|382:240|287:120,1,180,2|8,3:2|0:0,0:0:0:0:
462,76,39616,1,2,3:2:0:0:
462,76,39777,2,0,B|417:127|376:124|376:124|375:132|375:132|332:126|284:171,1,180,2|8,0:0|0:0,0:0:0:0:
279,81,40261,1,2,0:0:0:0:
279,81,40342,1,0,0:0:0:0:
279,81,40422,2,0,P|230:137|284:221,1,180,2|8,3:2|0:0,0:0:0:0:
428,306,40906,1,2,3:2:0:0:
491,220,41068,2,0,L|501:116,1,90,2|0,0:0|3:0,0:0:0:0:
367,175,41390,2,0,L|350:78,1,90,10|0,0:0|0:0,0:0:0:0:
200,49,41713,5,10,0:0:0:0:
141,180,41874,1,10,0:0:0:0:
121,189,41955,1,10,0:0:0:0:
124,212,42036,1,10,0:0:0:0:
146,216,42116,1,10,0:0:0:0:
157,196,42197,1,2,3:2:0:0:
231,288,43004,5,10,0:0:0:0:
308,149,43164,1,10,0:0:0:0:
301,122,43245,1,10,0:0:0:0:
324,108,43326,1,10,0:0:0:0:
345,125,43406,1,10,0:0:0:0:
334,150,43487,1,2,3:0:0:0:
319,42,44293,6,0,B|178:55|276:98|133:113,1,198.000006042481,6|8,3:2|0:0,0:0:0:0:
114,292,44777,1,2,0:0:0:0:
369,259,44939,1,2,3:2:0:0:
204,117,45100,1,0,0:0:0:0:
236,331,45261,1,8,0:0:0:0:
320,132,45422,1,2,0:0:0:0:
105,162,45584,5,2,3:2:0:0:
132,344,45745,1,0,0:0:0:0:
219,142,45906,1,10,0:0:0:0:
136,360,46068,1,0,0:0:0:0:
215,130,46229,1,2,3:2:0:0:
274,342,46390,1,0,0:0:0:0:
319,136,46552,2,0,P|381:126|437:132,1,99.0000030212403,10|0,0:0|0:0,0:0:0:0:
480,316,46874,5,10,0:0:0:0:
314,259,47035,1,10,0:0:0:0:
285,249,47116,1,10,0:0:0:0:
285,220,47197,1,10,0:0:0:0:
314,210,47277,1,10,0:0:0:0:
331,234,47358,1,0,3:2:0:0:
492,175,48164,5,10,0:0:0:0:
302,141,48326,1,10,0:0:0:0:
271,107,48406,1,10,0:0:0:0:
294,68,48487,1,10,0:0:0:0:
337,78,48568,1,10,0:0:0:0:
343,123,48648,1,2,3:2:0:0:
131,272,49455,5,6,3:2:0:0:
131,272,49777,1,8,0:0:0:0:
226,162,49938,1,10,0:0:0:0:
233,311,50100,1,10,0:0:0:0:
61,132,50261,1,8,0:0:0:0:
368,200,50422,1,8,0:0:0:0:
75,342,50583,1,10,0:0:0:0:
186,50,50745,5,10,0:0:0:0:
246,347,50906,1,8,0:0:0:0:
302,37,51067,1,8,0:0:0:0:
84,279,51229,1,10,0:0:0:0:
430,162,51390,1,10,0:0:0:0:
64,109,51551,1,8,0:0:0:0:
256,341,51713,1,10,0:0:0:0:
346,34,51874,1,10,0:0:0:0:
368,302,52035,6,0,P|389:312|390:311,24,24.7500007553101
454,158,53164,5,2,0:0:0:0:
357,12,53326,2,0,B|283:37|343:90|176:106,1,161.999995056153,6|0,3:2|3:0,0:0:0:0:
198,98,53648,1,8,0:0:0:0:
282,233,53810,2,0,P|300:112|356:41,1,215.999993408203,2|2,3:2|3:2,0:0:0:0:
454,158,54293,1,10,0:0:0:0:
253,243,54455,6,0,P|197:243|135:238,1,107.999996704102,2|0,0:0|3:2,0:0:0:0:
19,170,54777,1,2,0:0:0:0:
19,170,54858,1,0,3:0:0:0:
19,170,54939,1,8,0:0:0:0:
218,57,55100,2,0,P|212:110|221:163,1,107.999996704102,2|0,3:2|0:0,0:0:0:0:
22,63,55422,2,0,P|27:116|18:169,1,107.999996704102,2|8,3:2|0:0,0:0:0:0:
0,310,55745,1,2,0:0:0:0:
161,172,55906,6,0,P|228:160|323:185,1,161.999995056153,6|0,3:2|3:0,0:0:0:0:
333,207,56229,1,8,0:0:0:0:
248,77,56390,2,0,P|172:134|140:137,1,107.999996704102,2|0,3:2|0:0,0:0:0:0:
10,248,56713,1,2,3:2:0:0:
149,75,56874,1,10,0:0:0:0:
126,261,57035,6,0,P|190:240|252:258,1,107.999996704102,2|0,0:0|3:2,0:0:0:0:
379,356,57358,1,2,0:0:0:0:
379,356,57439,1,0,3:0:0:0:
379,356,57519,1,8,0:0:0:0:
229,247,57681,2,0,P|236:346|215:386,1,107.999996704102,2|0,3:2|0:0,0:0:0:0:
374,251,58003,2,0,P|365:303|378:355,1,107.999996704102,2|8,3:2|0:0,0:0:0:0:
262,137,58326,5,2,0:0:0:0:
414,59,58487,2,0,P|470:28|525:24,1,107.999996704102,6|0,3:2|0:0,0:0:0:0:
258,162,58810,1,10,0:0:0:0:
400,240,58971,2,0,P|462:246|497:284,1,107.999996704102,2|0,3:2|0:0,0:0:0:0:
249,200,59293,1,2,3:2:0:0:
249,200,59374,1,0,0:0:0:0:
249,200,59455,2,0,P|262:281|259:314,1,107.999996704102,10|0,0:0|0:0,0:0:0:0:
41,208,59777,1,2,3:2:0:0:
183,62,59939,2,0,P|262:38|310:69,1,107.999996704102,2|8,0:0|0:0,0:0:0:0:
413,230,60261,5,2,3:2:0:0:
506,84,60422,1,2,0:0:0:0:
315,175,60584,1,0,3:0:0:0:
496,175,60745,1,10,0:0:0:0:
362,40,60906,1,2,0:0:0:0:
355,262,61068,6,0,B|280:283|264:225|185:242,1,161.999995056153,6|0,3:2|3:0,0:0:0:0:
172,257,61390,1,8,0:0:0:0:
217,67,61552,1,2,3:2:0:0:
115,105,61713,2,0,P|204:165|304:126,1,215.999993408203,2|8,0:0|0:0,0:0:0:0:
374,276,62197,1,2,0:0:0:0:
433,114,62358,6,0,B|416:210|485:242|446:335,1,215.999993408203,2|12,3:2|0:0,0:0:0:0:
257,216,62842,1,2,0:0:0:0:
150,346,63003,1,10,0:0:0:0:
117,317,63084,1,8,0:0:0:0:
94,280,63164,1,8,0:0:0:0:
79,239,63245,1,8,0:0:0:0:
69,196,63326,1,8,0:0:0:0:
68,153,63406,1,8,0:0:0:0:
75,110,63487,1,8,0:0:0:0:
93,70,63568,1,8,0:0:0:0:
131,52,63648,6,0,B|203:20|212:112|302:46,1,161.999995056153,6|0,3:2|3:0,0:0:0:0:
314,32,63971,1,8,0:0:0:0:
199,175,64132,2,0,P|171:110|129:91,1,107.999996704102,2|0,3:2|0:0,0:0:0:0:
66,271,64455,1,2,3:2:0:0:
111,107,64616,1,10,0:0:0:0:
257,216,64777,6,0,P|321:186|338:122,1,107.999996704102,2|0,0:0|3:2,0:0:0:0:
470,50,65100,1,2,0:0:0:0:
470,50,65181,1,0,3:0:0:0:
470,50,65261,1,8,0:0:0:0:
336,155,65422,2,0,P|349:95|334:49,1,107.999996704102,2|0,3:2|0:0,0:0:0:0:
470,153,65745,2,0,P|456:101|469:49,1,107.999996704102,2|8,3:2|0:0,0:0:0:0:
454,274,66068,1,0,0:0:0:0:
336,155,66229,6,0,P|258:133|179:144,1,161.999995056153,6|0,3:2|3:0,0:0:0:0:
154,168,66552,1,8,0:0:0:0:
345,271,66713,2,0,P|316:187|320:160,1,107.999996704102,2|0,3:2|0:0,0:0:0:0:
426,30,67036,1,2,3:2:0:0:
429,185,67197,1,10,0:0:0:0:
281,50,67358,6,0,P|227:44|178:64,1,107.999996704102,2|0,0:0|3:2,0:0:0:0:
82,205,67681,1,2,0:0:0:0:
82,205,67762,1,0,3:0:0:0:
82,205,67842,1,8,0:0:0:0:
188,88,68003,2,0,P|136:79|84:92,1,107.999996704102,2|0,3:2|0:0,0:0:0:0:
186,200,68326,2,0,P|87:207|47:186,1,107.999996704102,2|8,3:2|0:0,0:0:0:0:
15,76,68648,5,2,0:0:0:0:
179,64,68810,2,0,B|234:38|298:115|362:57,1,161.999995056153,6|0,3:2|3:0,0:0:0:0:
360,51,69132,1,8,0:0:0:0:
402,250,69293,1,2,3:2:0:0:
248,109,69455,1,2,0:0:0:0:
193,291,69616,1,2,3:2:0:0:
407,107,69777,1,14,0:0:0:0:
165,208,69939,1,2,0:0:0:0:
425,349,70100,6,0,B|478:196|478:196|450:223|406:240,1,229.500004377365,6|2,3:2|0:0,0:0:0:0:
105,61,71390,5,6,3:2:0:0:
105,61,71471,1,0,0:0:0:0:
105,61,71552,2,0,L|110:112,1,45,0|0,0:0|3:0,0:0:0:0:
238,218,71713,2,0,L|252:115,1,90,8|0,0:0|3:0,0:0:0:0:
281,113,71955,1,0,0:0:0:0:
281,113,72035,1,0,0:0:0:0:
413,218,72197,6,0,P|372:254|310:259,1,90,0|8,3:0|0:0,0:0:0:0:
272,330,72439,1,0,0:0:0:0:
235,343,72519,1,0,0:0:0:0:
198,333,72600,1,0,0:0:0:0:
173,304,72681,2,0,P|188:252|196:191,1,90,0|0,3:0|0:0,0:0:0:0:
210,205,72922,1,0,3:0:0:0:
210,205,73003,1,8,0:0:0:0:
78,226,73164,6,0,B|86:129|53:142|54:34,1,180,0|0,3:0|3:0,0:0:0:0:
176,39,73648,2,0,P|161:78|154:133,1,90,8|0,0:0|0:0,0:0:0:0:
186,222,73971,1,0,3:0:0:0:
219,228,74051,1,0,0:0:0:0:
253,221,74132,1,0,0:0:0:0:
282,202,74212,1,0,3:0:0:0:
301,174,74293,2,0,P|291:132|300:75,1,90,8|0,0:0|3:0,0:0:0:0:
440,61,74616,6,0,P|444:105|433:148,1,90,0|0,0:0|3:0,0:0:0:0:
317,168,74939,1,8,0:0:0:0:
324,209,75019,1,0,0:0:0:0:
329,250,75100,1,0,0:0:0:0:
331,292,75180,1,0,0:0:0:0:
330,329,75261,6,0,P|285:338|236:322,1,90,0|0,3:0|0:0,0:0:0:0:
131,209,75584,2,0,P|174:197|217:206,1,90,8|0,0:0|3:0,0:0:0:0:
83,320,75906,1,0,0:0:0:0:
16,182,76068,1,0,3:0:0:0:
147,250,76229,1,8,0:0:0:0:
146,99,76390,1,0,0:0:0:0:
85,274,76552,5,8,0:0:0:0:
67,287,76632,1,0,3:0:0:0:
62,308,76713,1,0,3:0:0:0:
74,327,76793,1,0,0:0:0:0:
96,331,76874,1,4,3:2:0:0:
251,267,77197,5,8,0:0:0:0:
240,244,77277,1,8,0:0:0:0:
231,220,77358,1,8,0:0:0:0:
224,196,77438,1,8,0:0:0:0:
221,178,77519,1,0,3:0:0:0:
430,83,77842,5,4,3:2:0:0:
430,83,77922,1,0,0:0:0:0:
430,83,78003,2,0,P|421:106|421:131,1,45,0|0,0:0|3:0,0:0:0:0:
489,213,78164,2,0,P|455:223|403:254,1,90,8|0,0:0|3:0,0:0:0:0:
225,167,78487,2,0,L|327:175,1,90,0|0,0:0|3:0,0:0:0:0:
243,78,78810,1,8,0:0:0:0:
243,78,78971,6,0,P|197:70|139:97,1,90,0|0,0:0|3:0,0:0:0:0:
152,108,79213,1,0,0:0:0:0:
151,110,79293,2,0,L|159:161,1,45,0|0,0:0|3:0,0:0:0:0:
30,239,79455,2,0,P|19:187|33:140,1,90,8|0,0:0|3:0,0:0:0:0:
211,239,79777,1,0,0:0:0:0:
101,287,79939,1,0,3:0:0:0:
219,280,80100,1,8,0:0:0:0:
252,288,80180,1,0,0:0:0:0:
286,297,80261,1,0,0:0:0:0:
319,305,80341,1,0,0:0:0:0:
353,314,80422,5,8,0:0:0:0:
474,61,81552,6,0,L|395:68,1,67.5000025749208,2|6,0:0|3:2,0:0:0:0:
432,145,81874,2,0,L|499:139,1,67.5000025749208,0|10,3:0|0:0,0:0:0:0:
462,220,82197,2,0,L|312:209,1,135.000005149842,2|2,3:2|3:2,0:0:0:0:
266,252,82681,1,8,0:0:0:0:
178,323,82842,5,2,3:2:0:0:
178,323,83003,2,0,P|140:341|99:338,1,67.5000025749208,2|0,3:2|3:0,0:0:0:0:
47,300,83326,2,0,P|39:267|29:234,1,67.5000025749208,10|2,0:0|3:2,0:0:0:0:
98,199,83648,2,0,P|105:166|116:133,1,67.5000025749208,0|2,3:0|3:2,0:0:0:0:
33,98,83971,2,0,P|25:65|15:32,1,67.5000025749208,8|2,0:0|3:2,0:0:0:0:
115,38,84293,6,0,P|162:46|186:64,1,67.5000025749208,2|0,3:2|3:0,0:0:0:0:
133,122,84616,1,10,0:0:0:0:
133,122,84777,2,0,L|124:200,1,67.5000025749208,2|0,3:2|3:0,0:0:0:0:
180,231,85019,1,0,0:0:0:0:
187,237,85100,2,0,L|178:315,1,67.5000025749208,2|10,3:2|0:0,0:0:0:0:
252,347,85422,1,2,3:2:0:0:
252,347,85584,6,0,P|291:364|340:360,1,67.5000025749208,2|0,3:2|3:0,0:0:0:0:
342,290,85906,2,0,P|308:286|278:271,1,67.5000025749208,10|2,0:0|3:2,0:0:0:0:
333,203,86229,2,0,L|468:224,1,135.000005149842,0|8,3:0|0:0,0:0:0:0:
450,115,86713,1,2,3:2:0:0:
450,115,86874,6,0,L|368:125,1,67.5000025749208,2|0,3:2|3:0,0:0:0:0:
327,79,87197,1,10,0:0:0:0:
327,79,87358,2,0,P|292:63|245:69,1,67.5000025749208,2|0,3:2|3:0,0:0:0:0:
222,142,87681,2,0,P|187:158|140:152,1,67.5000025749208,2|8,3:2|0:0,0:0:0:0:
57,75,88003,1,2,3:2:0:0:
57,75,88164,2,0,L|139:80,1,67.5000025749208,2|0,3:2|3:0,0:0:0:0:
93,152,88487,2,0,L|11:157,1,67.5000025749208,10|2,0:0|3:2,0:0:0:0:
68,255,88810,2,0,P|100:275|141:271,1,67.5000025749208,2|2,3:2|3:2,0:0:0:0:
229,151,89132,2,0,P|195:152|168:171,1,67.5000025749208,10|2,0:0|3:2,0:0:0:0:
238,319,89455,6,0,L|222:246,1,67.5000025749208,2|0,3:2|3:0,0:0:0:0:
383,287,89777,2,0,L|368:352,1,67.5000025749208,8|2,0:0|3:2,0:0:0:0:
302,172,90100,2,0,B|348:163|376:181|367:188|410:211|457:182,1,135.000005149842,2|8,3:2|0:0,0:0:0:0:
324,271,90584,1,2,3:2:0:0:
508,140,90745,5,10,0:0:0:0:
430,286,90906,1,10,0:0:0:0:
397,36,91068,1,10,0:0:0:0:
303,203,91229,1,4,0:0:0:0:
488,162,91390,5,2,0:0:0:0:
444,222,91552,1,2,0:0:0:0:
380,178,91713,1,2,0:0:0:0:
424,118,91875,1,2,0:0:0:0:
449,248,92035,6,0,B|347:247|294:315|327:304|269:374|166:367,1,297.000009063721,6|2,3:2|0:0,0:0:0:0:
21,219,93326,6,0,B|215:277|215:277|162:268|101:287,1,297.000009063721,2|2,3:2|3:2,0:0:0:0:
169,80,94616,2,0,P|163:156|251:110,1,198.000006042481,2|0,3:2|0:0,0:0:0:0:
360,53,95584,1,2,0:0:0:0:
360,53,95906,2,0,B|389:58|409:78|405:75|419:95|456:98,1,99.0000030212403,2|0,3:2|0:0,0:0:0:0:
367,187,96390,1,2,0:0:0:0:
367,187,96552,2,0,L|360:134,3,49.5000015106202,0|0|2|0,0:0|0:0|0:0|0:0,0:0:0:0:
270,252,97197,6,0,B|322:248|362:286|345:321|354:360|427:370,1,198.000006042481,2|0,3:2|0:0,0:0:0:0:
245,338,98164,1,2,0:0:0:0:
245,338,98487,6,0,B|183:374|183:374|130:252,1,198.000006042481,2|0,3:2|0:0,0:0:0:0:
223,176,99455,1,2,0:0:0:0:
374,108,99777,6,0,B|333:107|298:123|311:119|297:145|224:172,1,137.700000840454,6|0,3:2|0:0,0:0:0:0:
120,83,100100,2,0,P|149:115|85:107,1,140.399999143066,4|0,3:2|0:0,0:0:0:0:
63,259,100422,2,0,B|94:261|125:265|125:265|150:283|150:283|175:288|216:295,1,143.100000218353,4|0,3:2|0:0,0:0:0:0:
336,311,100745,2,0,L|170:338,1,145.80000355957,4|0,3:2|0:0,0:0:0:0:
85,338,101068,5,8,0:0:0:0:
462,343,101713,6,0,B|471:274|418:234|359:219|368:118,1,252
494,152,102358,6,0,P|451:172|371:123,1,148.50000453186,4|0,3:2|3:0,0:0:0:0:
468,174,102681,6,0,P|422:188|349:130,1,148.50000453186
331,94,103003,2,0,B|263:100|243:148|253:140|234:190|148:196,1,198.000006042481,12|0,0:0|0:0,0:0:0:0:
91,184,103487,1,0,0:0:0:0:
15,102,103648,5,0,3:0:0:0:
15,102,103971,6,0,P|39:184|51:265,1,148.50000453186
35,260,104293,6,0,P|93:284|129:270,1,99.0000030212403,8|0,0:0|0:0,0:0:0:0:
184,206,104616,1,4,0:0:0:0:
148,132,104777,1,0,0:0:0:0:
176,19,104939,1,4,3:2:0:0:
176,19,105261,5,0,0:0:0:0:
191,91,105422,2,0,P|210:117|226:142,1,49.5000015106202,0|0,3:0|0:0,0:0:0:0:
276,201,105584,2,0,P|202:215|175:287,1,148.50000453186,8|0,0:0|0:0,0:0:0:0:
172,316,105906,2,0,P|225:328|267:357,1,99.0000030212403
390,350,106229,2,0,P|404:262|423:187,1,148.50000453186,0|0,3:0|3:0,0:0:0:0:
452,66,106713,1,0,3:0:0:0:
338,58,106874,5,8,0:0:0:0:
308,142,107035,1,0,0:0:0:0:
219,136,107197,1,4,0:0:0:0:
202,48,107358,1,0,0:0:0:0:
275,26,107519,6,0,P|294:87|300:225,1,198.000006042481,4|0,3:2|0:0,0:0:0:0:
243,274,108003,2,0,P|228:251|220:226,1,49.5000015106202,0|0,3:0|0:0,0:0:0:0:
230,160,108164,2,0,L|208:45,1,99.0000030212403,8|0,0:0|0:0,0:0:0:0:
100,40,108487,1,0,0:0:0:0:
73,113,108648,1,0,0:0:0:0:
82,199,108810,6,0,B|115:214|123:234|117:239|131:258|155:267,1,99.0000030212403,0|0,3:0|0:0,0:0:0:0:
152,341,109052,2,0,B|195:336|221:308|221:308|223:350|256:386,1,148.50000453186,0|0,3:0|3:0,0:0:0:0:
349,323,109455,6,0,P|398:355|452:352,1,99.0000030212403,8|0,0:0|0:0,0:0:0:0:
483,282,109777,1,4,0:0:0:0:
435,209,109939,1,0,0:0:0:0:
491,159,110100,6,0,P|510:98|517:41,1,99.0000030212403,4|0,3:2|0:0,0:0:0:0:
426,48,110342,6,0,P|412:123|388:196,1,148.50000453186,0|0,3:0|3:0,0:0:0:0:
317,251,110745,6,0,P|275:214|258:170,1,99.0000030212403,8|0,0:0|0:0,0:0:0:0:
199,80,110987,2,0,P|252:62|298:69,1,99.0000030212403
387,116,111229,2,0,L|371:187,1,49.5000015106202
306,211,111390,6,0,B|271:228|244:226|244:226|228:225|228:225|187:222|135:254,1,148.50000453186,4|0,3:2|3:0,0:0:0:0:
43,294,111874,1,0,3:0:0:0:
43,294,112035,6,0,L|28:182,1,99.0000030212403,8|0,0:0|0:0,0:0:0:0:
87,148,112358,1,8,0:0:0:0:
98,134,112438,1,8,0:0:0:0:
107,118,112519,1,8,0:0:0:0:
114,102,112599,1,8,0:0:0:0:
116,84,112681,6,0,B|122:133|158:172|159:155|205:191|195:273,1,198.000006042481,6|2,3:2|0:0,0:0:0:0:
196,258,113164,2,0,P|242:294|294:302,1,99.0000030212403,2|8,3:2|0:0,0:0:0:0:
352,352,113487,2,0,L|393:153,1,198.000006042481,2|2,0:0|0:0,0:0:0:0:
348,78,113971,2,0,B|297:67|297:67|252:93,1,99.0000030212403,2|0,3:2|0:0,0:0:0:0:
179,182,114293,2,0,P|219:205|270:194,1,99.0000030212403,2|2,0:0|3:2,0:0:0:0:
157,35,114616,2,0,L|373:76,1,198.000006042481,8|0,0:0|0:0,0:0:0:0:
232,175,115261,6,0,P|192:198|127:196,1,99.0000030212403,2|0,3:2|0:0,0:0:0:0:
87,87,115584,2,0,P|138:120|183:120,1,99.0000030212403,2|2,0:0|3:2,0:0:0:0:
28,175,115906,2,0,B|34:230|79:281|70:249|131:290|130:374,1,198.000006042481,8|0,0:0|0:0,0:0:0:0:
216,371,116390,1,2,0:0:0:0:
270,314,116552,2,0,P|327:331|363:360,1,99.0000030212403,2|0,3:2|0:0,0:0:0:0:
455,317,116874,2,0,P|487:270|481:213,1,99.0000030212403,2|2,0:0|3:2,0:0:0:0:
407,245,117197,6,0,B|393:164|393:164|389:164|389:164|375:84,1,161.999995056153,8|0,0:0|0:0,0:0:0:0:
391,69,117519,2,0,B|400:121|400:121|402:121|402:121|412:177,1,107.999996704102,8|10,0:0|0:0,0:0:0:0:
305,201,117842,6,0,P|252:159|176:171,1,107.999996704102,6|0,3:2|0:0,0:0:0:0:
37,210,118164,1,2,0:0:0:0:
99,154,118326,1,2,3:2:0:0:
60,285,118487,6,0,P|116:308|186:305,1,107.999996704102,12|2,0:0|0:0,0:0:0:0:
318,247,118810,2,0,B|262:236|262:236|197:274,1,107.999996704102,2|0,0:0|0:0,0:0:0:0:
360,331,119132,1,2,3:2:0:0:
360,331,119293,6,0,P|411:345|461:373,1,107.999996704102,2|0,0:0|0:0,0:0:0:0:
494,281,119616,1,2,3:2:0:0:
494,281,119777,2,0,P|446:254|394:240,1,107.999996704102,10|0,0:0|0:0,0:0:0:0:
299,189,120100,1,2,0:0:0:0:
299,189,120261,2,0,P|286:128|267:77,1,107.999996704102,2|0,0:0|3:0,0:0:0:0:
457,72,120584,2,0,L|443:297,1,215.999993408203,2|2,0:0|3:2,0:0:0:0:
220,253,121068,2,0,P|275:281|345:276,1,107.999996704102,10|0,0:0|0:0,0:0:0:0:
161,314,121390,1,2,0:0:0:0:
124,179,121552,1,2,0:0:0:0:
45,308,121713,5,8,0:0:0:0:
80,97,121874,1,2,3:2:0:0:
242,266,122035,5,10,0:0:0:0:
117,56,122197,1,0,3:0:0:0:
157,326,122358,5,10,0:0:0:0:
238,72,122519,1,0,0:0:0:0:
54,216,122681,6,0,P|93:224|118:232,1,53.9999983520508,10|8,0:0|0:0,0:0:0:0:
288,257,122842,1,8,0:0:0:0:
316,273,122922,1,8,0:0:0:0:
328,298,123003,5,4,3:2:0:0:
362,314,123083,1,0,0:0:0:0:
400,312,123164,1,0,0:0:0:0:
432,290,123244,1,0,3:0:0:0:
449,256,123325,1,8,0:0:0:0:
445,217,123406,1,0,0:0:0:0:
423,193,123487,1,0,3:0:0:0:
387,189,123567,1,0,0:0:0:0:
358,206,123648,2,0,L|368:324,1,107.999996704102,0|0,0:0|3:0,0:0:0:0:
212,286,124293,5,4,3:2:0:0:
185,320,124373,1,0,0:0:0:0:
144,334,124454,1,0,0:0:0:0:
102,323,124534,1,0,3:0:0:0:
74,289,124615,1,8,0:0:0:0:
71,246,124696,1,0,0:0:0:0:
92,208,124776,1,0,3:0:0:0:
128,188,124858,1,0,0:0:0:0:
163,179,124939,2,0,P|198:126|198:64,1,107.999996704102,0|0,0:0|3:0,0:0:0:0:
297,156,125584,5,4,3:2:0:0:
336,176,125664,1,0,0:0:0:0:
379,166,125745,1,0,0:0:0:0:
403,129,125825,1,0,3:0:0:0:
395,97,125906,1,8,0:0:0:0:
419,60,125986,1,0,0:0:0:0:
462,49,126067,1,0,3:0:0:0:
501,70,126147,1,0,0:0:0:0:
507,111,126229,2,0,P|486:160|471:223,1,107.999996704102,0|0,0:0|3:0,0:0:0:0:
350,310,126874,5,4,3:2:0:0:
322,337,126954,1,0,0:0:0:0:
286,349,127035,1,0,0:0:0:0:
248,344,127115,1,0,3:0:0:0:
216,323,127197,2,0,P|224:287|229:261,1,53.9999983520508,8|0,0:0|0:0,0:0:0:0:
69,224,127358,6,0,L|89:341,1,107.999996704102,0|0,3:0|0:0,0:0:0:0:
226,113,127681,1,0,3:0:0:0:
163,217,127842,1,8,0:0:0:0:
106,76,128003,1,0,0:0:0:0:
188,219,128164,5,4,3:2:0:0:
228,225,128244,1,0,0:0:0:0:
267,212,128325,1,0,0:0:0:0:
296,183,128405,1,0,3:0:0:0:
311,149,128487,1,8,0:0:0:0:
339,119,128567,1,0,0:0:0:0:
378,106,128648,1,0,3:0:0:0:
419,113,128728,1,0,0:0:0:0:
439,141,128810,2,0,L|424:259,1,107.999996704102,0|0,0:0|3:0,0:0:0:0:
199,348,129455,5,4,3:2:0:0:
191,315,129535,1,0,0:0:0:0:
184,282,129616,1,0,0:0:0:0:
176,250,129696,1,0,3:0:0:0:
154,229,129777,1,8,0:0:0:0:
146,196,129857,1,0,0:0:0:0:
139,163,129938,1,0,3:0:0:0:
131,131,130018,1,0,0:0:0:0:
141,105,130100,2,0,P|202:101|233:149,1,107.999996704102,0|0,0:0|3:0,0:0:0:0:
402,287,130745,6,0,P|426:233|424:182,1,107.999996704102,4|0,3:2|0:0,0:0:0:0:
288,153,130987,2,0,L|309:346,1,161.999995056153
156,346,131390,2,0,L|170:219,1,107.999996704102,4|0,3:2|0:0,0:0:0:0:
86,184,131632,2,0,L|68:345,1,161.999995056153
174,105,132035,6,0,P|117:107|67:75,1,107.999996704102,4|0,3:2|0:0,0:0:0:0:
159,16,132277,2,0,L|322:58,1,161.999995056153
477,149,132681,2,0,B|429:130|386:152|411:162|377:184|319:179,1,161.999995056153,4|0,3:2|0:0,0:0:0:0:
226,277,133164,1,0,0:0:0:0:
107,186,133326,5,8,0:0:0:0:
96,145,133407,1,8,0:0:0:0:
83,106,133487,1,0,0:0:0:0:
61,79,133568,1,8,0:0:0:0:
99,63,133648,1,8,0:0:0:0:
140,66,133729,1,8,0:0:0:0:
177,85,133810,1,8,0:0:0:0:
202,118,133890,1,8,0:0:0:0:
234,146,133970,5,8,0:0:0:0:
278,151,134051,1,8,0:0:0:0:
316,129,134131,1,8,0:0:0:0:
334,89,134212,1,8,0:0:0:0:
325,51,134293,2,0,B|252:63|252:63|245:59|245:59|162:76,1,161.999995056153,0|0,3:0|0:0,0:0:0:0:
30,163,134616,6,0,P|91:179|147:220,1,99.0000030212403,6|0,3:2|0:0,0:0:0:0:
284,241,134939,1,8,0:0:0:0:
52,351,135100,2,0,L|42:243,1,99.0000030212403,2|0,3:2|0:0,0:0:0:0:
181,116,135422,1,2,3:2:0:0:
151,288,135584,1,10,0:0:0:0:
357,175,135745,6,0,P|312:152|245:153,1,99.0000030212403,2|0,0:0|3:2,0:0:0:0:
344,321,136068,2,0,P|393:317|436:294,1,99.0000030212403,2|8,0:0|0:0,0:0:0:0:
485,102,136390,2,0,P|469:145|457:206,1,99.0000030212403,2|0,3:2|0:0,0:0:0:0:
314,30,136713,2,0,P|330:76|340:124,1,99.0000030212403,2|8,3:2|0:0,0:0:0:0:
218,265,137035,1,2,0:0:0:0:
187,37,137197,6,0,L|174:137,1,99.0000030212403,6|0,3:2|0:0,0:0:0:0:
285,235,137519,1,8,0:0:0:0:
19,197,137681,2,0,P|66:214|130:223,1,99.0000030212403,2|0,3:2|0:0,0:0:0:0:
258,129,138003,1,2,3:2:0:0:
163,325,138164,1,10,0:0:0:0:
340,239,138326,6,0,P|322:191|315:130,1,99.0000030212403,2|0,0:0|3:2,0:0:0:0:
485,80,138648,2,0,P|477:128|460:175,1,99.0000030212403,2|8,0:0|0:0,0:0:0:0:
337,48,138971,2,0,P|273:51|230:88,1,99.0000030212403,2|0,3:2|0:0,0:0:0:0:
118,189,139293,2,0,P|161:212|209:210,1,99.0000030212403,2|8,3:2|0:0,0:0:0:0:
247,44,139616,1,2,0:0:0:0:
34,72,139777,6,0,P|87:85|134:109,1,99.0000030212403,6|0,3:2|0:0,0:0:0:0:
178,225,140100,5,10,0:0:0:0:
220,109,140261,1,2,0:0:0:0:
257,296,140422,1,8,0:0:0:0:
269,188,140584,1,2,0:0:0:0:
184,349,140745,1,10,0:0:0:0:
171,203,140906,1,0,0:0:0:0:
300,288,141068,5,10,0:0:0:0:
157,204,141229,1,2,0:0:0:0:
333,210,141390,1,8,0:0:0:0:
206,276,141552,1,2,0:0:0:0:
430,223,141713,5,10,0:0:0:0:
313,175,141874,1,0,0:0:0:0:
439,121,142035,1,10,0:0:0:0:
291,147,142197,1,2,0:0:0:0:
497,173,142358,5,10,0:0:0:0:
448,167,142438,1,8,0:0:0:0:
406,191,142519,1,8,0:0:0:0:
386,235,142599,1,8,0:0:0:0:
378,276,142681,1,8,0:0:0:0:
357,320,142761,1,8,0:0:0:0:
315,344,142842,1,8,0:0:0:0:
267,338,142922,1,8,0:0:0:0:
246,311,143003,5,8,0:0:0:0:
272,270,143083,1,8,0:0:0:0:
319,260,143164,1,8,0:0:0:0:
359,287,143244,1,8,0:0:0:0:
368,334,143326,1,8,0:0:0:0:
340,355,143406,1,8,0:0:0:0:
307,347,143487,1,8,0:0:0:0:
293,315,143567,1,8,0:0:0:0:
309,285,143648,5,2,0:0:0:0:
256,192,143729,12,2,144777,0:0:0:0:
344,274,144939,6,0,P|352:220|339:175,1,90,6|0,3:2|0:0,0:0:0:0:
310,38,145261,1,8,0:0:0:0:
196,90,145422,2,0,B|183:140|183:140|200:193,1,90,2|0,3:2|0:0,0:0:0:0:
321,56,145745,1,2,3:2:0:0:
280,260,145906,1,10,0:0:0:0:
494,310,146068,6,0,P|446:315|377:298,1,90,2|0,0:0|3:2,0:0:0:0:
482,125,146390,1,2,0:0:0:0:
512,331,146552,1,8,0:0:0:0:
383,114,146713,2,0,P|368:158|362:204,1,90,2|0,3:2|0:0,0:0:0:0:
154,111,147035,2,0,P|147:66|133:24,1,90,2|8,3:2|0:0,0:0:0:0:
316,179,147358,1,2,0:0:0:0:
73,211,147519,6,0,L|162:222,1,90,6|0,3:2|0:0,0:0:0:0:
331,149,147842,1,8,0:0:0:0:
282,334,148003,2,0,P|239:359|184:358,1,90,2|0,3:2|0:0,0:0:0:0:
328,173,148326,1,2,3:2:0:0:
392,342,148487,1,10,0:0:0:0:
453,133,148648,6,0,P|464:178|449:235,1,90,2|0,0:0|3:2,0:0:0:0:
269,90,148971,1,2,0:0:0:0:
441,47,149132,1,8,0:0:0:0:
230,177,149293,2,0,P|274:195|322:197,1,90,2|0,3:2|0:0,0:0:0:0:
117,97,149616,1,2,3:2:0:0:
281,78,149777,1,12,0:0:0:0:
150,209,149939,1,2,0:0:0:0:
270,30,150100,5,14,0:0:0:0:
312,241,150261,1,0,0:0:0:0:
141,104,150422,5,8,0:0:0:0:
167,315,150584,1,2,3:2:0:0:
305,49,150745,5,10,0:0:0:0:
457,252,150906,1,0,3:0:0:0:
216,191,151068,5,10,0:0:0:0:
477,63,151229,1,0,3:0:0:0:
148,95,151390,5,14,0:0:0:0:
442,208,151552,1,0,3:0:0:0:
120,218,151713,5,10,0:0:0:0:
323,53,151874,1,0,3:0:0:0:
103,322,152035,5,10,0:0:0:0:
50,80,152197,1,0,3:0:0:0:
210,274,152358,5,10,0:0:0:0:
163,25,152519,1,0,0:0:0:0:
207,353,152681,6,0,P|225:309|221:238,1,90,6|0,3:2|0:0,0:0:0:0:
80,164,153003,5,10,0:0:0:0:
72,195,153083,1,8,0:0:0:0:
91,222,153164,1,8,0:0:0:0:
124,224,153244,1,8,0:0:0:0:
147,201,153326,2,0,L|134:90,1,90,6|0,3:2|0:0,0:0:0:0:
204,55,153648,5,10,0:0:0:0:
232,46,153728,1,8,0:0:0:0:
262,49,153809,1,8,0:0:0:0:
288,64,153889,1,8,0:0:0:0:
298,85,153971,2,0,L|287:174,1,90,6|0,3:2|0:0,0:0:0:0:
343,255,154293,5,8,0:0:0:0:
385,267,154373,1,8,0:0:0:0:
425,250,154454,1,8,0:0:0:0:
444,210,154534,1,8,0:0:0:0:
432,168,154615,5,0,3:0:0:0:
350,186,154777,1,0,3:0:0:0:
350,186,154939,2,0,B|315:175|292:189|292:189|259:208|219:200,1,135,2|0,3:2|0:0,0:0:0:0:
120,161,155261,6,0,B|88:189|50:194|50:194|130:216|169:138|145:132|214:77|275:118,1,337.5,6|0,3:2|0:0,0:0:0:0:
243,246,156552,2,0,B|288:218|351:209|351:209|383:176|383:176|437:167|491:136,1,270,2|2,3:2|0:0,0:0:0:0:
303,65,157842,6,0,B|333:288|333:288|351:345,1,270,2|2,3:2|0:0,0:0:0:0:
346,330,159132,6,0,B|293:316|251:343|255:341|216:365|165:357,1,180,0|0,3:0|0:0,0:0:0:0:
55,195,160100,1,2,0:0:0:0:
258,266,160422,5,4,3:2:0:0:
177,95,160584,1,0,0:0:0:0:
220,346,160745,1,10,0:0:0:0:
329,118,160906,1,10,0:0:0:0:
81,241,161068,1,8,0:0:0:0:
346,290,161229,1,8,0:0:0:0:
48,245,161390,1,10,0:0:0:0:
259,69,161552,1,8,0:0:0:0:
103,319,161713,5,10,0:0:0:0:
29,64,161874,1,8,0:0:0:0:
191,306,162035,1,8,0:0:0:0:
228,25,162197,6,0,P|284:23|321:35,1,90,10|0,0:0|0:0,0:0:0:0:
260,211,162519,1,2,0:0:0:0:
260,211,162681,2,0,P|258:155|270:118,1,90,2|0,0:0|0:0,0:0:0:0:
459,153,163003,5,6,3:2:0:0:
459,153,163083,1,0,0:0:0:0:
459,153,163164,2,0,P|430:160|404:171,1,45,0|0,0:0|3:0,0:0:0:0:
448,264,163326,2,0,P|414:295|362:306,1,90,8|0,0:0|3:0,0:0:0:0:
186,197,163648,2,0,L|286:201,1,90,0|0,0:0|3:0,0:0:0:0:
109,326,163971,5,8,0:0:0:0:
96,298,164051,1,0,0:0:0:0:
86,270,164132,1,0,0:0:0:0:
80,240,164212,1,0,0:0:0:0:
77,210,164293,6,0,P|61:161|61:110,1,90,0|0,3:2|0:0,0:0:0:0:
133,91,164535,1,0,3:0:0:0:
140,82,164616,2,0,P|188:97|231:135,1,90,8|0,0:0|3:0,0:0:0:0:
368,29,164939,2,0,P|320:44|277:82,1,90,0|0,0:0|3:0,0:0:0:0:
375,162,165261,2,0,P|411:188|454:200,1,90,8|0,0:0|0:0,0:0:0:0:
481,43,165584,5,0,3:2:0:0:
481,43,165664,1,0,0:0:0:0:
481,43,165745,2,0,L|473:91,1,45,0|0,0:0|3:0,0:0:0:0:
358,223,165906,2,0,P|338:177|342:128,1,90,8|0,0:0|3:0,0:0:0:0:
483,143,166229,1,0,0:0:0:0:
483,143,166390,1,0,3:0:0:0:
417,262,166552,5,8,0:0:0:0:
384,260,166632,1,0,0:0:0:0:
353,268,166713,1,0,0:0:0:0:
325,284,166793,1,0,0:0:0:0:
303,308,166874,5,0,3:2:0:0:
340,332,166954,1,0,0:0:0:0:
385,331,167035,1,0,0:0:0:0:
421,306,167115,1,0,3:0:0:0:
438,265,167196,5,8,0:0:0:0:
428,222,167277,1,0,0:0:0:0:
396,191,167357,1,0,3:0:0:0:
353,183,167438,1,0,0:0:0:0:
320,182,167519,6,0,L|270:187,1,45
245,264,167842,2,0,L|289:259,1,45
59,68,168164,5,12,0:0:0:0:
105,252,168326,1,0,3:0:0:0:
174,97,168487,5,8,0:0:0:0:
146,314,168648,1,0,3:0:0:0:
237,42,168810,5,8,0:0:0:0:
360,258,168971,1,0,3:0:0:0:
385,39,169132,5,8,0:0:0:0:
385,39,169213,1,0,0:0:0:0:
385,39,169293,1,0,3:0:0:0:
273,240,169455,5,8,0:0:0:0:
491,122,169616,1,0,3:0:0:0:
362,313,169777,5,8,0:0:0:0:
278,87,169939,1,0,3:0:0:0:
218,278,170100,5,8,0:0:0:0:
264,51,170261,1,0,3:0:0:0:
141,329,170422,6,0,P|148:296|148:267,1,49.5000015106202,8|0,0:0|0:0,0:0:0:0:
44,85,170584,1,0,3:0:0:0:
44,85,170664,1,0,0:0:0:0:
44,85,170745,5,8,0:0:0:0:
64,280,170906,1,0,3:0:0:0:
163,25,171068,5,8,0:0:0:0:
193,278,171229,1,0,3:0:0:0:
333,59,171390,5,8,0:0:0:0:
81,139,171552,1,0,3:0:0:0:
335,233,171713,5,8,0:0:0:0:
335,233,171793,1,0,0:0:0:0:
335,233,171874,1,0,3:0:0:0:
467,32,172035,5,8,0:0:0:0:
225,116,172197,1,0,3:0:0:0:
485,247,172358,5,8,0:0:0:0:
402,9,172519,1,0,3:0:0:0:
417,330,172681,5,8,0:0:0:0:
244,108,172842,1,0,3:0:0:0:
503,197,173003,5,12,0:0:0:0:
281,351,173164,1,0,0:0:0:0:
297,49,173326,1,8,0:0:0:0:
