osu file format v14

[General]
AudioFilename: audio.mp3
AudioLeadIn: 0
PreviewTime: 45033
Countdown: 1
SampleSet: Soft
StackLeniency: 0.7
Mode: 0
LetterboxInBreaks: 0
WidescreenStoryboard: 1

[Editor]
Bookmarks: 11063,21730,27063,29730,32396,35063,37730,40396,43063,44396,45730,47063,56396,57730,64396,75063
DistanceSpacing: 1.3
BeatDivisor: 4
GridSize: 8
TimelineZoom: 2.3

[Metadata]
Title:Miss Tail
TitleUnicode:ミステイル
Artist:THE ORAL CIGARETTES
ArtistUnicode:THE ORAL CIGARETTES
Creator:Mokobe
Version:Cyco's Hard
Source:
Tags:Xandit Harupoi Cycopton Stromboli Str0mboli TOC Smoke Smoke45
BeatmapID:2116876
BeatmapSetID:1010332

[Difficulty]
HPDrainRate:6
CircleSize:3.5
OverallDifficulty:5
ApproachRate:8
SliderMultiplier:1.5
SliderTickRate:1

[Events]
//Background and Video events
0,0,"anime-girl-sunset-sky-school-uniform-short-hair-23416.jpg",0,0
//Break Periods
//Storyboard Layer 0 (Background)
//Storyboard Layer 1 (Fail)
//Storyboard Layer 2 (Pass)
//Storyboard Layer 3 (Foreground)
//Storyboard Layer 4 (Overlay)
//Storyboard Sound Samples

[TimingPoints]
450,333.333333333333,4,2,1,70,1,0
450,-100,4,2,1,70,0,0
11116,-100,4,2,1,72,0,0
32449,-100,4,2,1,72,0,0
35116,-100,4,2,1,72,0,0
37783,-100,4,2,1,72,0,0
40449,-100,4,2,1,72,0,0
43116,-133.333333333333,4,2,1,67,0,0
45116,-166.666666666667,4,2,1,45,0,0
45783,-90.9090909090909,4,2,1,76,0,1
64449,-100,4,2,1,70,0,0
75116,348.33091436865,4,1,1,70,1,0
75116,-222.222222222222,4,1,1,70,0,0

[Colours]
Combo1 : 216,217,222
Combo2 : 239,132,24
Combo3 : 194,87,61
Combo4 : 179,117,143

[HitObjects]
86,132,11116,6,0,P|173:160|232:139,1,150,6|8,1:0|0:0,0:0:0:0:
292,71,11616,1,0,0:0:0:0:
292,71,11699,1,0,0:0:0:0:
292,71,11783,1,0,0:0:0:0:
345,259,12116,1,10,0:0:0:0:
345,259,12449,6,0,B|273:227|273:291|201:259,1,150,2|8,1:0|0:0,0:0:0:0:
141,336,12949,1,2,1:0:0:0:
141,336,13116,2,0,P|189:354|236:353,1,75,2|0,1:0|1:0,0:0:0:0:
200,258,13449,2,0,P|152:240|105:241,1,75,10|0,0:0|1:0,0:0:0:0:
50,298,13783,6,0,P|33:216|25:148,1,150,6|8,1:0|0:0,0:0:0:0:
96,84,14283,1,0,0:0:0:0:
96,84,14366,1,0,0:0:0:0:
96,84,14449,1,0,0:0:0:0:
275,160,14783,1,10,0:0:0:0:
275,160,15116,6,0,P|348:195|429:169,1,150,2|8,1:0|0:0,0:0:0:0:
355,100,15616,1,2,1:0:0:0:
355,100,15783,2,0,P|318:72|271:66,1,75,2|0,1:0|1:0,0:0:0:0:
201,100,16116,2,0,P|166:97|119:86,1,75,10|0,0:0|1:0,0:0:0:0:
43,138,16449,6,0,B|74:176|112:179|112:179|129:262,1,150,6|8,1:0|0:0,0:0:0:0:
57,314,16949,1,0,0:0:0:0:
57,314,17033,1,0,0:0:0:0:
57,314,17116,1,0,0:0:0:0:
251,331,17449,1,10,0:0:0:0:
251,331,17783,6,0,B|356:316|356:316|384:277,1,150,2|8,1:0|0:0,0:0:0:0:
452,213,18283,1,2,1:0:0:0:
452,213,18449,2,0,P|387:182|351:188,1,75,2|0,1:0|1:0,0:0:0:0:
308,241,18783,2,0,P|300:199|291:164,1,75,10|0,0:0|1:0,0:0:0:0:
194,174,19116,6,0,P|220:105|286:73,1,150,6|8,1:0|0:0,0:0:0:0:
384,66,19616,1,0,0:0:0:0:
384,66,19699,1,0,0:0:0:0:
384,66,19783,1,0,0:0:0:0:
308,241,20116,1,10,0:0:0:0:
308,241,20449,6,0,B|236:209|236:273|164:241,1,150,2|12,1:0|0:0,0:0:0:0:
85,182,20949,1,2,0:0:0:0:
111,87,21116,2,0,L|156:70,3,37.5,10|8|8|8,0:0|0:0|0:0|0:0,0:0:0:0:
179,109,21449,2,0,L|224:126,3,37.5,2|0|0|0,1:0|1:0|1:0|1:0,0:0:0:0:
247,87,21783,6,0,P|298:82|342:86,1,75,6|0,1:0|0:0,0:0:0:0:
356,118,22033,2,0,P|407:123|451:119,1,75,2|0,1:0|0:0,0:0:0:0:
474,98,22283,2,0,P|466:173|460:248,1,150,2|0,1:0|1:0,0:0:0:0:
391,316,22783,1,8,0:0:0:0:
294,328,22949,1,0,1:0:0:0:
204,288,23116,6,0,P|154:273|117:273,1,75,6|0,1:0|0:0,0:0:0:0:
84,287,23366,2,0,P|77:243|73:206,1,75,2|0,1:0|0:0,0:0:0:0:
33,184,23616,2,0,P|45:101|55:22,1,150,2|0,1:0|1:0,0:0:0:0:
137,83,24116,1,8,0:0:0:0:
233,69,24283,1,0,1:0:0:0:
298,140,24449,6,0,P|387:156|444:108,1,150,6|8,1:0|0:0,0:0:0:0:
356,63,24949,1,0,0:0:0:0:
356,63,25033,1,0,0:0:0:0:
356,63,25116,1,0,0:0:0:0:
335,257,25449,1,10,0:0:0:0:
335,257,25783,2,0,B|225:268|225:268|189:244,1,150,6|0,1:0|0:0,0:0:0:0:
122,177,26283,1,2,1:0:0:0:
60,252,26449,2,0,L|49:289,3,37.5,2|0|0|0,1:0|1:0|1:0|1:0,0:0:0:0:
73,330,26783,1,14,0:0:0:0:
257,266,27116,6,0,L|304:260,7,37.5,10|8|10|10|10|10|10|10,0:0|0:0|0:0|0:0|0:0|0:0|0:0|0:0,0:0:0:0:
331,293,27783,2,0,L|359:255,7,37.5,2|8|10|10|10|10|10|10,0:0|0:0|0:0|0:0|0:0|0:0|0:0|0:0,0:0:0:0:
402,259,28449,2,0,L|396:212,7,37.5,10|0|10|10|10|10|10|2,0:0|0:0|0:0|0:0|0:0|0:0|0:0|0:0,0:0:0:0:
428,184,29116,2,0,L|390:155,7,37.5,8|8|2|10|10|10|10|10,0:0|0:0|0:0|0:0|1:3|1:3|1:3|1:3,0:0:0:0:
393,112,29783,6,0,B|321:80|321:144|249:112,1,150,6|8,1:0|0:0,0:0:0:0:
181,40,30283,1,0,0:0:0:0:
181,40,30366,1,0,0:0:0:0:
181,40,30449,1,0,0:0:0:0:
136,230,30783,1,10,0:0:0:0:
136,230,31116,2,0,P|221:271|275:261,1,150,2|12,1:0|0:0,0:0:0:0:
349,200,31616,1,2,0:0:0:0:
446,210,31783,2,0,L|458:169,3,37.5,10|8|8|8,0:0|0:0|0:0|0:0,0:0:0:0:
438,128,32116,1,2,1:0:0:0:
438,128,32449,6,0,B|407:97|407:97|288:129,1,150,14|0,0:0|1:0,0:0:0:0:
255,208,32949,2,0,P|217:169|208:140,1,75,14|2,0:0|1:0,0:0:0:0:
234,56,33283,1,0,1:0:0:0:
234,56,33449,2,0,P|194:59|136:63,1,75,14|2,0:0|1:0,0:0:0:0:
68,100,33783,6,0,B|91:142|128:152|128:152|131:237,1,150,14|0,0:0|1:0,0:0:0:0:
91,309,34283,2,0,P|132:313|170:319,1,75,14|2,0:0|1:0,0:0:0:0:
235,249,34616,1,0,1:0:0:0:
235,249,34783,2,0,P|277:245|314:239,1,75,14|8,0:0|0:0,0:0:0:0:
381,305,35116,6,0,P|405:218|374:166,1,150,6|8,1:0|0:0,0:0:0:0:
284,141,35616,1,0,1:0:0:0:
284,141,35783,2,0,P|260:100|262:60,1,75,2|0,1:0|1:0,0:0:0:0:
168,36,36116,2,0,P|130:46|86:53,1,75,10|0,0:0|1:0,0:0:0:0:
71,146,36449,6,0,P|79:197|72:239,1,75,6|2,1:0|0:0,0:0:0:0:
161,269,36783,2,0,P|169:218|162:176,1,75,10|2,0:0|1:0,0:0:0:0:
247,148,37116,2,0,L|289:140,3,37.5,10|8|8|8,0:0|0:0|0:0|0:0,0:0:0:0:
326,163,37449,1,10,0:0:0:0:
326,163,37783,6,0,P|353:237|439:255,1,150,14|0,0:0|1:0,0:0:0:0:
423,162,38283,2,0,P|401:103|370:80,1,75,14|2,0:0|1:0,0:0:0:0:
301,62,38616,1,0,1:0:0:0:
301,62,38783,2,0,P|242:67|212:62,1,75,14|2,0:0|1:0,0:0:0:0:
148,123,39116,6,0,B|108:164|108:164|123:270,1,150,14|0,0:0|1:0,0:0:0:0:
186,328,39616,2,0,P|245:343|279:335,1,75,14|2,0:0|1:0,0:0:0:0:
326,271,39949,1,0,1:0:0:0:
326,271,40116,2,0,P|385:256|419:264,1,75,14|8,0:0|0:0,0:0:0:0:
446,267,40366,1,0,0:0:0:0:
493,277,40449,6,0,P|480:200|475:126,1,150,6|8,1:0|0:0,0:0:0:0:
405,59,40949,1,0,1:0:0:0:
405,59,41116,2,0,P|361:48|324:43,1,75,2|0,1:0|1:0,0:0:0:0:
266,116,41449,2,0,P|222:127|185:132,1,75,10|0,0:0|1:0,0:0:0:0:
123,200,41783,6,0,P|166:225|219:220,1,75,6|2,1:0|0:0,0:0:0:0:
122,296,42116,2,0,P|165:321|218:316,1,75,10|2,0:0|1:0,0:0:0:0:
286,312,42449,2,0,L|325:303,3,37.5,10|8|8|8,0:0|0:0|0:0|0:0,0:0:0:0:
340,256,42783,1,0,1:0:0:0:
340,255,43116,6,0,B|380:166|300:166|340:76,2,168.750006437302,14|2|2,0:0|0:0|0:0,0:0:0:0:
405,125,44449,1,14,0:0:0:0:
405,125,45116,6,0,P|356:122|331:88,1,89.9999972534181,2|2,0:0|0:0,0:0:0:0:
332,92,45783,6,0,P|287:99|233:103,1,82.5000025177003,6|2,1:0|0:0,0:0:0:0:
327,176,46116,2,0,P|282:183|228:187,1,82.5000025177003,10|2,0:0|0:0,0:0:0:0:
161,253,46449,2,0,P|206:260|260:264,1,82.5000025177003,2|2,1:0|1:0,0:0:0:0:
166,337,46782,2,0,P|211:344|265:348,1,82.5000025177003,10|2,0:0|0:0,0:0:0:0:
345,301,47116,6,0,P|385:288|433:289,1,82.5000025177003,2|0,1:0|1:0,0:0:0:0:
491,203,47449,1,10,0:0:0:0:
442,106,47616,1,0,0:0:0:0:
346,155,47783,2,0,P|306:168|258:167,1,82.5000025177003,2|0,1:0|1:0,0:0:0:0:
169,121,48116,2,0,P|159:192|167:221,1,82.5000025177003,10|0,0:0|0:0,0:0:0:0:
145,307,48449,6,0,B|186:276|186:276|302:307,1,165.000005035401,2|10,1:0|0:0,0:0:0:0:
393,261,48949,1,0,0:0:0:0:
393,261,49116,2,0,P|374:311|389:361,1,82.5000025177003,2|2,1:0|1:0,0:0:0:0:
483,321,49449,2,0,P|502:271|487:221,1,82.5000025177003,8|2,0:0|0:0,0:0:0:0:
429,159,49783,6,0,P|372:156|339:138,1,82.5000025177003,2|0,1:0|1:0,0:0:0:0:
280,62,50116,2,0,P|223:65|190:83,1,82.5000025177003,10|0,0:0|0:0,0:0:0:0:
131,158,50449,2,0,L|118:205,3,41.2500012588501,14|8|8|8,0:0|0:0|0:0|0:0,0:0:0:0:
174,200,50783,2,0,L|198:242,3,41.2500012588501,14|8|8|8,0:0|0:0|0:0|0:0,0:0:0:0:
234,199,51116,6,0,B|323:159|323:239|413:199,1,165.000005035401,6|8,1:0|0:0,0:0:0:0:
485,151,51616,1,0,0:0:0:0:
485,151,51783,2,0,P|477:191|473:242,1,82.5000025177003,2|0,1:0|1:0,0:0:0:0:
501,336,52116,2,0,P|447:351|414:350,1,82.5000025177003,8|0,0:0|0:0,0:0:0:0:
324,302,52449,6,0,B|205:283|205:283|171:312,1,165.000005035401,2|10,1:0|0:0,0:0:0:0:
72,352,52949,1,0,0:0:0:0:
72,352,53116,2,0,P|63:296|77:253,1,82.5000025177003,2|0,1:0|1:0,0:0:0:0:
152,204,53449,2,0,P|161:148|147:105,1,82.5000025177003,10|0,0:0|0:0,0:0:0:0:
58,75,53783,6,0,P|118:114|204:78,1,165.000005035401,6|10,1:0|0:0,0:0:0:0:
275,6,54283,1,0,0:0:0:0:
275,6,54449,2,0,P|311:16|359:23,1,82.5000025177003,2|0,1:0|1:0,0:0:0:0:
408,116,54783,2,0,P|372:126|324:133,1,82.5000025177003,10|0,0:0|0:0,0:0:0:0:
263,218,55116,6,0,L|305:226,3,41.2500012588501,14|8|8|8,0:0|0:0|0:0|0:0,0:0:0:0:
273,270,55449,2,0,L|296:305,3,41.2500012588501,14|8|8|8,0:0|0:0|0:0|0:0,0:0:0:0:
243,313,55783,2,0,L|234:354,3,41.2500012588501,14|8|8|0,0:0|0:0|0:0|0:0,0:0:0:0:
191,322,56116,2,0,L|155:345,3,41.2500012588501,14|8|8|8,0:0|0:0|0:0|0:0,0:0:0:0:
147,291,56449,6,0,P|111:281|63:274,1,82.5000025177003,6|2,1:0|0:0,0:0:0:0:
153,209,56783,2,0,P|117:199|69:192,1,82.5000025177003,10|2,0:0|0:0,0:0:0:0:
148,116,57116,2,0,P|184:106|232:99,1,82.5000025177003,2|2,1:0|1:0,0:0:0:0:
142,34,57450,2,0,P|178:24|226:17,1,82.5000025177003,0|2,0:0|0:0,0:0:0:0:
323,55,57783,6,0,P|376:67|423:51,1,82.5000025177003,2|0,1:0|1:0,0:0:0:0:
475,140,58116,1,10,0:0:0:0:
412,227,58283,1,0,0:0:0:0:
459,322,58449,2,0,P|406:334|359:318,1,82.5000025177003,2|0,1:0|1:0,0:0:0:0:
304,250,58783,2,0,P|251:238|204:254,1,82.5000025177003,0|0,0:0|0:0,0:0:0:0:
139,309,59116,6,0,P|159:195|114:149,1,165.000005035401,6|10,1:0|0:0,0:0:0:0:
58,86,59616,1,0,0:0:0:0:
58,86,59783,2,0,P|108:81|145:75,1,82.5000025177003,2|2,1:0|1:0,0:0:0:0:
216,152,60116,2,0,P|266:157|303:163,1,82.5000025177003,8|2,0:0|0:0,0:0:0:0:
394,114,60449,6,0,P|403:174|394:207,1,82.5000025177003,2|0,1:0|1:0,0:0:0:0:
499,232,60783,2,0,P|462:280|433:297,1,82.5000025177003,10|0,0:0|0:0,0:0:0:0:
338,280,61116,2,0,P|278:271|245:280,1,82.5000025177003,2|0,1:0|1:0,0:0:0:0:
181,351,61449,2,0,P|121:360|88:351,1,82.5000025177003,10|8,0:0|0:0,0:0:0:0:
33,270,61783,6,0,B|17:216|17:216|81:118,1,165.000005035401,6|8,1:0|0:0,0:0:0:0:
134,34,62283,1,0,0:0:0:0:
134,34,62449,2,0,P|176:54|232:40,1,82.5000025177003,2|0,1:0|1:0,0:0:0:0:
288,128,62783,2,0,P|330:108|386:122,1,82.5000025177003,8|0,0:0|0:0,0:0:0:0:
464,150,63116,6,0,L|448:192,3,41.2500012588501,14|8|8|8,0:0|0:0|0:0|0:0,0:0:0:0:
480,232,63449,2,0,L|438:250,3,41.2500012588501,14|8|8|8,0:0|0:0|0:0|0:0,0:0:0:0:
433,301,63783,2,0,L|390:284,3,41.2500012588501,14|8|8|0,0:0|0:0|0:0|0:0,0:0:0:0:
350,316,64116,1,6,1:0:0:0:
350,316,64449,6,0,B|278:284|278:348|206:316,1,150,6|8,1:0|0:0,0:0:0:0:
147,237,64949,1,0,0:0:0:0:
147,237,65033,1,0,0:0:0:0:
147,237,65116,1,0,0:0:0:0:
223,57,65449,1,10,0:0:0:0:
223,57,65783,6,0,B|268:89|268:89|369:73,1,150,2|0,1:0|0:0,0:0:0:0:
447,27,66283,1,2,1:0:0:0:
447,27,66449,2,0,P|458:94|451:121,1,75,2|0,1:0|1:0,0:0:0:0:
390,171,66783,2,0,P|379:238|386:265,1,75,10|0,0:0|1:0,0:0:0:0:
442,318,67116,6,0,P|368:260|286:275,1,150,6|8,1:0|0:0,0:0:0:0:
237,320,67616,1,0,0:0:0:0:
237,320,67699,1,0,0:0:0:0:
237,320,67783,1,0,0:0:0:0:
48,266,68116,1,10,0:0:0:0:
48,266,68449,6,0,P|57:185|63:112,1,150,2|8,1:0|0:0,0:0:0:0:
23,27,68949,1,2,1:0:0:0:
23,27,69116,2,0,P|84:44|120:47,1,75,2|0,1:0|1:0,0:0:0:0:
170,107,69449,2,0,P|231:90|267:87,1,75,10|0,0:0|1:0,0:0:0:0:
329,135,69783,6,0,B|285:175|285:175|306:275,1,150,6|8,1:0|0:0,0:0:0:0:
378,325,70283,1,0,0:0:0:0:
378,325,70366,1,0,0:0:0:0:
378,325,70449,1,0,0:0:0:0:
329,135,70783,1,10,0:0:0:0:
329,135,71116,6,0,B|257:103|257:167|185:135,1,150,2|8,1:0|0:0,0:0:0:0:
108,74,71616,1,2,1:0:0:0:
108,74,71783,2,0,P|131:129|134:154,1,75,2|0,1:0|1:0,0:0:0:0:
65,212,72116,2,0,P|42:267|39:292,1,75,10|0,0:0|1:0,0:0:0:0:
115,343,72449,6,0,P|199:331|273:327,1,150,6|8,1:0|0:0,0:0:0:0:
360,341,72949,1,0,0:0:0:0:
360,341,73033,1,0,0:0:0:0:
360,341,73116,1,0,0:0:0:0:
401,150,73449,1,10,0:0:0:0:
401,150,73783,6,0,L|353:142,3,37.5,2|0|0|2,1:0|0:0|0:0|1:0,0:0:0:0:
348,97,74116,2,0,L|308:125,3,37.5,12|0|2|0,0:0|0:0|0:0|0:0,0:0:0:0:
273,97,74449,2,0,L|265:145,3,37.5,10|8|8|8,0:0|0:0|0:0|0:0,0:0:0:0:
219,150,74783,2,0,L|247:189,3,37.5,2|0|0|0,1:0|1:0|1:0|1:0,0:0:0:0:
218,225,75116,6,0,B|199:251|199:287|219:313|219:313|232:325|231:345|218:356|218:356|206:369|186:368|174:356|174:356|162:344|162:324|174:312|174:312|185:299|205:299|217:299|217:299|268:299|305:319|305:319|342:345|369:345|400:318|400:318|407:327|402:348,1,506.249984550477
256,192,77815,12,0,82430,0:0:0:0:
