osu file format v14

[General]
AudioFilename: audio.mp3
AudioLeadIn: 0
PreviewTime: -1
Countdown: 1
SampleSet: None
StackLeniency: 0.7
Mode: 0
LetterboxInBreaks: 0
WidescreenStoryboard: 0

[Editor]
DistanceSpacing: 1
BeatDivisor: 4
GridSize: 4
TimelineZoom: 1.8

[Metadata]
Title:Miss Tail
TitleUnicode:Miss Tail
Artist:THE ORAL CIGARETTES
ArtistUnicode:THE ORAL CIGARETTES
Creator:Lordofsquids
Version:
Source:
Tags:
BeatmapID:1843756
BeatmapSetID:881855

[Difficulty]
HPDrainRate:6
CircleSize:4.2
OverallDifficulty:6
ApproachRate:9.3
SliderMultiplier:1.8
SliderTickRate:1

[Events]
//Background and Video events
//Break Periods
//Storyboard Layer 0 (Background)
//Storyboard Layer 1 (Fail)
//Storyboard Layer 2 (Pass)
//Storyboard Layer 3 (Foreground)
//Storyboard Sound Samples

[TimingPoints]
10930,333.333333333333,4,2,32,100,1,0
10930,-100,4,2,32,43,0,0
42929,-133.333333333333,4,2,32,43,0,0

[HitObjects]
145,165,10930,6,0,P|203:207|213:264,1,105,4|0,1:0|1:0,0:0:0:0:
235,287,11263,1,8,0:0:0:0:
78,289,11430,5,0,1:0:0:0:
78,289,11596,2,0,P|138:325|153:322,1,70,0|0,1:0|1:0,0:0:0:0:
193,223,11930,2,0,P|226:251|242:294,1,70,8|0,0:0|1:0,0:0:0:0:
327,328,12263,6,0,P|374:317|399:269,1,105,0|0,1:0|1:0,0:0:0:0:
409,210,12596,1,8,0:0:0:0:
449,68,12763,5,0,1:0:0:0:
332,155,12930,1,0,1:0:0:0:
340,46,13096,1,0,1:0:0:0:
214,66,13263,2,0,P|239:127|265:136,1,70,8|0,0:0|1:0,0:0:0:0:
145,219,13596,6,0,P|203:177|213:120,1,105,0|0,1:0|1:0,0:0:0:0:
235,97,13930,1,8,0:0:0:0:
78,95,14096,5,0,1:0:0:0:
78,95,14263,2,0,P|138:59|153:62,1,70,0|0,1:0|1:0,0:0:0:0:
193,161,14596,2,0,P|226:133|242:90,1,70,8|0,0:0|1:0,0:0:0:0:
327,56,14930,6,0,P|374:67|399:115,1,105,2|0,0:0|0:0,0:0:0:0:
409,174,15263,1,8,0:0:0:0:
449,316,15429,5,0,0:0:0:0:
332,229,15596,1,4,0:0:0:0:
340,338,15762,1,0,0:0:0:0:
214,318,15930,2,0,P|239:257|265:248,1,70,8|0,0:0|0:0,0:0:0:0:
367,219,16263,6,0,P|309:177|299:120,1,105,6|0,0:0|0:0,0:0:0:0:
277,97,16596,1,8,0:0:0:0:
434,95,16763,5,2,0:0:0:0:
434,95,16930,2,0,P|374:59|359:62,1,70,6|0,0:0|0:0,0:0:0:0:
319,161,17263,2,0,P|286:133|270:90,1,70,10|0,0:0|0:0,0:0:0:0:
185,56,17596,6,0,P|138:67|113:115,1,105,2|0,0:0|0:0,0:0:0:0:
103,174,17930,1,8,0:0:0:0:
63,316,18096,5,0,0:0:0:0:
180,229,18263,1,4,0:0:0:0:
172,338,18429,1,0,0:0:0:0:
298,318,18596,2,0,P|273:257|247:248,1,70,8|0,0:0|0:0,0:0:0:0:
383,193,18929,6,0,P|311:200|274:244,1,105,4|0,0:0|0:0,0:0:0:0:
244,253,19263,1,8,0:0:0:0:
379,333,19429,5,2,0:0:0:0:
379,333,19596,2,0,P|309:334|297:324,1,70,6|0,0:0|0:0,0:0:0:0:
312,219,19929,2,0,P|269:226|234:255,1,70,8|0,0:0|0:0,0:0:0:0:
143,243,20263,6,0,P|107:209|102:165,1,70,2|0,0:0|0:0,0:0:0:0:
159,112,20596,1,10,0:0:0:0:
246,44,20763,1,2,0:0:0:0:
362,54,20929,5,8,0:0:0:0:
378,85,21013,1,8,0:0:0:0:
384,119,21096,1,8,0:0:0:0:
380,153,21179,1,8,0:0:0:0:
368,186,21263,2,0,P|328:218|283:217,1,70,8|0,0:0|0:0,0:0:0:0:
225,196,21596,6,0,P|186:229|171:295,1,105
201,333,21929,1,8,0:0:0:0:
353,346,22096,1,2,0:0:0:0:
273,231,22263,1,0,1:0:0:0:
412,179,22429,1,0,1:0:0:0:
285,34,22596,2,0,P|289:90|259:119,1,70,8|0,0:0|0:0,0:0:0:0:
225,188,22929,6,0,P|186:155|171:89,1,105
311,51,23263,1,8,0:0:0:0:
159,38,23429,1,0,0:0:0:0:
239,153,23596,1,0,0:0:0:0:
100,205,23762,1,0,0:0:0:0:
227,350,23929,2,0,P|223:294|253:265,1,70,8|0,0:0|0:0,0:0:0:0:
213,206,24263,6,0,P|173:265|116:277,1,105
94,300,24596,1,8,0:0:0:0:
86,143,24763,5,0,0:0:0:0:
86,143,24929,2,0,P|52:204|55:219,1,70
178,269,25263,2,0,P|185:311|169:354,1,70,8|0,0:0|0:0,0:0:0:0:
363,337,25596,6,0,P|340:291|291:278,1,105
374,179,25929,1,8,0:0:0:0:
273,51,26096,5,0,0:0:0:0:
90,43,26263,1,0,0:0:0:0:
59,90,26346,1,0,0:0:0:0:
65,149,26429,1,0,0:0:0:0:
111,192,26513,1,0,0:0:0:0:
166,200,26596,2,0,P|199:191|223:167,1,70
46,312,26929,1,0,0:0:0:0:
52,278,27012,1,0,0:0:0:0:
72,251,27095,1,0,0:0:0:0:
99,230,27178,1,0,0:0:0:0:
130,221,27262,1,0,0:0:0:0:
164,222,27345,1,0,0:0:0:0:
195,235,27428,1,0,0:0:0:0:
228,248,27512,1,0,0:0:0:0:
272,250,27595,1,0,0:0:0:0:
313,237,27678,1,0,0:0:0:0:
347,211,27762,1,0,0:0:0:0:
371,175,27845,1,0,0:0:0:0:
382,132,27928,1,0,0:0:0:0:
355,99,28012,1,0,0:0:0:0:
318,76,28095,1,0,0:0:0:0:
276,66,28178,1,0,0:0:0:0:
232,63,28262,1,0,0:0:0:0:
182,77,28345,1,0,0:0:0:0:
140,110,28429,1,0,0:0:0:0:
111,152,28512,1,0,0:0:0:0:
98,201,28595,1,0,0:0:0:0:
102,253,28678,1,0,0:0:0:0:
124,301,28762,1,0,0:0:0:0:
160,338,28845,1,0,0:0:0:0:
206,354,28928,1,0,0:0:0:0:
266,353,29013,1,0,0:0:0:0:
325,335,29096,1,0,0:0:0:0:
378,303,29179,1,0,0:0:0:0:
424,259,29262,1,0,0:0:0:0:
454,207,29346,1,0,0:0:0:0:
471,147,29429,1,0,0:0:0:0:
473,85,29512,1,0,0:0:0:0:
145,165,29596,6,0,P|203:207|213:264,1,105,4|0,1:0|1:0,0:0:0:0:
235,287,29929,1,8,0:0:0:0:
78,289,30096,5,0,1:0:0:0:
78,289,30262,2,0,P|138:325|153:322,1,70,0|0,1:0|1:0,0:0:0:0:
193,223,30596,2,0,P|226:251|242:294,1,70,8|0,0:0|1:0,0:0:0:0:
327,328,30929,6,0,P|374:317|399:269,1,105,0|0,1:0|1:0,0:0:0:0:
409,210,31262,1,8,0:0:0:0:
449,68,31429,5,0,1:0:0:0:
347,107,31596,1,0,0:0:0:0:
337,51,31679,1,0,0:0:0:0:
292,12,31762,1,0,0:0:0:0:
229,12,31846,1,0,0:0:0:0:
183,44,31929,2,0,P|164:73|163:107,1,70,2|2,0:0|0:0,0:0:0:0:
193,56,32263,5,10,0:0:0:0:
71,213,32429,1,0,1:0:0:0:
253,235,32596,1,0,1:0:0:0:
142,130,32763,5,10,0:0:0:0:
156,328,32929,1,2,1:0:0:0:
306,222,33096,1,0,1:0:0:0:
122,200,33263,5,10,0:0:0:0:
238,64,33429,1,2,0:0:0:0:
193,56,33596,5,10,0:0:0:0:
71,213,33762,1,0,0:0:0:0:
253,235,33929,1,0,0:0:0:0:
142,130,34096,5,10,0:0:0:0:
156,328,34262,1,2,0:0:0:0:
306,222,34429,1,0,0:0:0:0:
347,107,34596,1,2,0:0:0:0:
337,51,34679,1,0,0:0:0:0:
292,12,34762,1,0,0:0:0:0:
229,12,34846,1,0,0:0:0:0:
175,55,34929,6,0,P|223:107|220:172,1,135,6|0,0:0|1:0,0:0:0:0:
240,191,35262,1,8,0:0:0:0:
78,289,35429,5,0,1:0:0:0:
78,289,35595,2,0,P|138:325|153:322,1,70,0|0,1:0|1:0,0:0:0:0:
193,223,35929,2,0,P|226:251|242:294,1,70,8|0,0:0|1:0,0:0:0:0:
327,328,36262,6,0,P|374:317|399:269,1,105,0|0,1:0|1:0,0:0:0:0:
409,210,36595,1,8,0:0:0:0:
449,68,36762,5,0,1:0:0:0:
347,107,36929,1,0,0:0:0:0:
337,51,37012,1,0,0:0:0:0:
292,12,37095,1,0,0:0:0:0:
229,12,37179,1,0,0:0:0:0:
183,44,37262,2,0,P|164:73|163:107,1,70
193,56,37596,5,0,0:0:0:0:
71,213,37762,1,0,0:0:0:0:
253,235,37929,1,0,0:0:0:0:
142,130,38096,5,0,0:0:0:0:
156,328,38262,1,0,0:0:0:0:
306,222,38429,1,0,0:0:0:0:
122,200,38596,5,0,0:0:0:0:
238,64,38762,1,0,0:0:0:0:
193,56,38929,5,0,0:0:0:0:
71,213,39095,1,0,0:0:0:0:
253,235,39262,1,0,0:0:0:0:
142,130,39429,5,0,0:0:0:0:
156,328,39595,1,0,0:0:0:0:
306,222,39762,1,0,0:0:0:0:
347,107,39929,1,0,0:0:0:0:
337,51,40012,1,0,0:0:0:0:
292,12,40095,1,0,0:0:0:0:
229,12,40179,1,0,0:0:0:0:
145,165,40263,6,0,P|203:207|213:264,1,105,4|0,1:0|1:0,0:0:0:0:
235,287,40596,1,8,0:0:0:0:
78,289,40763,5,0,1:0:0:0:
78,289,40929,2,0,P|138:325|153:322,1,70,0|0,1:0|1:0,0:0:0:0:
193,223,41263,2,0,P|226:251|242:294,1,70,8|0,0:0|1:0,0:0:0:0:
327,328,41596,6,0,P|374:317|399:269,1,105,0|0,1:0|1:0,0:0:0:0:
409,210,41929,1,8,0:0:0:0:
449,68,42096,5,0,1:0:0:0:
347,107,42263,1,0,0:0:0:0:
337,51,42346,1,0,0:0:0:0:
292,12,42429,1,0,0:0:0:0:
229,12,42513,1,0,0:0:0:0:
183,44,42596,2,0,P|164:73|163:107,1,70
51,124,42929,2,0,P|166:317|346:307,1,420.000016021729
149,41,45596,5,0,0:0:0:0:
215,312,45763,1,0,0:0:0:0:
254,98,45929,5,0,0:0:0:0:
45,292,46096,1,0,0:0:0:0:
90,138,46263,5,0,0:0:0:0:
388,65,46429,1,0,0:0:0:0:
183,52,46596,5,0,0:0:0:0:
307,297,46763,1,0,0:0:0:0:
370,74,46929,5,0,0:0:0:0:
140,232,47096,1,0,0:0:0:0:
390,213,47179,1,0,0:0:0:0:
390,213,47263,2,0,P|413:245|421:280,1,67.5000025749208
