osu file format v14

[General]
AudioFilename: audio.mp3
AudioLeadIn: 0
PreviewTime: 44859
Countdown: 0
SampleSet: Soft
StackLeniency: 0.4
Mode: 0
LetterboxInBreaks: 0
WidescreenStoryboard: 0

[Editor]
DistanceSpacing: 1.1
BeatDivisor: 4
GridSize: 32
TimelineZoom: 1.8

[Metadata]
Title:Miss Tail (Cut Ver.)
TitleUnicode:ミステイル (Cut Ver.)
Artist:THE ORAL CIGARETTES
ArtistUnicode:THE ORAL CIGARETTES
Creator:Takakin
Version:dkblaze's Remorse
Source:
Tags:blitzifyyy dkblaze Yuuma before it's too late its edit version short rock cigs japanese jrock j-rock toc 5150 あきらかにあきら Akira Akirakani 中西雅哉 Masaya Nakanishi 山中拓也 Takuya Yamanaka 鈴木重伸 Shigenobu Suzuki
BeatmapID:2611482
BeatmapSetID:1255210

[Difficulty]
HPDrainRate:6
CircleSize:3.8
OverallDifficulty:9
ApproachRate:9.2
SliderMultiplier:1.8
SliderTickRate:1

[Events]
//Background and Video events
0,0,"blobtzifyyy.jpg",0,0
//Break Periods
//Storyboard Layer 0 (Background)
//Storyboard Layer 1 (Fail)
//Storyboard Layer 2 (Pass)
//Storyboard Layer 3 (Foreground)
//Storyboard Layer 4 (Overlay)
//Storyboard Sound Samples

[TimingPoints]
408,333.333333333333,4,2,6,65,1,0
408,-100,4,2,6,65,0,0
10741,-250,4,2,6,65,0,0
11074,-76.9230769230769,4,2,6,75,0,0
20407,-333.333333333333,4,2,6,75,0,0
20741,-58.8235294117647,4,2,6,75,0,0
21741,-76.9230769230769,4,2,6,75,0,0
26741,-58.8235294117647,4,2,6,75,0,0
27074,-66.6666666666667,4,2,6,75,0,0
29741,-76.9230769230769,4,2,6,75,0,0
32407,-83.3333333333333,4,2,6,70,0,0
43074,-500,4,2,6,60,0,0
44407,-41.6666666666667,4,2,6,75,0,0
44491,-41.6666666666667,4,2,6,5,0,0
44574,-41.6666666666667,4,2,6,75,0,0
45741,-71.4285714285714,4,2,6,80,0,1
51074,-166.666666666667,4,2,6,80,0,1
51407,-71.4285714285714,4,2,6,80,0,1
55741,-71.4285714285714,4,2,6,80,0,0
56407,-71.4285714285714,4,2,6,80,0,1
61741,-166.666666666667,4,2,6,80,0,1
62074,-71.4285714285714,4,2,6,80,0,1
66074,-62.5,4,2,6,80,0,1
67074,-166.666666666667,4,2,6,75,0,0
68407,-41.6666666666667,4,2,6,75,0,0
68491,-41.6666666666667,4,2,6,5,0,0
68574,-41.6666666666667,4,2,6,75,0,0
69741,-76.9230769230769,4,2,6,75,0,0
78741,-62.5,4,2,6,75,0,0
80407,340.909090909091,4,2,6,60,1,0
81088,352.941176470588,4,2,6,60,1,0
81793,342.857142857143,4,2,6,60,1,0
82478,355.029585798817,4,2,6,60,1,0
82478,-166.666666666667,4,2,6,60,0,0

[Colours]
Combo1 : 250,165,224
Combo2 : 248,202,139
Combo3 : 251,40,140
Combo4 : 254,203,240
Combo5 : 254,52,103
Combo6 : 251,96,154
Combo7 : 181,103,243
Combo8 : 141,186,252
SliderBorder : 250,145,180
SliderTrackOverride : 58,25,13

[HitObjects]
256,64,408,6,0,P|250:151|247:254,2,180,2|8|0,3:2|0:0|3:0,0:0:0:0:
383,368,1407,2,0,P|348:369|300:313,1,90,10|0,0:0|0:0,0:0:0:0:
336,164,1741,2,0,P|423:144|512:129,1,180,2|8,3:2|0:0,0:0:0:0:
329,250,2241,2,0,B|236:240|291:172|169:156,1,180,2|0,0:0|0:0,0:0:0:0:
0,230,2741,2,0,P|11:280|20:326,1,90,10|0,0:0|0:0,0:0:0:0:
163,354,3074,6,0,P|170:294|189:164,2,180,2|8|0,3:2|0:0|3:0,0:0:0:0:
315,150,4074,1,8,0:0:0:0:
25,72,4407,2,0,B|89:51|151:37|151:37|154:73|182:93,1,180,2|8,3:2|0:0,0:0:0:0:
39,205,4907,2,0,P|-4:174|29:53,1,180,2|0,0:0|0:0,0:0:0:0:
187,83,5407,2,0,P|175:142|169:183,1,90,10|0,0:0|0:0,0:0:0:0:
14,313,5741,6,0,B|65:300|65:300|137:349|137:349|192:335,2,180,2|8|0,3:2|0:0|3:0,0:0:0:0:
221,169,6741,2,0,P|212:218|206:267,1,90,10|0,0:0|0:0,0:0:0:0:
369,384,7074,2,0,P|358:319|337:192,1,180,2|8,3:2|0:0,0:0:0:0:
197,49,7574,2,0,P|162:98|230:184,1,180,2|0,0:0|0:0,0:0:0:0:
369,106,8074,2,0,P|418:119|466:135,1,90,10|0,0:0|0:0,0:0:0:0:
500,301,8407,6,0,B|433:320|433:320|418:356|418:356|322:385,2,180,2|8|0,3:2|0:0|3:0,0:0:0:0:
60,120,9407,1,10,0:0:0:0:
68,164,9490,1,8,0:0:0:0:
75,208,9573,1,8,0:0:0:0:
83,252,9657,1,8,0:0:0:0:
90,297,9740,1,2,3:2:0:0:
90,297,10741,6,0,P|95:327|99:355,1,54,4|0,3:3|0:0,0:0:0:0:
17,264,11074,6,0,B|115:267|75:195|195:203,1,175.499991966248,6|0,3:2|3:0,0:0:0:0:
220,214,11407,1,8,0:0:0:0:
28,63,11574,1,2,3:2:0:0:
17,108,11657,1,2,0:0:0:0:
5,153,11741,1,2,3:2:0:0:
204,126,11907,1,0,3:0:0:0:
100,0,12074,2,0,P|111:59|121:115,1,116.999994644165,10|0,0:0|3:0,0:0:0:0:
22,367,12407,6,0,P|44:326|137:312,1,116.999994644165,2|0,3:2|0:0,0:0:0:0:
204,348,12657,1,2,3:2:0:0:
168,379,12741,1,10,0:0:0:0:
76,203,12907,1,2,3:2:0:0:
252,75,13074,2,0,P|244:149|240:202,1,116.999994644165,2|0,3:2|3:0,0:0:0:0:
425,371,13407,2,0,P|421:330|410:235,1,116.999994644165,10|0,0:0|3:0,0:0:0:0:
241,65,13741,6,0,B|299:77|299:77|350:40|350:40|406:51,1,175.499991966248,2|0,3:2|3:0,0:0:0:0:
452,57,14074,1,8,0:0:0:0:
315,252,14241,1,2,3:2:0:0:
359,237,14324,1,2,0:0:0:0:
403,223,14407,1,2,3:2:0:0:
232,166,14574,1,0,3:0:0:0:
180,339,14741,2,0,P|175:311|145:195,1,116.999994644165,10|0,0:0|3:0,0:0:0:0:
42,9,15074,6,0,P|1:56|20:134,1,116.999994644165,2|0,3:2|0:0,0:0:0:0:
90,174,15324,1,2,3:2:0:0:
102,128,15407,1,10,0:0:0:0:
0,210,15574,1,2,3:2:0:0:
73,366,15741,2,0,P|118:352|187:333,1,116.999994644165,2|0,3:2|3:0,0:0:0:0:
396,268,16074,2,0,P|416:330|385:393,1,116.999994644165,10|0,0:0|3:0,0:0:0:0:
300,198,16407,6,0,P|388:220|513:253,1,175.499991966248,6|0,3:2|3:0,0:0:0:0:
512,251,16741,1,8,0:0:0:0:
436,55,16907,1,2,3:2:0:0:
422,100,16991,1,2,0:0:0:0:
412,145,17074,1,2,3:2:0:0:
512,102,17241,1,0,3:0:0:0:
362,1,17407,2,0,P|300:16|230:35,1,116.999994644165,10|0,0:0|3:0,0:0:0:0:
33,172,17741,6,0,P|8:147|23:56,1,116.999994644165,2|0,3:2|0:0,0:0:0:0:
76,17,17991,1,2,3:2:0:0:
104,54,18074,1,10,0:0:0:0:
230,1,18241,1,2,3:2:0:0:
359,107,18407,2,0,P|346:188|340:239,1,116.999994644165,2|0,3:2|3:0,0:0:0:0:
138,258,18741,2,0,P|128:196|116:129,1,116.999994644165,10|0,0:0|3:0,0:0:0:0:
376,330,19074,6,0,B|315:316|315:316|272:357|272:357|193:339,1,175.499991966248,2|0,3:2|3:0,0:0:0:0:
179,335,19407,1,8,0:0:0:0:
27,144,19574,1,2,3:2:0:0:
14,188,19657,1,2,0:0:0:0:
3,234,19741,1,2,3:2:0:0:
176,189,19907,1,0,3:0:0:0:
109,48,20074,2,0,P|71:33|-5:6,1,116.999994644165,10|0,0:0|3:0,0:0:0:0:
89,237,20407,6,0,P|93:255|98:284,1,40.4999987640381,2|2,3:2|0:0,0:0:0:0:
95,292,20741,6,0,B|214:313|168:184|310:224,1,229.500004377365,14|0,0:0|0:0,0:0:0:0:
370,279,21074,5,10,0:0:0:0:
296,300,21157,1,8,0:0:0:0:
225,257,21241,1,8,0:0:0:0:
212,174,21324,1,8,0:0:0:0:
261,104,21407,5,10,0:3:0:0:
269,116,21491,1,8,0:3:0:0:
274,130,21574,1,4,0:3:0:0:
275,145,21657,1,4,0:3:0:0:
271,163,21741,6,0,P|198:137|96:105,1,175.499991966248,6|2,3:2|3:2,0:0:0:0:
194,52,22074,1,8,0:0:0:0:
104,275,22241,2,0,B|140:263|182:251|182:251|205:179|205:179|248:167|278:158,1,233.999989288331,2|0,3:2|3:0,0:0:0:0:
48,214,22741,2,0,P|20:274|59:343,1,116.999994644165,8|0,0:0|3:0,0:0:0:0:
246,384,23074,6,0,P|299:357|419:325,1,175.499991966248,2|2,3:2|3:2,0:0:0:0:
295,270,23407,1,8,0:0:0:0:
474,384,23574,2,0,B|467:359|454:323|454:323|512:238|512:238|502:209|490:162,1,233.999989288331,2|0,3:2|3:0,0:0:0:0:
251,115,24074,2,0,P|241:162|303:182,1,116.999994644165,8|0,0:0|3:0,0:0:0:0:
512,87,24407,6,0,B|413:72|469:6|328:-6,1,175.499991966248,2|0,3:2|3:0,0:0:0:0:
316,2,24741,1,8,0:0:0:0:
417,220,24907,1,2,3:2:0:0:
461,204,24991,1,2,0:0:0:0:
506,193,25074,1,2,3:2:0:0:
396,115,25241,1,0,3:0:0:0:
266,288,25407,2,0,P|233:272|153:239,1,116.999994644165,10|0,0:0|3:0,0:0:0:0:
300,107,25741,6,0,P|290:216|284:288,1,175.499991966248,2|2,3:2|3:2,0:0:0:0:
278,370,26074,1,10,0:0:0:0:
342,181,26241,1,2,0:0:0:0:
119,338,26408,1,10,0:0:0:0:
101,333,26491,1,4,0:3:0:0:
83,328,26574,1,4,0:3:0:0:
65,322,26658,1,4,0:3:0:0:
47,317,26741,6,0,B|116:296|116:296|170:383|170:383|254:362,1,229.500004377365,14|0,0:0|0:0,0:0:0:0:
342,383,27074,6,0,L|324:289,1,67.5000025749208,10|0,3:2|0:0,0:0:0:0:
229,212,27241,1,8,0:0:0:0:
273,237,27324,1,8,0:0:0:0:
330,226,27407,1,8,3:2:0:0:
364,176,27491,1,8,0:0:0:0:
412,149,27574,1,8,0:0:0:0:
477,161,27657,1,8,0:0:0:0:
512,219,27741,6,0,P|464:229|416:236,1,67.5000025749208,2|8,3:2|0:0,0:0:0:0:
243,126,27907,1,8,0:0:0:0:
229,66,27991,1,8,0:0:0:0:
263,15,28074,1,0,3:2:0:0:
321,1,28157,1,8,0:0:0:0:
377,23,28241,1,8,0:0:0:0:
402,77,28324,1,8,0:0:0:0:
394,137,28407,6,0,P|387:186|383:221,1,67.5000025749208,10|0,3:2|0:0,0:0:0:0:
292,342,28574,1,8,0:0:0:0:
242,362,28657,1,8,0:0:0:0:
189,348,28741,1,8,3:2:0:0:
158,294,28824,1,8,0:0:0:0:
122,238,28907,1,8,0:0:0:0:
61,228,28991,1,8,0:0:0:0:
7,255,29074,6,0,P|33:266|71:277,1,67.5000025749208,2|8,3:2|0:0,0:0:0:0:
145,133,29241,1,4,0:3:0:0:
143,99,29324,1,4,0:3:0:0:
127,70,29407,1,8,0:3:0:0:
100,51,29490,1,8,0:3:0:0:
67,45,29574,1,4,0:3:0:0:
35,56,29657,1,4,0:3:0:0:
11,79,29741,6,0,P|71:68|198:38,1,175.499991966248,6|0,3:2|3:0,0:0:0:0:
233,28,30074,1,8,0:0:0:0:
340,190,30241,1,2,3:2:0:0:
351,138,30324,1,2,0:0:0:0:
362,86,30407,1,2,3:2:0:0:
254,221,30574,1,0,3:0:0:0:
454,273,30741,2,0,P|447:229|433:148,1,116.999994644165,10|0,0:0|3:0,0:0:0:0:
179,162,31074,6,0,P|154:215|172:269,1,116.999994644165,2|0,3:2|0:0,0:0:0:0:
256,322,31324,1,2,3:2:0:0:
206,339,31407,1,10,0:0:0:0:
333,199,31574,1,2,0:0:0:0:
18,79,31741,1,10,0:0:0:0:
24,119,31824,1,8,0:0:0:0:
30,159,31907,1,8,0:0:0:0:
36,199,31991,1,8,0:0:0:0:
42,239,32074,1,6,3:2:0:0:
42,239,32407,5,14,0:0:0:0:
244,113,32574,2,0,P|235:166|229:219,1,107.999996704102,2|0,3:2|3:0,0:0:0:0:
133,138,32907,5,10,0:0:0:0:
342,296,33074,2,0,P|337:266|320:183,1,107.999996704102,2|0,3:2|3:0,0:0:0:0:
163,280,33407,5,10,0:0:0:0:
338,178,33574,1,2,3:2:0:0:
98,49,33741,5,10,0:0:0:0:
241,207,33907,1,2,3:2:0:0:
241,207,33991,1,2,0:0:0:0:
241,207,34074,1,2,3:2:0:0:
371,96,34241,1,10,0:0:0:0:
161,170,34407,5,2,3:2:0:0:
161,170,34574,1,0,3:0:0:0:
407,24,34741,1,10,0:0:0:0:
460,31,34824,1,8,0:0:0:0:
494,72,34907,1,8,0:0:0:0:
503,125,34991,1,10,0:0:0:0:
487,176,35074,6,0,P|477:236|471:285,1,107.999996704102,6|0,3:2|0:0,0:0:0:0:
289,131,35407,1,10,0:0:0:0:
422,313,35574,1,2,3:2:0:0:
453,304,35658,1,2,0:0:0:0:
485,296,35741,1,2,3:2:0:0:
365,204,35907,1,0,3:0:0:0:
202,377,36074,2,0,P|193:329|177:272,1,107.999996704102,10|0,0:0|0:0,0:0:0:0:
107,115,36407,5,2,3:2:0:0:
195,180,36574,1,0,0:0:0:0:
322,95,36741,1,10,0:0:0:0:
242,30,36907,1,2,3:2:0:0:
12,183,37074,1,2,3:2:0:0:
16,145,37157,1,8,0:0:0:0:
21,107,37240,1,8,0:0:0:0:
26,70,37324,1,8,0:0:0:0:
31,33,37407,1,2,3:2:0:0:
31,33,37741,5,14,0:0:0:0:
202,193,37907,2,0,P|196:164|179:77,1,107.999996704102,0|2,3:0|3:2,0:0:0:0:
289,127,38241,5,10,0:0:0:0:
92,300,38407,2,0,P|96:278|115:165,1,107.999996704102,2|0,3:2|3:0,0:0:0:0:
6,254,38741,5,10,0:0:0:0:
143,372,38907,1,2,3:2:0:0:
301,136,39074,5,10,0:0:0:0:
136,229,39241,1,2,3:2:0:0:
136,229,39324,1,2,0:0:0:0:
136,229,39407,1,2,3:2:0:0:
368,201,39574,1,10,0:0:0:0:
54,151,39741,5,2,3:2:0:0:
54,151,39907,1,0,3:0:0:0:
284,376,40074,1,10,0:0:0:0:
319,363,40157,1,8,0:0:0:0:
355,350,40240,1,8,0:0:0:0:
390,339,40324,1,10,0:0:0:0:
426,326,40407,6,0,P|420:290|402:187,1,107.999996704102,6|0,3:2|0:0,0:0:0:0:
381,30,40741,1,10,0:0:0:0:
197,185,40907,1,2,3:0:0:0:
166,176,40990,1,2,0:0:0:0:
135,166,41074,1,2,0:0:0:0:
241,81,41241,1,0,3:0:0:0:
419,226,41407,2,0,P|423:197|438:112,1,107.999996704102,10|0,0:0|0:0,0:0:0:0:
295,208,41741,5,2,3:2:0:0:
497,308,41907,1,0,0:0:0:0:
368,384,42074,1,14,0:0:0:0:
508,299,42241,1,2,0:0:0:0:
299,126,42407,5,10,3:2:0:0:
245,95,42491,1,8,0:0:0:0:
185,101,42574,1,8,0:0:0:0:
148,141,42657,1,8,0:0:0:0:
123,184,42741,1,6,3:3:0:0:
93,215,42824,1,4,0:3:0:0:
51,218,42907,1,4,0:3:0:0:
20,205,42991,1,4,0:3:0:0:
0,183,43074,6,0,P|8:236|16:289,1,108,6|2,3:2|0:0,0:0:0:0:
16,289,44407,6,0,P|8:236|0:183,1,108,10|0,0:0|0:0,0:0:0:0:
72,167,45741,5,6,3:2:0:0:
298,249,45907,1,0,0:0:0:0:
81,184,46074,5,10,0:0:0:0:
333,122,46241,1,0,0:0:0:0:
177,32,46407,5,2,3:2:0:0:
103,268,46574,1,2,3:2:0:0:
339,342,46741,1,10,0:0:0:0:
413,106,46907,1,2,0:0:0:0:
167,20,47074,6,0,P|181:102|189:157,1,125.999996154785,2|0,3:2|3:0,0:0:0:0:
323,257,47407,2,0,P|347:217|320:124,1,125.999996154785,10|0,0:0|0:0,0:0:0:0:
166,216,47741,1,2,3:3:0:0:
258,315,47907,1,0,3:0:0:0:
468,189,48074,2,0,P|452:263|441:327,1,125.999996154785,10|0,0:0|0:0,0:0:0:0:
208,384,48407,6,0,B|149:392|125:338|149:328|128:278|47:277,1,188.999994232178,2|0,3:2|0:0,0:0:0:0:
0,295,48741,2,0,B|47:283|47:283|66:252|66:252|116:242,1,125.999996154785,10|0,0:0|0:0,0:0:0:0:
202,111,49074,1,2,3:2:0:0:
10,159,49241,1,2,3:2:0:0:
121,26,49407,1,8,0:0:0:0:
99,228,49574,1,2,0:0:0:0:
412,192,49741,5,2,3:2:0:0:
211,126,49907,1,2,3:2:0:0:
363,299,50074,2,0,P|411:285|500:267,1,125.999996154785,10|0,0:0|0:0,0:0:0:0:
321,78,50407,5,10,3:2:0:0:
280,30,50490,1,8,0:0:0:0:
221,11,50573,1,10,0:0:0:0:
161,24,50657,1,8,0:0:0:0:
115,66,50740,1,10,3:2:0:0:
99,126,50823,1,8,0:0:0:0:
116,186,50907,1,8,0:0:0:0:
161,229,50990,1,8,0:0:0:0:
225,235,51074,6,0,P|253:223|316:205,1,80.9999975280763,6|0,3:2|0:0,0:0:0:0:
406,200,51407,6,0,B|380:196|354:192|354:192|315:123|315:123|285:118|240:110,1,188.999994232178,8|0,0:0|0:0,0:0:0:0:
193,162,51741,2,0,P|207:237|217:298,1,125.999996154785,2|0,3:2|3:0,0:0:0:0:
425,347,52074,2,0,P|448:311|415:209,1,125.999996154785,10|0,0:0|0:0,0:0:0:0:
203,152,52407,5,2,3:2:0:0:
328,256,52574,1,0,3:0:0:0:
475,104,52741,2,0,P|464:176|457:235,1,125.999996154785,10|0,0:0|0:0,0:0:0:0:
190,160,53074,2,0,P|142:147|59:125,1,125.999996154785,2|0,3:2|3:0,0:0:0:0:
369,47,53407,2,0,P|417:34|500:12,1,125.999996154785,10|0,0:0|0:0,0:0:0:0:
192,264,53741,6,0,P|173:235|185:149,1,125.999996154785,6|0,3:2|3:0,0:0:0:0:
352,259,54074,2,0,P|344:333|340:385,1,125.999996154785,10|0,0:0|0:0,0:0:0:0:
423,161,54407,1,2,3:2:0:0:
219,77,54574,1,2,3:2:0:0:
365,270,54741,2,0,P|409:256|498:232,1,125.999996154785,10|0,0:0|0:0,0:0:0:0:
322,369,55074,5,10,3:2:0:0:
274,384,55157,1,8,0:0:0:0:
223,379,55241,1,8,0:0:0:0:
187,343,55324,1,8,0:0:0:0:
173,289,55407,1,10,3:2:0:0:
148,237,55491,1,8,0:0:0:0:
101,204,55574,1,8,0:0:0:0:
44,204,55657,1,8,0:0:0:0:
0,240,55741,5,10,3:2:0:0:
56,272,55824,1,8,0:0:0:0:
118,262,55907,1,8,0:0:0:0:
158,208,55991,1,8,0:0:0:0:
152,147,56074,1,10,3:3:0:0:
105,110,56157,1,8,0:3:0:0:
87,70,56241,1,6,0:3:0:0:
94,41,56324,1,4,0:3:0:0:
110,23,56407,5,6,3:2:0:0:
269,107,56574,1,0,0:0:0:0:
14,128,56741,5,10,0:0:0:0:
287,97,56907,1,0,0:0:0:0:
150,245,57074,5,2,3:2:0:0:
205,27,57241,1,2,3:2:0:0:
423,82,57407,1,10,0:0:0:0:
368,300,57574,1,2,0:0:0:0:
138,254,57741,6,0,P|128:191|115:130,1,125.999996154785,2|0,3:2|3:0,0:0:0:0:
400,182,58074,2,0,P|417:245|386:295,1,125.999996154785,10|0,0:0|0:0,0:0:0:0:
204,113,58407,1,2,3:2:0:0:
315,205,58574,1,0,3:0:0:0:
437,48,58741,2,0,P|425:106|413:173,1,125.999996154785,10|0,0:0|0:0,0:0:0:0:
293,345,59074,6,0,P|263:307|182:303,1,125.999996154785,2|0,3:2|3:0,0:0:0:0:
3,204,59407,2,0,P|18:279|29:348,1,125.999996154785,10|0,0:0|0:0,0:0:0:0:
218,194,59741,1,2,3:2:0:0:
134,83,59907,2,0,P|75:96|3:116,1,125.999996154785,2|8,3:2|0:0,0:0:0:0:
213,214,60241,1,2,0:0:0:0:
402,113,60407,6,0,P|463:141|483:195,1,125.999996154785,2|0,3:2|3:0,0:0:0:0:
278,106,60741,2,0,P|279:59|362:10,1,125.999996154785,10|0,0:0|0:0,0:0:0:0:
477,202,61074,1,2,3:2:0:0:
367,312,61241,1,2,3:2:0:0:
182,99,61407,1,10,0:0:0:0:
189,159,61491,1,8,0:0:0:0:
197,220,61574,1,10,0:0:0:0:
205,280,61658,1,8,0:0:0:0:
213,341,61741,6,0,B|234:349|246:364|246:364|252:346|276:329,1,80.9999975280763,6|0,3:2|0:0,0:0:0:0:
283,246,62074,6,0,B|234:231|234:231|159:285|159:285|90:263,1,188.999994232178,8|0,0:0|0:0,0:0:0:0:
49,214,62407,2,0,P|25:280|55:333,1,125.999996154785,2|0,3:2|3:0,0:0:0:0:
221,191,62741,2,0,P|227:145|239:55,1,125.999996154785,10|0,0:0|0:0,0:0:0:0:
23,0,63074,6,0,P|33:75|42:133,1,125.999996154785,2|0,3:2|3:0,0:0:0:0:
258,51,63407,1,10,0:0:0:0:
128,14,63574,1,2,0:0:0:0:
292,128,63741,1,2,3:2:0:0:
72,212,63907,1,0,3:0:0:0:
117,2,64074,2,0,P|127:77|136:135,1,125.999996154785,10|0,0:0|0:0,0:0:0:0:
246,307,64407,6,0,P|266:234|392:237,1,188.999994232178,6|0,3:2|0:0,0:0:0:0:
441,260,64741,2,0,P|427:357|423:407,1,125.999996154785,8|0,0:0|0:0,0:0:0:0:
512,220,65074,5,0,3:0:0:0:
379,121,65241,1,0,3:0:0:0:
332,315,65407,2,0,P|378:299|460:274,1,125.999996154785,8|0,0:0|0:0,0:0:0:0:
263,364,65741,5,2,3:2:0:0:
166,243,65907,1,0,3:0:0:0:
43,384,66074,6,0,B|48:361|56:327|56:327|14:252|14:252|23:216|28:176,1,216,12|0,0:0|0:0,0:0:0:0:
13,107,66407,5,2,3:2:0:0:
70,76,66491,1,8,0:0:0:0:
132,92,66574,1,8,0:0:0:0:
159,150,66657,1,8,0:0:0:0:
216,181,66741,1,10,3:2:0:0:
279,170,66824,1,8,0:0:0:0:
315,116,66907,1,8,0:0:0:0:
309,50,66991,1,8,0:0:0:0:
254,12,67074,6,0,P|243:146|231:341,1,323.999990112305,6|0,3:2|0:0,0:0:0:0:
231,335,68407,6,0,P|233:300|239:210,1,107.999996704102,10|0,0:0|0:0,0:0:0:0:
281,359,69741,6,0,B|333:373|333:373|391:322|391:322|450:337,1,175.499991966248,6|0,3:2|3:0,0:0:0:0:
486,346,70074,1,8,0:0:0:0:
278,160,70241,1,2,3:2:0:0:
292,216,70324,1,2,0:0:0:0:
307,272,70407,1,2,3:2:0:0:
450,231,70574,1,0,3:0:0:0:
289,70,70741,2,0,P|224:82|163:95,1,116.999994644165,10|0,0:0|3:0,0:0:0:0:
26,279,71074,6,0,P|18:240|-5:147,1,116.999994644165,2|0,3:2|0:0,0:0:0:0:
89,112,71324,1,2,3:2:0:0:
80,163,71407,1,10,0:0:0:0:
0,37,71574,1,2,3:2:0:0:
132,229,71741,2,0,P|176:213|251:192,1,116.999994644165,2|0,3:2|3:0,0:0:0:0:
470,267,72074,2,0,P|481:332|446:386,1,116.999994644165,10|0,0:0|3:0,0:0:0:0:
276,121,72407,6,0,B|289:178|289:178|252:241|252:241|267:303,1,175.499991966248,2|0,3:2|3:0,0:0:0:0:
277,335,72741,1,8,0:0:0:0:
93,135,72907,1,2,3:2:0:0:
145,119,72991,1,2,0:0:0:0:
196,103,73074,1,2,3:2:0:0:
341,248,73241,1,0,3:0:0:0:
496,69,73407,2,0,P|483:137|471:209,1,116.999994644165,10|0,0:0|3:0,0:0:0:0:
261,284,73741,6,0,P|229:248|240:160,1,116.999994644165,2|0,3:2|0:0,0:0:0:0:
318,119,73991,1,2,3:2:0:0:
308,170,74074,1,10,0:0:0:0:
146,42,74241,1,2,3:2:0:0:
252,274,74407,2,0,P|302:259|377:242,1,116.999994644165,2|0,3:2|3:0,0:0:0:0:
118,141,74741,2,0,P|68:126|-7:109,1,116.999994644165,10|0,0:0|3:0,0:0:0:0:
45,374,75074,6,0,B|66:317|148:322|148:322|167:357|209:374,1,175.499991966248,6|0,3:2|3:0,0:0:0:0:
232,375,75407,1,8,0:0:0:0:
414,282,75574,1,2,3:2:0:0:
424,333,75657,1,2,0:0:0:0:
435,384,75741,1,2,3:2:0:0:
313,218,75907,1,0,3:0:0:0:
496,296,76074,2,0,P|501:255|516:157,1,116.999994644165,10|0,0:0|3:0,0:0:0:0:
267,44,76407,6,0,P|228:90|249:169,1,116.999994644165,2|0,3:2|0:0,0:0:0:0:
366,151,76657,1,2,3:2:0:0:
315,134,76741,1,10,0:0:0:0:
228,278,76907,1,2,3:2:0:0:
59,210,77074,2,0,P|53:169|43:75,1,116.999994644165,2|0,3:2|3:0,0:0:0:0:
243,268,77407,2,0,P|234:350|229:400,1,116.999994644165,10|0,0:0|3:0,0:0:0:0:
32,134,77741,6,0,B|86:122|86:122|142:179|142:179|206:166,1,175.499991966248,2|0,3:2|3:0,0:0:0:0:
232,159,78074,1,8,0:0:0:0:
395,46,78241,1,2,3:2:0:0:
388,96,78324,1,2,0:0:0:0:
381,148,78407,1,2,3:2:0:0:
212,68,78574,1,0,3:0:0:0:
302,281,78741,6,0,B|416:300|373:184|498:220,1,216,14|0,0:0|0:0,0:0:0:0:
501,308,79074,5,8,3:2:0:0:
465,356,79157,1,8,0:0:0:0:
407,383,79240,1,8,0:0:0:0:
340,370,79323,1,8,0:0:0:0:
295,321,79407,1,8,3:2:0:0:
283,253,79490,1,8,0:0:0:0:
312,190,79573,1,8,0:0:0:0:
375,157,79657,1,8,0:0:0:0:
438,174,79741,5,8,3:2:0:0:
407,238,79824,1,8,0:0:0:0:
337,257,79907,1,8,0:0:0:0:
274,220,79991,1,8,0:0:0:0:
206,195,80074,1,8,3:2:0:0:
140,218,80157,1,8,0:0:0:0:
109,283,80241,1,8,0:0:0:0:
134,350,80324,1,8,0:0:0:0:
200,380,80407,5,6,3:2:0:0:
284,317,80662,1,2,0:0:0:0:
95,136,80918,1,2,0:0:0:0:
26,210,81088,5,2,0:0:0:0:
143,335,81352,1,2,0:0:0:0:
259,238,81617,1,2,0:0:0:0:
195,156,81793,5,2,0:0:0:0:
280,18,82050,1,2,0:0:0:0:
430,91,82307,1,2,0:0:0:0:
504,40,82478,5,2,0:0:0:0:
351,167,82744,1,2,0:0:0:0:
470,322,83010,1,2,0:0:0:0:
256,192,83099,12,2,87803,0:0:0:0:
