osu file format v14

[General]
AudioFilename: audio.mp3
AudioLeadIn: 0
PreviewTime: 44859
Countdown: 0
SampleSet: Soft
StackLeniency: 0.7
Mode: 0
LetterboxInBreaks: 0
WidescreenStoryboard: 0

[Editor]
DistanceSpacing: 0.7
BeatDivisor: 2
GridSize: 32
TimelineZoom: 2.6

[Metadata]
Title:Miss Tail (Cut Ver.)
TitleUnicode:ミステイル (Cut Ver.)
Artist:THE ORAL CIGARETTES
ArtistUnicode:THE ORAL CIGARETTES
Creator:Takakin
Version:Yuuma's Normal
Source:
Tags:blitzifyyy dkblaze Yuuma before it's too late its edit version short rock cigs japanese jrock j-rock toc 5150 あきらかにあきら Akira Akirakani 中西雅哉 Masaya Nakanishi 山中拓也 Takuya Yamanaka 鈴木重伸 Shigenobu Suzuki
BeatmapID:2627503
BeatmapSetID:1255210

[Difficulty]
HPDrainRate:3
CircleSize:3
OverallDifficulty:4
ApproachRate:5
SliderMultiplier:1.1
SliderTickRate:1

[Events]
//Background and Video events
0,0,"blobtzifyyy.jpg",0,0
//Break Periods
//Storyboard Layer 0 (Background)
//Storyboard Layer 1 (Fail)
//Storyboard Layer 2 (Pass)
//Storyboard Layer 3 (Foreground)
//Storyboard Layer 4 (Overlay)
//Storyboard Sound Samples

[TimingPoints]
408,333.333333333333,4,2,6,65,1,0
408,-100,4,2,6,65,0,0
1657,-100,4,2,6,65,0,0
1741,-100,4,2,6,65,0,0
2657,-100,4,2,6,65,0,0
2741,-100,4,2,6,65,0,0
4324,-100,4,2,6,65,0,0
4407,-100,4,2,6,65,0,0
5324,-100,4,2,6,65,0,0
5407,-100,4,2,6,65,0,0
6991,-100,4,2,6,65,0,0
7074,-100,4,2,6,65,0,0
7991,-100,4,2,6,65,0,0
8074,-100,4,2,6,65,0,0
11074,-100,4,2,6,75,0,0
32407,-100,4,2,6,70,0,0
43074,-111.111111111111,4,2,6,60,0,0
44407,-111.111111111111,4,2,6,75,0,0
45741,-100,4,2,6,80,0,1
51324,-100,4,2,6,80,0,1
51407,-100,4,2,6,80,0,1
55741,-100,4,2,6,80,0,0
56407,-100,4,2,6,80,0,1
61991,-100,4,2,6,80,0,1
62074,-100,4,2,6,80,0,1
67074,-111.111111111111,4,2,6,75,0,0
69741,-100,4,2,6,75,0,0
80407,340.909090909091,4,2,6,60,1,0
81088,352.941176470588,4,2,6,60,1,0
81793,342.857142857143,4,2,6,60,1,0
82478,355.029585798817,4,2,6,60,1,0
87625,-100,4,2,6,60,0,0
87803,-100,4,2,6,60,0,0
88069,-100,4,2,6,60,0,0

[Colours]
Combo1 : 250,165,224
Combo2 : 248,202,139
Combo3 : 251,40,140
Combo4 : 254,203,240
Combo5 : 254,52,103
Combo6 : 251,96,154
Combo7 : 181,103,243
Combo8 : 141,186,252
SliderBorder : 250,145,180
SliderTrackOverride : 58,25,13

[HitObjects]
442,32,408,6,0,P|384:36|315:48,1,110,2|8,3:2|0:0,0:0:0:0:
249,114,1074,2,0,P|208:107|186:98,1,55,0|0,3:0|0:0,0:0:0:0:
151,70,1407,1,10,0:0:0:0:
47,107,1741,2,0,B|23:135|23:135|34:220,1,110,2|8,3:2|0:0,0:0:0:0:
45,260,2241,1,2,0:0:0:0:
45,260,2407,2,0,B|95:249|102:297|157:276,1,110,0|10,3:0|0:0,0:0:0:0:
259,256,3074,6,0,L|243:377,2,110,2|8|0,3:2|0:0|3:0,0:0:0:0:
283,148,4074,1,8,0:0:0:0:
363,223,4407,2,0,P|429:234|474:205,1,110,2|8,3:2|0:0,0:0:0:0:
504,176,4907,1,2,0:0:0:0:
504,176,5074,2,0,L|489:66,1,110,0|10,3:0|0:0,0:0:0:0:
388,23,5741,6,0,P|322:12|277:41,1,110,2|8,3:2|0:0,0:0:0:0:
214,113,6407,2,0,P|173:127|141:124,1,55,0|0,3:0|0:0,0:0:0:0:
112,103,6741,1,10,0:0:0:0:
28,175,7074,2,0,P|116:197|148:221,1,110,2|8,3:2|0:0,0:0:0:0:
177,237,7574,1,2,0:0:0:0:
177,237,7741,2,0,B|188:280|188:280|177:306|177:306|184:342,1,110,0|10,3:0|0:0,0:0:0:0:
285,301,8407,6,0,B|292:264|292:264|281:238|281:238|292:195,2,110,2|8|0,3:2|0:0|3:0,0:0:0:0:
370,360,9407,2,0,L|426:352,1,55,10|8,0:0|0:0,0:0:0:0:
478,343,9741,1,2,3:2:0:0:
152,48,11074,6,0,P|143:87|133:170,1,110,6|8,3:2|0:0,0:0:0:0:
139,212,11574,1,2,3:2:0:0:
139,212,11741,2,0,B|190:233|190:233|243:221,1,110,2|10,3:2|0:0,0:0:0:0:
334,160,12407,2,0,B|387:148|387:148|438:169,1,110,2|10,3:2|0:0,0:0:0:0:
489,194,12907,1,2,3:2:0:0:
489,194,13074,1,2,3:2:0:0:
448,296,13407,1,10,0:0:0:0:
348,343,13741,6,0,P|297:362|244:353,1,110,2|8,3:2|0:0,0:0:0:0:
191,338,14241,1,2,3:2:0:0:
191,338,14407,2,0,L|177:222,1,110,2|10,3:2|0:0,0:0:0:0:
68,211,15074,2,0,L|82:95,1,110,2|10,3:2|0:0,0:0:0:0:
91,48,15574,1,2,3:2:0:0:
91,48,15741,1,2,3:2:0:0:
190,96,16074,1,10,0:0:0:0:
276,30,16407,6,0,P|310:26|403:51,1,110,6|8,3:2|0:0,0:0:0:0:
431,67,16907,1,2,3:2:0:0:
431,67,17074,2,0,B|439:108|439:108|420:187,1,110,2|10,3:2|0:0,0:0:0:0:
479,268,17741,2,0,B|412:283|412:283|371:275,1,110,2|10,3:2|0:0,0:0:0:0:
319,260,18241,1,2,3:2:0:0:
319,260,18407,1,2,3:2:0:0:
243,178,18741,1,10,0:0:0:0:
136,208,19074,6,0,P|122:243|125:329,1,110,2|8,3:2|0:0,0:0:0:0:
149,362,19574,1,2,3:2:0:0:
149,362,19741,2,0,L|269:351,1,110,2|10,3:2|0:0,0:0:0:0:
319,260,20407,2,0,L|428:270,1,110,2|14,3:2|0:0,0:0:0:0:
483,279,20907,1,2,0:0:0:0:
483,279,21074,2,0,P|492:233|491:216,1,55,10|8,0:0|0:0,0:0:0:0:
483,173,21407,1,10,0:3:0:0:
428,78,21741,6,0,P|462:66|516:67,2,82.5,6|2|2,3:2|3:2|3:2,0:0:0:0:
380,107,22407,2,0,P|335:132|253:131,1,110,0|8,3:0|0:0,0:0:0:0:
175,95,23074,2,0,L|183:12,2,82.5,2|2|2,3:2|3:2|3:2,0:0:0:0:
127,122,23741,2,0,L|114:253,1,110,0|8,3:0|0:0,0:0:0:0:
58,323,24407,6,0,P|120:341|175:323,1,110,2|8,3:2|0:0,0:0:0:0:
209,302,24907,1,2,3:2:0:0:
209,302,25074,2,0,L|219:192,1,110,2|10,3:2|0:0,0:0:0:0:
275,99,25741,2,0,P|328:88|379:106,1,110,2|10,3:2|0:0,0:0:0:0:
425,137,26241,1,2,0:0:0:0:
425,137,26407,1,10,0:0:0:0:
324,182,26741,1,14,0:0:0:0:
414,246,27074,6,0,B|425:284|425:284|410:366,2,110,10|8|2,3:2|3:2|3:2,0:0:0:0:
319,302,28074,1,0,3:2:0:0:
224,246,28407,2,0,B|213:284|213:284|228:366,2,110,10|8|2,3:2|3:2|3:2,0:0:0:0:
259,143,29407,2,0,B|267:116|267:116|262:86,1,55,8|4,0:3|0:3,0:0:0:0:
253,35,29741,6,0,P|190:22|126:16,1,110,6|8,3:2|0:0,0:0:0:0:
91,26,30241,1,2,3:2:0:0:
91,26,30407,2,0,B|66:77|66:77|73:129,1,110,2|10,3:2|0:0,0:0:0:0:
13,223,31074,2,0,B|64:248|64:248|116:240,1,110,2|10,3:2|0:0,0:0:0:0:
166,215,31574,1,2,0:0:0:0:
166,215,31741,2,0,L|230:206,1,55,10|8,0:0|0:0,0:0:0:0:
268,177,32074,1,6,3:2:0:0:
374,199,32407,6,0,P|375:158|361:119,2,82.5,14|2|10,0:0|0:0|0:0,0:0:0:0:
358,252,33074,1,2,3:2:0:0:
290,337,33407,2,0,L|232:328,1,55,10|2,0:0|3:2,0:0:0:0:
187,301,33741,2,0,L|82:317,2,82.5,10|2|10,0:0|0:0|0:0,0:0:0:0:
217,255,34407,1,2,3:2:0:0:
149,169,34741,2,0,P|121:171|95:178,1,55,10|8,0:0|0:0,0:0:0:0:
46,200,35074,6,0,P|22:265|22:314,2,110,6|10|2,3:2|0:0|3:2,0:0:0:0:
77,93,36074,1,10,0:0:0:0:
187,110,36407,2,0,P|257:128|304:166,2,110,2|10|2,3:2|0:0|3:2,0:0:0:0:
200,220,37407,1,2,3:2:0:0:
299,269,37741,6,0,L|287:367,2,82.5,14|2|10,0:0|0:0|0:0,0:0:0:0:
341,232,38407,1,2,3:2:0:0:
441,187,38741,2,0,L|436:128,1,55,10|2,0:0|3:2,0:0:0:0:
430,77,39074,2,0,P|487:72|519:55,2,82.5,10|2|10,0:0|0:0|0:0,0:0:0:0:
380,52,39741,1,2,3:2:0:0:
281,11,40074,2,0,P|238:16|208:31,1,55,10|8,0:0|0:0,0:0:0:0:
187,57,40407,6,0,B|202:93|181:136|206:186,2,110,6|10|2,3:2|0:0|0:0,0:0:0:0:
77,40,41407,1,10,0:0:0:0:
18,135,41741,2,0,B|2:171|23:214|-1:264,2,110,2|14|10,3:2|0:0|3:2,0:0:0:0:
120,179,42741,1,6,3:3:0:0:
211,140,43074,6,0,B|242:101|242:43|242:43|270:85|316:109|316:109|347:73|355:28|355:28|373:83|420:104,1,395.999987915039,6|10,3:2|0:0,0:0:0:0:
375,272,45741,6,0,L|510:253,2,110,6|10|2,3:2|0:0|3:2,0:0:0:0:
283,333,46741,1,10,0:0:0:0:
192,273,47074,1,2,3:2:0:0:
284,215,47407,2,0,P|290:148|259:92,1,110,10|2,0:0|3:3,0:0:0:0:
186,42,48074,2,0,L|119:54,1,55,10|0,0:0|0:0,0:0:0:0:
79,63,48407,5,2,3:2:0:0:
37,166,48741,2,0,L|170:180,1,110,10|2,0:0|3:2,0:0:0:0:
174,225,49241,2,0,L|298:213,1,110,2|2,3:2|0:0,0:0:0:0:
338,210,49741,1,2,3:2:0:0:
434,157,50074,1,10,0:0:0:0:
374,63,50407,2,0,L|292:71,1,55,10|10,3:2|0:0,0:0:0:0:
277,33,50741,2,0,L|195:41,1,55,10|8,3:2|0:0,0:0:0:0:
175,8,51074,6,0,L|120:123,1,110,6|8,3:2|0:0,0:0:0:0:
41,178,51741,2,0,P|101:217|176:200,2,110,2|10|2,3:2|0:0|3:2,0:0:0:0:
127,107,52741,1,10,0:0:0:0:
229,146,53074,2,0,P|247:230|231:267,1,110,2|10,3:2|0:0,0:0:0:0:
187,347,53741,5,6,3:2:0:0:
297,366,54074,2,0,L|365:357,1,55,10|0,0:0|0:0,0:0:0:0:
382,312,54407,2,0,L|507:295,1,110,2|10,3:2|0:0,0:0:0:0:
424,212,55074,2,0,P|419:184|419:157,1,55,10|8,3:2|0:0,0:0:0:0:
463,124,55407,2,0,P|462:96|458:69,1,55,10|8,3:2|0:0,0:0:0:0:
429,22,55741,2,0,L|353:29,1,55,10|8,3:2|0:0,0:0:0:0:
334,66,56074,2,0,L|258:73,1,55,10|6,3:3|0:3,0:0:0:0:
247,117,56407,6,0,L|124:129,2,110,6|10|2,3:2|0:0|3:2,0:0:0:0:
321,201,57407,1,10,0:0:0:0:
247,282,57741,1,2,3:2:0:0:
168,208,58074,2,0,P|93:214|39:260,1,110,10|2,0:0|3:2,0:0:0:0:
0,140,58741,2,0,L|12:83,1,55,10|0,0:0|0:0,0:0:0:0:
25,33,59074,5,2,3:2:0:0:
133,14,59407,2,0,L|156:145,1,110,10|2,0:0|3:2,0:0:0:0:
166,175,59907,2,0,P|236:183|287:143,1,110,2|2,3:2|0:0,0:0:0:0:
309,126,60407,1,2,3:2:0:0:
415,104,60741,1,10,0:0:0:0:
479,192,61074,2,0,L|471:246,1,55,2|2,3:2|3:2,0:0:0:0:
418,261,61407,2,0,L|410:315,1,55,10|10,0:0|0:0,0:0:0:0:
358,333,61741,6,0,P|304:357|233:341,1,110,6|8,3:2|0:0,0:0:0:0:
151,316,62407,2,0,L|141:192,2,110,2|10|2,3:2|0:0|3:2,0:0:0:0:
246,254,63407,1,10,0:0:0:0:
348,301,63741,2,0,L|338:177,1,110,2|10,3:2|0:0,0:0:0:0:
380,89,64407,6,0,P|317:81|259:116,1,110,6|8,3:2|0:0,0:0:0:0:
193,182,65074,2,0,P|142:201|88:192,1,110,0|8,3:0|0:0,0:0:0:0:
132,89,65741,1,2,3:2:0:0:
209,8,66074,1,12,0:0:0:0:
276,99,66407,2,0,L|282:177,1,55,2|8,3:2|0:0,0:0:0:0:
327,185,66741,2,0,L|333:263,1,55,10|8,3:2|0:0,0:0:0:0:
371,278,67074,6,0,B|283:243|272:340|176:313,2,197.99999395752,6|0|10,3:2|0:0|0:0,0:0:0:0:
465,59,69741,6,0,L|343:69,1,110,6|8,3:2|0:0,0:0:0:0:
307,95,70241,1,2,3:2:0:0:
307,95,70407,2,0,L|160:80,1,110,2|10,3:2|0:0,0:0:0:0:
112,15,71074,2,0,P|87:70|93:125,1,110,2|10,3:2|0:0,0:0:0:0:
115,167,71574,1,2,3:2:0:0:
115,167,71741,1,2,3:2:0:0:
46,250,72074,1,10,0:0:0:0:
156,273,72407,6,0,B|211:259|211:259|263:269,1,110,2|8,3:2|0:0,0:0:0:0:
315,285,72907,1,2,3:2:0:0:
315,285,73074,2,0,B|367:295|367:295|422:281,1,110,2|10,3:2|0:0,0:0:0:0:
510,218,73741,2,0,L|493:94,1,110,2|10,3:2|0:0,0:0:0:0:
483,56,74241,1,2,3:2:0:0:
483,56,74407,1,2,3:2:0:0:
391,119,74741,1,10,0:0:0:0:
304,52,75074,6,0,P|212:67|162:83,1,110,6|8,3:2|0:0,0:0:0:0:
149,99,75574,1,2,3:2:0:0:
149,99,75741,2,0,P|134:184|132:221,1,110,2|10,3:2|0:0,0:0:0:0:
200,295,76407,2,0,P|285:310|322:312,1,110,2|10,3:2|0:0,0:0:0:0:
363,304,76907,1,2,3:2:0:0:
363,304,77074,1,2,3:2:0:0:
311,208,77407,1,10,0:0:0:0:
209,170,77741,6,0,P|124:155|87:153,1,110,2|8,3:2|0:0,0:0:0:0:
46,168,78241,1,2,3:2:0:0:
46,168,78407,2,0,L|35:48,1,110,2|14,3:2|0:0,0:0:0:0:
134,8,79074,2,0,L|259:63,1,110,8|8,3:2|3:2,0:0:0:0:
285,80,79574,1,8,0:0:0:0:
285,80,79741,2,0,L|412:68,1,110,8|8,3:2|3:2,0:0:0:0:
256,192,80407,12,2,83010,0:0:0:0:
