osu file format v14

[General]
AudioFilename: audio.mp3
AudioLeadIn: 0
PreviewTime: 44859
Countdown: 0
SampleSet: Soft
StackLeniency: 0.7
Mode: 0
LetterboxInBreaks: 0
WidescreenStoryboard: 0

[Editor]
DistanceSpacing: 0.8
BeatDivisor: 4
GridSize: 16
TimelineZoom: 1.8

[Metadata]
Title:Miss Tail (Cut Ver.)
TitleUnicode:ミステイル (Cut Ver.)
Artist:THE ORAL CIGARETTES
ArtistUnicode:THE ORAL CIGARETTES
Creator:Takakin
Version:Insane
Source:
Tags:blitzifyyy dkblaze Yuuma before it's too late its edit version short rock cigs japanese jrock j-rock toc 5150 あきらかにあきら Akira Akirakani 中西雅哉 Masaya Nakanishi 山中拓也 Takuya Yamanaka 鈴木重伸 Shigenobu Suzuki
BeatmapID:2608679
BeatmapSetID:1255210

[Difficulty]
HPDrainRate:5
CircleSize:3.8
OverallDifficulty:7.3
ApproachRate:9
SliderMultiplier:1.4
SliderTickRate:1

[Events]
//Background and Video events
0,0,"blobtzifyyy.jpg",0,0
//Break Periods
//Storyboard Layer 0 (Background)
//Storyboard Layer 1 (Fail)
//Storyboard Layer 2 (Pass)
//Storyboard Layer 3 (Foreground)
//Storyboard Layer 4 (Overlay)
//Storyboard Sound Samples

[TimingPoints]
408,333.333333333333,4,2,6,65,1,0
408,-113.636363636364,4,2,6,65,0,0
1657,-113.636363636364,4,2,6,5,0,0
1741,-113.636363636364,4,2,6,65,0,0
2657,-113.636363636364,4,2,6,5,0,0
2741,-113.636363636364,4,2,6,65,0,0
4324,-113.636363636364,4,2,6,5,0,0
4407,-113.636363636364,4,2,6,65,0,0
5324,-113.636363636364,4,2,6,5,0,0
5407,-113.636363636364,4,2,6,65,0,0
6991,-113.636363636364,4,2,6,5,0,0
7074,-113.636363636364,4,2,6,65,0,0
7991,-113.636363636364,4,2,6,5,0,0
8074,-113.636363636364,4,2,6,65,0,0
11074,-100,4,2,6,75,0,0
32407,-100,4,2,6,70,0,0
43074,-151.515151515152,4,2,6,60,0,0
43741,-303.030303030303,4,2,6,60,0,0
44407,-303.030303030303,4,2,6,75,0,0
45074,-151.515151515152,4,2,6,75,0,0
45741,-86.9565217391304,4,2,6,80,0,1
51324,-86.9565217391304,4,2,6,5,0,1
51407,-86.9565217391304,4,2,6,80,0,1
55741,-86.9565217391304,4,2,6,80,0,0
56407,-86.9565217391304,4,2,6,80,0,1
61991,-86.9565217391304,4,2,6,5,0,1
62074,-86.9565217391304,4,2,6,80,0,1
67074,-256.410256410256,4,2,6,75,0,0
68324,-256.410256410256,4,2,6,5,0,0
68407,-256.410256410256,4,2,6,75,0,0
69741,-100,4,2,6,75,0,0
80407,340.909090909091,4,2,6,60,1,0
81088,352.941176470588,4,2,6,60,1,0
81793,342.857142857143,4,2,6,60,1,0
82478,355.029585798817,4,2,6,60,1,0
87625,-128.205128205128,4,2,6,5,0,0
87803,-128.205128205128,4,2,6,60,0,0
88069,-128.205128205128,4,2,6,5,0,0

[Colours]
Combo1 : 250,165,224
Combo2 : 248,202,139
Combo3 : 251,40,140
Combo4 : 254,203,240
Combo5 : 254,52,103
Combo6 : 251,96,154
Combo7 : 181,103,243
Combo8 : 141,186,252
SliderBorder : 250,145,180
SliderTrackOverride : 58,25,13

[HitObjects]
19,247,408,6,0,P|15:192|4:107,2,123.200003759766,2|8|0,3:2|0:0|3:0,0:0:0:0:
171,346,1407,2,0,P|202:324|267:332,1,92.4000028198243,10|0,0:0|0:0,0:0:0:0:
271,338,1741,2,0,B|299:353|341:336|321:322|362:298|410:324,1,123.200003759766,2|8,3:2|0:0,0:0:0:0:
512,384,2241,2,0,P|507:330|502:219,1,154.000004699707,2|0,0:0|0:0,0:0:0:0:
503,208,2741,1,10,0:0:0:0:
388,33,3074,6,0,B|352:18|307:37|323:50|290:64|261:52,2,123.200003759766,2|8|0,3:2|0:0|3:0,0:0:0:0:
256,131,4074,2,0,P|217:121|193:76,1,92.4000028198243,8|0,0:0|0:0,0:0:0:0:
195,55,4407,2,0,B|58:49,1,123.200003759766,2|8,3:2|0:0,0:0:0:0:
15,200,4907,2,0,P|80:250|147:194,1,154.000004699707,2|0,0:0|0:0,0:0:0:0:
144,200,5407,1,10,0:0:0:0:
263,334,5741,6,0,P|263:285|308:325,2,123.200003759766,2|8|0,3:2|0:0|3:0,0:0:0:0:
423,300,6741,2,0,P|424:265|428:206,1,92.4000028198243,10|0,0:0|0:0,0:0:0:0:
428,185,7074,2,0,B|402:170|361:190|381:204|333:218|311:206,1,123.200003759766,2|8,3:2|0:0,0:0:0:0:
194,113,7574,2,0,B|176:102|156:88|156:88|103:104|23:109,1,154.000004699707,2|0,0:0|0:0,0:0:0:0:
27,109,8074,1,10,0:0:0:0:
146,292,8407,6,0,B|147:247|147:247|134:215|134:215|136:151,2,123.200003759766,2|8|0,3:2|0:0|3:0,0:0:0:0:
255,163,9407,1,10,0:0:0:0:
281,147,9490,1,8,0:0:0:0:
311,144,9573,1,8,0:0:0:0:
341,153,9657,1,8,0:0:0:0:
364,172,9740,5,2,3:2:0:0:
60,79,10741,1,4,3:3:0:0:
60,79,11074,6,0,P|60:104|57:205,1,105,6|0,3:2|3:0,0:0:0:0:
56,208,11407,1,8,0:0:0:0:
173,107,11574,1,2,3:2:0:0:
196,100,11657,1,2,0:0:0:0:
219,107,11741,2,0,L|224:185,1,70,2|0,3:2|3:0,0:0:0:0:
348,69,12074,2,0,L|349:0,1,70,10|0,0:0|3:0,0:0:0:0:
503,86,12407,6,0,B|521:114|521:114|509:206,1,105,2|2,3:2|3:2,0:0:0:0:
507,212,12740,1,10,0:0:0:0:
446,344,12907,1,2,3:2:0:0:
370,218,13074,2,0,P|336:209|303:219,1,70,2|0,3:2|3:0,0:0:0:0:
202,350,13407,2,0,P|235:360|268:350,1,70,10|0,0:0|3:0,0:0:0:0:
100,183,13741,6,0,L|108:295,1,105,2|0,3:2|3:0,0:0:0:0:
114,311,14074,1,8,0:0:0:0:
125,109,14241,1,2,3:2:0:0:
102,102,14324,1,2,0:0:0:0:
79,109,14408,2,0,P|44:119|1:101,1,70,2|0,3:2|3:0,0:0:0:0:
147,11,14741,2,0,P|182:1|225:19,1,70,10|0,0:0|3:0,0:0:0:0:
325,108,15074,6,0,B|337:115|350:125|350:125|384:116|443:106,1,105,2|2,3:2|3:2,0:0:0:0:
446,101,15407,1,10,0:0:0:0:
306,19,15574,1,2,3:2:0:0:
241,156,15741,2,0,L|238:230,1,70,2|0,3:2|3:0,0:0:0:0:
356,320,16074,2,0,L|353:246,1,70,10|0,0:0|3:0,0:0:0:0:
221,358,16407,6,0,P|167:358|133:314,1,105,6|0,3:2|3:0,0:0:0:0:
133,297,16741,1,8,0:0:0:0:
189,124,16907,1,2,3:2:0:0:
212,117,16990,1,2,0:0:0:0:
235,124,17074,2,0,P|270:134|313:116,1,70,2|0,3:2|3:0,0:0:0:0:
162,15,17407,2,0,P|127:5|84:23,1,70,10|0,0:0|3:0,0:0:0:0:
13,148,17741,6,0,P|12:176|10:274,1,105,2|2,3:2|3:2,0:0:0:0:
12,277,18074,1,10,0:0:0:0:
105,172,18241,1,2,3:2:0:0:
158,291,18408,2,0,P|193:301|236:283,1,70,2|0,3:2|3:0,0:0:0:0:
335,141,18741,2,0,P|317:172|325:218,1,70,10|0,0:0|3:0,0:0:0:0:
465,295,19074,6,0,B|468:287|475:273|475:273|468:169,1,105,2|0,3:2|3:0,0:0:0:0:
468,167,19407,1,8,0:0:0:0:
406,30,19574,1,2,3:2:0:0:
383,23,19657,1,2,0:0:0:0:
360,30,19741,2,0,L|282:22,1,70,2|0,3:2|3:0,0:0:0:0:
159,121,20074,2,0,L|228:113,1,70,10|0,0:0|3:0,0:0:0:0:
40,34,20407,6,0,L|35:154,1,105,2|2,3:2|0:0,0:0:0:0:
34,163,20741,1,14,0:0:0:0:
79,278,20907,1,2,0:0:0:0:
175,175,21074,1,10,0:0:0:0:
201,152,21157,1,8,0:0:0:0:
235,143,21240,1,8,0:0:0:0:
269,150,21323,1,8,0:0:0:0:
297,170,21408,1,10,0:3:0:0:
298,187,21491,1,8,0:3:0:0:
299,204,21574,1,4,0:3:0:0:
299,222,21657,1,4,0:3:0:0:
298,239,21741,6,0,P|341:220|417:251,1,105,6|2,3:2|3:2,0:0:0:0:
413,249,22074,1,8,0:0:0:0:
467,87,22241,2,0,B|424:61|381:83|391:96|353:120|310:88,1,140,2|0,3:2|3:0,0:0:0:0:
191,28,22741,2,0,L|105:24,1,70,8|0,0:0|3:0,0:0:0:0:
17,119,23074,6,0,P|21:181|19:240,1,105,2|2,3:2|3:2,0:0:0:0:
18,248,23407,1,8,0:0:0:0:
133,140,23574,2,0,B|154:141|187:145|187:145|214:125|214:125|243:129|275:131,1,140,2|0,3:2|3:0,0:0:0:0:
395,234,24074,2,0,L|398:303,1,70,8|0,0:0|3:0,0:0:0:0:
237,310,24407,6,0,P|197:280|117:299,1,105,2|0,3:2|3:0,0:0:0:0:
125,297,24740,1,8,0:0:0:0:
174,126,24907,1,2,3:2:0:0:
197,119,24990,1,2,0:0:0:0:
220,126,25074,2,0,P|255:134|298:118,1,70,2|0,3:2|3:0,0:0:0:0:
388,6,25407,2,0,P|372:40|374:85,1,70,10|0,0:0|3:0,0:0:0:0:
477,209,25741,6,0,B|498:184|498:184|491:97,1,105,2|2,3:2|3:2,0:0:0:0:
484,84,26075,1,10,0:0:0:0:
398,230,26241,1,2,0:0:0:0:
278,137,26407,1,10,0:0:0:0:
283,171,26490,1,4,0:3:0:0:
286,205,26573,1,4,0:3:0:0:
291,239,26656,1,4,0:3:0:0:
295,273,26740,1,14,0:0:0:0:
28,373,27074,6,0,P|23:341|17:326,3,35,10|0|8|8,3:2|0:0|0:0|0:0,0:0:0:0:
125,302,27407,1,8,3:2:0:0:
157,289,27490,1,8,0:0:0:0:
191,294,27573,1,8,0:0:0:0:
219,314,27656,1,8,0:0:0:0:
234,345,27741,6,0,P|251:345|268:344,3,35,2|8|8|8,3:2|0:0|0:0|0:0,0:0:0:0:
364,282,28073,1,0,3:2:0:0:
355,248,28156,1,8,0:0:0:0:
333,222,28240,1,8,0:0:0:0:
300,209,28323,1,8,0:0:0:0:
266,214,28407,6,0,P|266:237|267:255,3,35,10|0|8|8,3:2|0:0|0:0|0:0,0:0:0:0:
190,129,28741,1,8,3:2:0:0:
212,101,28824,1,8,0:0:0:0:
245,89,28907,1,8,0:0:0:0:
278,97,28990,1,8,0:0:0:0:
307,116,29074,6,0,P|323:120|341:123,3,35,2|8|4|4,3:2|0:0|0:3|0:3,0:0:0:0:
327,2,29407,1,8,0:3:0:0:
300,2,29490,1,8,0:3:0:0:
275,3,29574,1,4,0:3:0:0:
249,5,29657,1,4,0:3:0:0:
223,6,29741,6,0,B|181:9|181:9|166:24|166:24|118:25,1,105,6|0,3:2|3:0,0:0:0:0:
96,23,30074,1,8,0:0:0:0:
45,152,30241,1,2,3:2:0:0:
48,176,30324,1,2,0:0:0:0:
51,200,30408,2,0,L|56:293,1,70,2|0,3:2|3:0,0:0:0:0:
223,373,30741,2,0,L|228:280,1,70,10|0,0:0|3:0,0:0:0:0:
261,171,31075,6,0,P|214:145|154:158,1,105,2|2,3:2|3:2,0:0:0:0:
150,171,31408,1,10,0:0:0:0:
73,332,31575,1,2,0:0:0:0:
15,184,31741,1,10,0:0:0:0:
11,147,31824,1,8,0:0:0:0:
10,111,31907,1,8,0:0:0:0:
9,76,31990,1,8,0:0:0:0:
7,40,32074,1,6,3:2:0:0:
186,148,32407,6,0,P|215:157|266:136,2,70,14|2|0,0:0|3:2|3:0,0:0:0:0:
292,33,32907,1,10,0:0:0:0:
292,33,33074,2,0,P|325:23|358:32,1,70,2|0,3:2|3:0,0:0:0:0:
478,123,33407,2,0,L|475:205,1,70,10|2,0:0|3:2,0:0:0:0:
392,314,33741,6,0,L|386:239,2,70,10|2|2,0:0|3:2|3:2,0:0:0:0:
269,196,34241,1,10,0:0:0:0:
269,196,34408,2,0,P|227:185|189:202,1,70,2|0,3:2|3:0,0:0:0:0:
24,265,34741,1,10,0:0:0:0:
24,293,34824,1,8,0:0:0:0:
24,321,34908,1,8,0:0:0:0:
26,349,34991,1,10,0:0:0:0:
28,377,35074,6,0,P|73:352|139:373,1,105,6|2,3:2|3:2,0:0:0:0:
143,374,35407,2,0,P|177:383|223:364,1,70,10|2,0:0|3:2,0:0:0:0:
232,361,35657,1,2,0:0:0:0:
232,361,35741,1,2,3:2:0:0:
306,213,35907,1,0,3:0:0:0:
423,315,36074,2,0,L|426:392,1,70,10|0,0:0|0:0,0:0:0:0:
506,254,36407,6,0,L|509:176,1,70,2|0,3:2|0:0,0:0:0:0:
512,163,36657,1,2,3:2:0:0:
512,163,36741,1,10,0:0:0:0:
482,22,36907,1,2,3:2:0:0:
386,143,37074,1,2,3:2:0:0:
358,147,37157,1,8,0:0:0:0:
334,134,37240,1,8,0:0:0:0:
321,110,37324,1,8,0:0:0:0:
325,82,37407,1,2,3:2:0:0:
113,15,37741,6,0,P|73:6|34:22,2,70,14|0|2,0:0|3:0|3:2,0:0:0:0:
187,125,38241,1,10,0:0:0:0:
187,125,38408,2,0,L|190:217,1,70,2|0,3:2|3:0,0:0:0:0:
70,273,38741,2,0,L|72:203,1,70,10|2,0:0|3:2,0:0:0:0:
104,368,39075,6,0,P|71:378|37:370,2,70,10|2|2,0:0|3:2|3:2,0:0:0:0:
222,269,39575,1,10,0:0:0:0:
222,269,39742,2,0,P|258:261|301:279,1,70,2|0,3:2|3:0,0:0:0:0:
460,366,40074,1,10,0:0:0:0:
462,338,40157,1,8,0:0:0:0:
464,310,40240,1,8,0:0:0:0:
465,282,40324,1,10,0:0:0:0:
465,254,40407,6,0,P|426:233|350:259,1,105,6|2,3:2|3:2,0:0:0:0:
355,264,40741,2,0,P|321:273|288:264,1,70,10|2,0:0|3:0,0:0:0:0:
275,249,40991,1,2,0:0:0:0:
275,249,41075,1,2,0:0:0:0:
197,120,41241,1,0,3:0:0:0:
117,246,41408,2,0,L|114:324,1,70,10|0,0:0|0:0,0:0:0:0:
2,204,41741,6,0,L|-1:126,1,70,2|0,3:2|0:0,0:0:0:0:
0,116,41991,1,2,3:2:0:0:
0,116,42075,1,14,0:0:0:0:
102,2,42241,1,2,0:0:0:0:
149,153,42407,5,10,3:2:0:0:
174,176,42490,1,8,0:0:0:0:
208,184,42573,1,8,0:0:0:0:
241,176,42657,1,8,0:0:0:0:
267,153,42741,1,6,3:3:0:0:
281,142,42824,1,4,0:3:0:0:
297,137,42907,1,4,0:3:0:0:
315,141,42991,1,4,0:3:0:0:
324,146,43074,6,0,B|323:109|323:109|322:76,2,69.2999997885132,6|2|2,3:2|0:0|0:0,0:0:0:0:
401,210,43741,6,0,B|403:240|404:257|405:264,1,46.1999998590088,2|2,0:0|0:0,0:0:0:0:
477,30,44407,5,10,0:0:0:0:
477,30,45074,2,0,B|430:31|430:31|427:33|427:33|379:34,1,92.3999997180176,2|2,0:0|0:0,0:0:0:0:
65,64,45741,6,0,P|52:107|68:152,1,80.5000015354157,6|0,3:2|0:0,0:0:0:0:
198,208,46074,2,0,P|211:165|195:120,1,80.5000015354157,10|0,0:0|0:0,0:0:0:0:
82,276,46407,1,2,3:2:0:0:
265,256,46574,1,2,3:2:0:0:
60,140,46741,1,10,0:0:0:0:
104,351,46907,1,2,0:0:0:0:
265,256,47074,6,0,L|363:245,1,80.5000015354157,2|0,3:2|3:0,0:0:0:0:
475,101,47407,2,0,B|426:66|383:102|386:111|381:120|347:130|319:117,1,161.000003070831,10|2,0:0|3:3,0:0:0:0:
195,18,47907,1,0,3:0:0:0:
91,184,48074,2,0,P|79:145|89:108,1,80.5000015354157,10|0,0:0|0:0,0:0:0:0:
245,288,48407,6,0,L|159:282,1,80.5000015354157,2|0,3:2|3:0,0:0:0:0:
337,384,48741,2,0,L|417:378,1,80.5000015354157,10|0,0:0|0:0,0:0:0:0:
491,241,49074,1,2,3:2:0:0:
491,241,49241,2,0,L|495:156,1,80.5000015354157,2|8,3:2|0:0,0:0:0:0:
434,0,49574,1,2,0:0:0:0:
366,146,49741,6,0,P|322:162|278:139,1,80.5000015354157,2|2,3:2|3:2,0:0:0:0:
156,21,50074,2,0,P|200:5|244:28,1,80.5000015354157,10|0,0:0|0:0,0:0:0:0:
234,212,50407,1,10,3:2:0:0:
206,240,50490,1,8,0:0:0:0:
168,252,50573,1,10,0:0:0:0:
129,244,50657,1,8,0:0:0:0:
99,218,50741,1,10,3:2:0:0:
127,190,50824,1,8,0:0:0:0:
165,178,50907,1,8,0:0:0:0:
204,186,50991,1,8,0:0:0:0:
234,212,51074,6,0,P|280:239|347:205,1,120.750002303124,6|0,3:2|0:0,0:0:0:0:
357,194,51407,2,0,P|397:177|435:189,1,80.5000015354157,8|0,0:0|0:0,0:0:0:0:
485,373,51741,1,2,3:2:0:0:
485,373,51907,1,0,3:0:0:0:
317,330,52074,2,0,L|229:324,1,80.5000015354157,10|0,0:0|0:0,0:0:0:0:
44,311,52407,6,0,P|30:272|54:214,1,80.5000015354157,2|0,3:2|3:0,0:0:0:0:
166,126,52741,2,0,P|179:164|167:204,1,80.5000015354157,10|0,0:0|0:0,0:0:0:0:
111,11,53074,2,0,L|212:4,1,80.5000015354157,2|0,3:2|3:0,0:0:0:0:
330,130,53407,2,0,L|229:123,1,80.5000015354157,10|0,0:0|0:0,0:0:0:0:
462,70,53741,5,6,3:2:0:0:
462,70,53907,1,0,3:0:0:0:
470,268,54074,2,0,B|441:271|413:270|413:270|373:298|373:298|336:297|286:299,1,161.000003070831,10|2,0:0|3:2,0:0:0:0:
183,213,54574,1,2,3:2:0:0:
120,380,54741,2,0,P|73:383|22:385,1,80.5000015354157,10|0,0:0|0:0,0:0:0:0:
22,182,55074,5,10,3:2:0:0:
51,154,55157,1,8,0:0:0:0:
90,146,55240,1,8,0:0:0:0:
127,158,55324,1,8,0:0:0:0:
156,186,55407,1,10,3:2:0:0:
183,213,55491,1,8,0:0:0:0:
222,226,55575,1,8,0:0:0:0:
260,217,55658,1,8,0:0:0:0:
290,191,55741,6,0,P|291:175|290:151,3,40.2500007677078,10|8|8|8,3:2|0:0|0:0|0:0,0:0:0:0:
373,82,56074,2,0,P|371:103|371:125,3,40.2500007677078,10|8|6|4,3:3|0:3|0:3|0:3,0:0:0:0:
278,26,56407,6,0,P|235:13|190:29,1,80.5000015354157,6|0,3:2|0:0,0:0:0:0:
147,162,56740,2,0,P|190:175|235:159,1,80.5000015354157,10|0,0:0|0:0,0:0:0:0:
99,66,57073,1,2,3:2:0:0:
165,244,57240,1,2,3:2:0:0:
201,21,57407,1,10,0:0:0:0:
12,127,57573,1,2,0:0:0:0:
165,244,57740,6,0,L|260:253,1,80.5000015354157,2|0,3:2|3:0,0:0:0:0:
331,73,58073,2,0,B|285:42|247:82|245:88|239:99|207:109|169:92,1,161.000003070831,10|2,0:0|3:2,0:0:0:0:
353,0,58573,1,0,3:0:0:0:
380,139,58740,2,0,P|344:156|305:151,1,80.5000015354157,10|0,0:0|0:0,0:0:0:0:
505,32,59074,6,0,L|508:119,1,80.5000015354157,2|0,3:2|3:0,0:0:0:0:
378,220,59407,2,0,L|381:133,1,80.5000015354157,10|0,0:0|0:0,0:0:0:0:
472,328,59740,1,2,3:2:0:0:
472,328,59907,2,0,L|376:344,1,80.5000015354157,2|8,3:2|0:0,0:0:0:0:
193,376,60240,1,2,0:0:0:0:
193,376,60407,6,0,P|179:342|191:291,1,80.5000015354157,2|0,3:2|3:0,0:0:0:0:
315,169,60741,2,0,P|329:203|317:254,1,80.5000015354157,10|0,0:0|0:0,0:0:0:0:
201,64,61074,1,2,3:2:0:0:
201,64,61241,1,2,3:2:0:0:
394,76,61407,1,10,0:0:0:0:
422,103,61490,1,8,0:0:0:0:
434,142,61573,1,10,0:0:0:0:
426,181,61657,1,8,0:0:0:0:
400,211,61741,6,0,B|366:223|334:211|343:200|303:180|261:202,1,120.750002303124,6|0,3:2|0:0,0:0:0:0:
259,208,62074,2,0,P|219:220|182:206,1,80.5000015354157,8|0,0:0|0:0,0:0:0:0:
81,66,62407,1,2,3:2:0:0:
81,66,62573,1,0,3:0:0:0:
3,207,62740,2,0,L|-1:304,1,80.5000015354157,10|0,0:0|0:0,0:0:0:0:
118,368,63074,6,0,P|153:382|197:364,1,80.5000015354157,2|0,3:2|3:0,0:0:0:0:
312,251,63407,2,0,P|277:237|233:255,1,80.5000015354157,10|2,0:0|0:0,0:0:0:0:
424,346,63741,2,0,L|432:259,1,80.5000015354157,2|0,3:2|3:0,0:0:0:0:
334,97,64074,2,0,L|342:184,1,80.5000015354157,10|0,0:0|0:0,0:0:0:0:
271,2,64407,5,6,3:2:0:0:
271,2,64574,1,0,3:0:0:0:
196,145,64740,2,0,B|164:144|133:146|133:146|97:122|97:122|68:123|41:122,1,161.000003070831,8|0,0:0|3:0,0:0:0:0:
19,311,65240,1,0,3:0:0:0:
137,227,65407,6,0,B|177:200|229:231|215:242|258:264|310:243,1,161.000003070831,8|2,0:0|3:2,0:0:0:0:
429,116,65907,1,0,3:0:0:0:
473,263,66074,2,0,P|432:276|394:263,1,80.5000015354157,12|2,0:0|0:0,0:0:0:0:
295,152,66407,5,2,3:2:0:0:
297,120,66491,1,8,0:0:0:0:
299,88,66573,1,8,0:0:0:0:
300,56,66656,1,8,0:0:0:0:
301,24,66741,2,0,B|317:25|342:20,3,40.2500007677078,10|8|8|8,3:2|0:0|0:0|0:0,0:0:0:0:
227,49,67074,6,0,B|182:75|111:38|142:19|78:-11|32:18,1,204.750006873322,6|0,3:2|0:0,0:0:0:0:
29,20,68407,1,10,0:0:0:0:
19,45,69741,6,0,P|17:83|16:171,1,105,6|0,3:2|3:0,0:0:0:0:
18,174,70074,1,8,0:0:0:0:
120,88,70241,1,2,3:2:0:0:
143,81,70324,1,2,0:0:0:0:
166,88,70408,2,0,P|201:98|244:80,1,70,2|0,3:2|3:0,0:0:0:0:
344,0,70741,2,0,P|309:-10|266:8,1,70,10|0,0:0|3:0,0:0:0:0:
466,66,71074,6,0,P|466:91|469:192,1,105,2|2,3:2|3:2,0:0:0:0:
470,195,71407,1,10,0:0:0:0:
407,345,71574,1,2,3:2:0:0:
310,209,71741,2,0,P|346:203|401:233,1,70,2|0,3:2|3:0,0:0:0:0:
229,265,72074,2,0,P|213:231|225:169,1,70,10|0,0:0|3:0,0:0:0:0:
318,313,72408,6,0,P|279:358|219:359,1,105,2|0,3:2|3:0,0:0:0:0:
201,359,72741,1,8,0:0:0:0:
65,219,72908,1,2,3:2:0:0:
65,241,72991,1,2,0:0:0:0:
66,266,73075,2,0,L|67:345,1,70,2|0,3:2|3:0,0:0:0:0:
196,238,73408,2,0,L|203:165,1,70,10|0,0:0|3:0,0:0:0:0:
56,90,73741,6,0,L|64:204,1,105,2|2,3:2|3:2,0:0:0:0:
65,219,74074,1,10,0:0:0:0:
178,140,74241,1,2,3:2:0:0:
284,223,74408,2,0,P|304:196|307:146,1,70,2|0,3:2|3:0,0:0:0:0:
246,313,74741,2,0,P|294:322|334:302,1,70,10|0,0:0|3:0,0:0:0:0:
443,194,75074,6,0,L|447:300,1,105,6|0,3:2|3:0,0:0:0:0:
447,326,75407,1,8,0:0:0:0:
330,223,75574,1,2,3:2:0:0:
307,216,75657,1,2,0:0:0:0:
284,223,75741,2,0,P|249:233|206:215,1,70,2|0,3:2|3:0,0:0:0:0:
123,95,76074,2,0,P|158:85|201:103,1,70,10|0,0:0|3:0,0:0:0:0:
37,211,76408,6,0,P|36:239|34:337,1,105,2|2,3:2|3:2,0:0:0:0:
36,340,76741,1,10,0:0:0:0:
131,228,76908,1,2,3:2:0:0:
182,354,77075,2,0,P|217:364|260:346,1,70,2|0,3:2|3:0,0:0:0:0:
373,251,77408,2,0,P|338:241|295:259,1,70,10|0,0:0|3:0,0:0:0:0:
479,326,77741,6,0,B|483:313|489:304|489:304|486:270|482:200,1,105,2|0,3:2|3:0,0:0:0:0:
481,199,78074,1,8,0:0:0:0:
427,55,78241,1,2,3:2:0:0:
404,48,78324,1,2,0:0:0:0:
381,55,78408,2,0,L|303:47,1,70,2|0,3:2|3:0,0:0:0:0:
175,131,78741,2,0,L|244:123,1,70,14|0,0:0|0:0,0:0:0:0:
83,65,79074,6,0,P|51:60|36:54,3,35,8|8|8|8,3:2|0:0|0:0|0:0,0:0:0:0:
27,163,79407,1,8,3:2:0:0:
27,163,79491,1,8,0:0:0:0:
27,163,79574,2,0,P|26:183|28:210,1,35,8|8,0:0|0:0,0:0:0:0:
116,248,79741,6,0,P|116:265|115:282,3,35,8|8|8|8,3:2|0:0|0:0|0:0,0:0:0:0:
62,353,80074,1,8,3:2:0:0:
90,372,80157,1,8,0:0:0:0:
125,377,80240,1,8,0:0:0:0:
158,368,80323,1,8,0:0:0:0:
184,344,80407,6,0,L|188:237,2,105,6|2|2,3:2|0:0|0:0,0:0:0:0:
344,283,81088,6,0,L|340:175,2,105,2|2|2,0:0|0:0|0:0,0:0:0:0:
237,165,81793,6,0,P|187:147|137:167,2,105,2|2|2,0:0|0:0|0:0,0:0:0:0:
344,283,82478,6,0,P|392:301|440:283,1,105,2|2,0:0|0:0,0:0:0:0:
502,176,83010,5,2,0:0:0:0:
256,192,83099,12,0,87625,0:0:0:0:
436,94,87803,6,0,B|442:108|438:130|438:130|441:132|441:132|437:152|443:173,1,81.9000027493287,2|0,0:0|0:0,0:0:0:0:
