osu file format v14

[General]
AudioFilename: audio.mp3
AudioLeadIn: 0
PreviewTime: 44859
Countdown: 0
SampleSet: Soft
StackLeniency: 0.7
Mode: 0
LetterboxInBreaks: 0
WidescreenStoryboard: 0

[Editor]
DistanceSpacing: 1.3
BeatDivisor: 4
GridSize: 16
TimelineZoom: 2.2

[Metadata]
Title:Miss Tail (Cut Ver.)
TitleUnicode:ミステイル (Cut Ver.)
Artist:THE ORAL CIGARETTES
ArtistUnicode:THE ORAL CIGARETTES
Creator:Takakin
Version:Hard
Source:
Tags:blitzifyyy dkblaze Yuuma before it's too late its edit version short rock cigs japanese jrock j-rock toc 5150 あきらかにあきら Akira Akirakani 中西雅哉 Masaya Nakanishi 山中拓也 Takuya Yamanaka 鈴木重伸 Shigenobu Suzuki
BeatmapID:2608677
BeatmapSetID:1255210

[Difficulty]
HPDrainRate:4
CircleSize:3.4
OverallDifficulty:6.4
ApproachRate:8
SliderMultiplier:1.4
SliderTickRate:1

[Events]
//Background and Video events
0,0,"blobtzifyyy.jpg",0,0
//Break Periods
//Storyboard Layer 0 (Background)
//Storyboard Layer 1 (Fail)
//Storyboard Layer 2 (Pass)
//Storyboard Layer 3 (Foreground)
//Storyboard Layer 4 (Overlay)
//Storyboard Sound Samples

[TimingPoints]
408,333.333333333333,4,2,6,65,1,0
408,-125,4,2,6,65,0,0
1657,-125,4,2,6,5,0,0
1741,-125,4,2,6,65,0,0
2657,-125,4,2,6,65,0,0
2741,-125,4,2,6,65,0,0
4324,-125,4,2,6,5,0,0
4407,-125,4,2,6,65,0,0
5324,-125,4,2,6,65,0,0
5407,-125,4,2,6,65,0,0
6991,-125,4,2,6,5,0,0
7074,-125,4,2,6,65,0,0
7991,-125,4,2,6,65,0,0
8074,-125,4,2,6,65,0,0
11074,-117.647058823529,4,2,6,75,0,0
22991,-117.647058823529,4,2,6,75,0,0
23074,-117.647058823529,4,2,6,75,0,0
32407,-117.647058823529,4,2,6,70,0,0
43074,-125,4,2,6,60,0,0
43741,-125,4,2,6,60,0,0
44407,-125,4,2,6,75,0,0
45074,-125,4,2,6,75,0,0
45741,-100,4,2,6,80,0,1
47657,-100,4,2,6,5,0,1
47741,-100,4,2,6,80,0,1
51324,-100,4,2,6,5,0,1
51407,-100,4,2,6,80,0,1
51991,-100,4,2,6,5,0,1
52074,-100,4,2,6,80,0,1
55741,-100,4,2,6,80,0,0
56407,-100,4,2,6,80,0,1
61991,-100,4,2,6,5,0,1
62074,-100,4,2,6,80,0,1
67074,-166.666666666667,4,2,6,75,0,0
68324,-125,4,2,6,5,0,0
68407,-125,4,2,6,75,0,0
69741,-117.647058823529,4,2,6,75,0,0
80407,340.909090909091,4,2,6,60,1,0
81088,352.941176470588,4,2,6,60,1,0
81793,342.857142857143,4,2,6,60,1,0
82478,355.029585798817,4,2,6,60,1,0
87625,-128.205128205128,4,2,6,60,0,0
87803,-128.205128205128,4,2,6,60,0,0
88069,-128.205128205128,4,2,6,60,0,0

[Colours]
Combo1 : 250,165,224
Combo2 : 248,202,139
Combo3 : 251,40,140
Combo4 : 254,203,240
Combo5 : 254,52,103
Combo6 : 251,96,154
Combo7 : 181,103,243
Combo8 : 141,186,252
SliderBorder : 250,145,180
SliderTrackOverride : 58,25,13

[HitObjects]
68,66,408,6,0,P|116:63|183:62,2,112,2|8|0,3:2|0:0|3:0,0:0:0:0:
29,206,1407,2,0,L|36:302,1,84,10|0,0:0|0:0,0:0:0:0:
42,325,1741,2,0,P|91:345|149:311,1,112,2|8,3:2|0:0,0:0:0:0:
180,255,2241,2,0,P|229:231|279:251,1,112,2|0,0:0|0:0,0:0:0:0:
332,308,2741,1,10,0:0:0:0:
444,215,3074,6,0,B|443:169|439:131|439:131|448:118|461:99,2,112,2|8|0,3:2|0:0|3:0,0:0:0:0:
360,96,4073,2,0,P|323:80|272:93,1,84,8|0,0:0|0:0,0:0:0:0:
252,111,4407,2,0,B|208:111|208:111|180:96|180:96|128:95,1,112,2|8,3:2|0:0,0:0:0:0:
68,106,4907,2,0,L|67:240,1,112,2|0,0:0|0:0,0:0:0:0:
71,296,5407,1,10,0:0:0:0:
160,182,5741,6,0,P|212:160|268:185,2,112,2|8|0,3:2|0:0|3:0,0:0:0:0:
272,270,6741,2,0,P|312:258|365:267,1,84,10|0,0:0|0:0,0:0:0:0:
391,260,7074,2,0,B|409:228|409:228|400:146,1,112,2|8,3:2|0:0,0:0:0:0:
433,81,7574,2,0,B|398:60|364:77|368:84|338:100|313:89,1,112,2|0,0:0|0:0,0:0:0:0:
257,58,8074,1,10,0:0:0:0:
146,152,8407,6,0,B|142:269,2,112,2|8|0,3:2|0:0|3:0,0:0:0:0:
307,155,9407,1,10,0:0:0:0:
307,155,9491,1,8,0:0:0:0:
307,155,9574,1,8,0:0:0:0:
307,155,9657,1,8,0:0:0:0:
307,155,9741,5,2,3:2:0:0:
307,155,10741,1,4,3:3:0:0:
296,32,11074,6,0,B|246:33|246:33|231:44|231:44|162:44,1,119.000002269745,6|8,3:2|0:0,0:0:0:0:
104,41,11574,1,2,3:2:0:0:
104,41,11657,1,2,0:0:0:0:
104,41,11741,2,0,P|110:78|112:107,1,59.5000011348725,2|0,3:2|3:0,0:0:0:0:
173,147,12074,2,0,P|165:183|157:211,1,59.5000011348725,10|0,0:0|3:0,0:0:0:0:
150,281,12407,6,0,P|204:253|263:295,1,119.000002269745,2|10,3:2|0:0,0:0:0:0:
310,336,12907,1,2,3:2:0:0:
310,336,13074,2,0,L|370:331,1,59.5000011348725,2|0,3:2|3:0,0:0:0:0:
439,362,13407,2,0,P|447:332|438:293,1,59.5000011348725,10|0,0:0|3:0,0:0:0:0:
463,229,13741,6,0,B|429:208|390:233|398:239|365:260|329:241,1,119.000002269745,2|8,3:2|0:0,0:0:0:0:
273,251,14241,1,2,3:2:0:0:
273,251,14324,1,2,0:0:0:0:
273,251,14408,2,0,P|279:214|281:185,1,59.5000011348725,2|0,3:2|3:0,0:0:0:0:
342,145,14741,2,0,P|330:109|326:80,1,59.5000011348725,10|0,0:0|3:0,0:0:0:0:
277,29,15074,6,0,B|239:15|239:15|154:25,1,119.000002269745,2|10,3:2|0:0,0:0:0:0:
95,63,15574,1,2,3:2:0:0:
95,63,15741,2,0,L|100:123,1,59.5000011348725,2|0,3:2|3:0,0:0:0:0:
69,192,16074,2,0,P|99:200|138:191,1,59.5000011348725,10|0,0:0|3:0,0:0:0:0:
178,137,16408,6,0,B|228:138|228:138|243:149|243:149|312:149,1,119.000002269745,6|8,3:2|0:0,0:0:0:0:
377,145,16908,1,2,3:2:0:0:
377,145,16991,1,2,0:0:0:0:
377,145,17075,2,0,P|383:182|385:211,1,59.5000011348725,2|0,3:2|3:0,0:0:0:0:
450,244,17408,2,0,P|442:280|434:308,1,59.5000011348725,10|0,0:0|3:0,0:0:0:0:
380,356,17741,6,0,P|350:326|273:336,1,119.000002269745,2|10,3:2|0:0,0:0:0:0:
216,377,18241,1,2,3:2:0:0:
216,377,18407,2,0,L|154:372,1,59.5000011348725,2|0,3:2|3:0,0:0:0:0:
79,382,18741,2,0,P|78:358|91:322,1,59.5000011348725,10|0,0:0|3:0,0:0:0:0:
146,272,19074,6,0,B|146:224|146:224|158:207|158:207|157:137,1,119.000002269745,2|8,3:2|0:0,0:0:0:0:
131,82,19574,1,2,3:2:0:0:
131,82,19657,1,2,0:0:0:0:
131,82,19741,2,0,P|168:76|197:74,1,59.5000011348725,2|0,3:2|3:0,0:0:0:0:
230,9,20074,2,0,P|266:17|294:25,1,59.5000011348725,10|0,0:0|3:0,0:0:0:0:
332,86,20407,6,0,B|356:97|395:78|384:68|423:47|459:66,1,119.000002269745,2|14,3:2|0:0,0:0:0:0:
495,129,20907,1,2,0:0:0:0:
495,129,21074,2,0,L|497:173,3,29.7500005674362,10|8|8|8,0:0|0:0|0:0|0:0,0:0:0:0:
463,200,21407,2,0,L|461:244,3,29.7500005674362,10|8|4|4,0:3|0:3|0:3|0:3,0:0:0:0:
482,278,21741,6,0,P|435:250|383:263,2,89.2500017023087,6|2|2,3:2|3:2|3:2,0:0:0:0:
423,330,22407,2,0,P|390:336|348:315,1,59.5000011348725,0|0,3:0|3:0,0:0:0:0:
312,272,22741,2,0,P|272:280|242:291,1,59.5000011348725,8|0,0:0|3:0,0:0:0:0:
179,305,23074,6,0,B|144:306|144:306|119:296|119:296|87:296,2,89.2500017023087,2|2|2,3:2|3:2|3:2,0:0:0:0:
174,221,23741,2,0,P|142:208|113:206,1,59.5000011348725,0|0,3:0|3:0,0:0:0:0:
41,219,24074,2,0,P|44:177|58:154,1,59.5000011348725,8|0,0:0|3:0,0:0:0:0:
29,87,24407,6,0,B|150:77,1,119.000002269745,2|8,3:2|0:0,0:0:0:0:
211,138,24907,1,2,3:2:0:0:
211,138,24990,1,2,0:0:0:0:
211,138,25074,2,0,P|248:132|277:130,1,59.5000011348725,2|0,3:2|3:0,0:0:0:0:
316,68,25407,2,0,P|352:76|380:84,1,59.5000011348725,10|0,0:0|3:0,0:0:0:0:
446,120,25741,6,0,B|449:110|455:98|455:98|454:69|454:13,2,89.2500017023087,2|2|2,3:2|3:2|0:0,0:0:0:0:
392,179,26407,1,10,0:0:0:0:
392,179,26491,1,4,0:3:0:0:
392,179,26574,1,4,0:3:0:0:
392,179,26657,1,4,0:3:0:0:
392,179,26741,1,14,0:0:0:0:
512,300,27074,6,0,L|475:296,3,29.7500005674362,10|0|8|8,3:2|0:0|0:0|0:0,0:0:0:0:
438,321,27407,2,0,L|401:325,3,29.7500005674362,8|8|8|8,3:2|0:0|0:0|0:0,0:0:0:0:
366,289,27741,2,0,L|329:285,3,29.7500005674362,2|8|8|8,3:2|0:0|0:0|0:0,0:0:0:0:
292,310,28074,2,0,L|255:314,3,29.7500005674362,0|8|8|8,3:2|0:0|0:0|0:0,0:0:0:0:
218,285,28407,6,0,L|181:281,3,29.7500005674362,10|0|8|8,3:2|0:0|0:0|0:0,0:0:0:0:
145,318,28740,2,0,L|108:321,3,29.7500005674362,8|8|8|8,3:2|0:0|0:0|0:0,0:0:0:0:
69,302,29074,2,0,L|66:270,3,29.7500005674362,2|8|4|4,3:2|0:0|0:3|0:3,0:0:0:0:
86,244,29407,2,0,L|86:215,3,29.7500005674362,8|8|4|4,0:3|0:3|0:3|0:3,0:0:0:0:
67,159,29741,6,0,B|93:139|93:139|193:141,1,119.000002269745,6|8,3:2|0:0,0:0:0:0:
250,106,30241,1,2,3:2:0:0:
250,106,30324,1,2,0:0:0:0:
250,106,30407,2,0,P|255:144|252:168,1,59.5000011348725,2|0,3:2|3:0,0:0:0:0:
328,181,30741,2,0,P|320:218|309:239,1,59.5000011348725,10|0,0:0|3:0,0:0:0:0:
304,314,31074,6,0,B|273:313|273:313|245:303|245:303|192:303,2,89.2500017023087,2|2|2,3:2|3:2|0:0,0:0:0:0:
396,300,31740,1,10,0:0:0:0:
396,300,31824,1,8,0:0:0:0:
396,300,31907,1,8,0:0:0:0:
396,300,31990,1,8,0:0:0:0:
396,300,32074,1,6,3:2:0:0:
406,79,32407,5,14,0:0:0:0:
482,111,32574,2,0,P|492:144|483:176,1,59.5000011348725,2|0,3:2|3:0,0:0:0:0:
450,243,32907,2,0,P|479:252|524:235,2,59.5000011348725,10|2|0,0:0|3:2|3:0,0:0:0:0:
374,206,33407,2,0,P|366:237|373:280,1,59.5000011348725,10|2,0:0|3:2,0:0:0:0:
431,318,33741,5,10,0:0:0:0:
367,372,33908,2,0,P|334:382|303:372,1,59.5000011348725,2|2,3:2|3:2,0:0:0:0:
255,312,34241,2,0,P|248:285|254:251,2,59.5000011348725,10|2|0,0:0|3:2|3:0,0:0:0:0:
199,374,34741,2,0,L|167:370,3,29.7500005674362,10|8|8|10,0:0|0:0|0:0|0:0,0:0:0:0:
136,344,35074,6,0,B|86:344|86:344|71:355|71:355|20:355,1,119.000002269745,6|10,3:2|0:0,0:0:0:0:
35,279,35574,1,2,3:2:0:0:
35,279,35657,1,2,0:0:0:0:
35,279,35741,2,0,P|42:247|35:218,1,59.5000011348725,2|0,3:2|3:0,0:0:0:0:
85,154,36074,2,0,P|56:141|28:140,1,59.5000011348725,10|0,0:0|0:0,0:0:0:0:
2,60,36407,6,0,L|83:47,1,59.5000011348725,2|0,3:2|0:0,0:0:0:0:
106,53,36657,1,2,3:2:0:0:
106,53,36741,2,0,L|188:53,1,59.5000011348725,10|2,0:0|3:2,0:0:0:0:
251,23,37074,1,2,3:2:0:0:
251,23,37157,1,8,0:0:0:0:
251,23,37241,1,8,0:0:0:0:
251,23,37324,1,8,0:0:0:0:
251,23,37407,1,2,3:2:0:0:
141,149,37741,5,14,0:0:0:0:
195,212,37908,2,0,L|262:207,1,59.5000011348725,0|2,3:0|3:2,0:0:0:0:
337,206,38241,2,0,P|346:177|329:132,2,59.5000011348725,10|2|0,0:0|3:2|3:0,0:0:0:0:
323,288,38741,2,0,P|352:291|381:281,1,59.5000011348725,10|2,0:0|3:2,0:0:0:0:
426,211,39075,5,10,0:0:0:0:
505,235,39242,2,0,P|510:210|496:167,1,59.5000011348725,2|2,3:2|3:2,0:0:0:0:
438,123,39575,2,0,P|408:118|380:125,2,59.5000011348725,10|2|0,0:0|3:2|3:0,0:0:0:0:
503,71,40075,2,0,L|503:33,3,29.7500005674362,10|8|8|10,0:0|0:0|0:0|0:0,0:0:0:0:
467,18,40408,6,0,B|417:18|417:18|402:7|402:7|351:7,1,119.000002269745,6|10,3:2|0:0,0:0:0:0:
276,20,40908,1,2,3:0:0:0:
276,20,40991,1,2,0:0:0:0:
276,20,41075,2,0,P|269:52|276:81,1,59.5000011348725,2|0,0:0|3:0,0:0:0:0:
274,161,41408,2,0,P|242:149|208:148,1,59.5000011348725,10|0,0:0|0:0,0:0:0:0:
136,169,41741,6,0,L|142:245,1,59.5000011348725,2|0,3:2|0:0,0:0:0:0:
133,272,41991,1,2,3:2:0:0:
133,272,42074,2,0,L|128:331,1,59.5000011348725,14|2,0:0|0:0,0:0:0:0:
60,379,42407,2,0,L|24:379,3,29.7500005674362,10|8|8|8,3:2|0:0|0:0|0:0,0:0:0:0:
4,344,42741,2,0,L|0:306,3,29.7500005674362,6|4|4|4,3:3|0:3|0:3|0:3,0:0:0:0:
21,281,43074,5,6,3:2:0:0:
256,192,43157,12,10,44407,0:0:0:0:
465,164,45074,5,2,0:0:0:0:
465,164,45407,1,2,0:0:0:0:
511,79,45741,6,0,P|474:65|442:67,1,70,6|0,3:2|0:0,0:0:0:0:
371,0,46074,2,0,P|331:-1|302:12,1,70,10|0,0:0|0:0,0:0:0:0:
288,107,46407,2,0,P|251:121|219:119,1,70,2|2,3:2|3:2,0:0:0:0:
147,184,46740,2,0,P|107:184|78:171,1,70,10|2,0:0|0:0,0:0:0:0:
7,239,47074,5,2,3:2:0:0:
98,275,47241,1,0,3:0:0:0:
63,366,47407,2,0,P|107:339|181:371,1,105,10|0,0:0|0:0,0:0:0:0:
201,369,47741,2,0,P|237:379|292:348,1,70,2|0,3:3|3:0,0:0:0:0:
351,319,48074,2,0,P|341:282|287:250,1,70,10|0,0:0|0:0,0:0:0:0:
275,172,48407,6,0,L|348:166,1,70,2|0,3:2|3:0,0:0:0:0:
443,165,48741,2,0,P|453:130|427:80,1,70,10|0,0:0|0:0,0:0:0:0:
415,4,49074,1,2,3:2:0:0:
331,55,49241,2,0,B|293:65|251:45|271:29|220:5|171:38,1,140,2|2,3:2|0:0,0:0:0:0:
117,80,49741,6,0,L|115:153,1,70,2|2,3:2|3:2,0:0:0:0:
27,194,50074,2,0,L|25:121,1,70,10|0,0:0|0:0,0:0:0:0:
115,149,50407,2,0,L|161:146,3,35,10|8|10|8,3:2|0:0|0:0|0:0,0:0:0:0:
190,182,50741,2,0,L|238:188,3,35,10|8|8|8,3:2|0:0|0:0|0:0,0:0:0:0:
269,165,51074,6,0,P|317:148|391:173,1,105,6|0,3:2|0:0,0:0:0:0:
407,187,51407,2,0,L|411:269,1,70,8|0,0:0|0:0,0:0:0:0:
410,357,51741,2,0,P|357:327|312:342,1,105,2|0,3:2|0:0,0:0:0:0:
280,370,52074,2,0,P|245:381|201:365,1,70,10|0,0:0|0:0,0:0:0:0:
134,314,52407,6,0,P|133:356|130:384,1,70,2|0,3:2|3:0,0:0:0:0:
43,335,52741,2,0,P|42:293|39:265,1,70,10|0,0:0|0:0,0:0:0:0:
7,172,53074,2,0,L|79:167,1,70,2|0,3:2|3:0,0:0:0:0:
140,92,53407,2,0,L|70:87,1,70,10|0,0:0|0:0,0:0:0:0:
120,1,53741,5,6,3:2:0:0:
217,6,53907,1,0,3:0:0:0:
252,97,54074,2,0,B|305:96|305:96|335:77|335:77|394:78,1,140,10|2,0:0|3:2,0:0:0:0:
479,47,54574,1,2,3:2:0:0:
506,141,54741,2,0,P|517:182|503:228,1,70,10|0,0:0|0:0,0:0:0:0:
419,177,55074,6,0,L|376:174,3,35,10|8|8|8,3:2|0:0|0:0|0:0,0:0:0:0:
345,144,55407,2,0,L|310:146,3,35,10|8|8|8,3:2|0:0|0:0|0:0,0:0:0:0:
277,183,55741,2,0,L|242:185,3,35,10|8|8|8,3:2|0:0|0:0|0:0,0:0:0:0:
204,152,56074,2,0,L|169:149,3,35,10|8|6|4,3:3|0:3|0:3|0:3,0:0:0:0:
120,145,56407,6,0,P|106:182|108:214,1,70,6|0,3:2|0:0,0:0:0:0:
40,284,56740,2,0,P|39:324|52:353,1,70,10|0,0:0|0:0,0:0:0:0:
146,325,57074,2,0,P|185:325|214:338,1,70,2|2,3:2|3:2,0:0:0:0:
298,288,57407,2,0,P|335:301|358:323,1,70,10|2,0:0|0:0,0:0:0:0:
437,377,57740,5,2,3:2:0:0:
497,299,57907,1,0,3:0:0:0:
424,233,58074,2,0,B|405:189|420:146|420:146|446:133|456:102,1,140,10|2,0:0|3:2,0:0:0:0:
403,30,58574,1,0,3:0:0:0:
403,30,58740,2,0,P|364:16|321:27,1,70,10|0,0:0|0:0,0:0:0:0:
239,40,59074,6,0,P|247:81|248:128,1,70,2|0,3:2|3:0,0:0:0:0:
163,158,59407,2,0,P|147:111|131:92,1,70,10|0,0:0|0:0,0:0:0:0:
56,35,59741,1,2,3:2:0:0:
6,118,59907,2,0,B|6:178|6:178|17:199|17:199|17:260,1,140,2|2,3:2|0:0,0:0:0:0:
93,316,60407,6,0,P|125:304|188:317,1,70,2|0,3:2|3:0,0:0:0:0:
244,356,60741,2,0,P|278:355|332:389,1,70,10|0,0:0|0:0,0:0:0:0:
387,306,61074,1,2,3:2:0:0:
387,306,61241,1,2,3:2:0:0:
484,310,61407,2,0,L|487:268,3,35,10|8|10|8,0:0|0:0|0:0|0:0,0:0:0:0:
480,230,61741,6,0,P|425:198|368:214,1,105,6|0,3:2|0:0,0:0:0:0:
343,228,62074,2,0,P|300:238|253:214,1,70,8|0,0:0|0:0,0:0:0:0:
197,171,62407,2,0,P|198:213|185:259,1,70,2|0,3:2|3:0,0:0:0:0:
101,278,62741,2,0,P|103:252|92:198,1,70,10|0,0:0|0:0,0:0:0:0:
41,133,63074,5,2,3:2:0:0:
41,133,63241,1,0,3:0:0:0:
110,64,63407,2,0,L|179:71,1,70,10|2,0:0|0:0,0:0:0:0:
259,129,63741,2,0,L|328:121,1,70,2|0,3:2|3:0,0:0:0:0:
403,57,64074,2,0,L|472:64,1,70,10|0,0:0|0:0,0:0:0:0:
508,155,64407,5,6,3:2:0:0:
423,204,64574,1,0,3:0:0:0:
472,288,64740,2,0,P|428:250|344:266,1,140,8|0,0:0|3:0,0:0:0:0:
289,336,65240,1,0,3:0:0:0:
230,256,65407,6,0,B|193:239|152:260|164:270|127:299|78:270,1,140,8|2,0:0|3:2,0:0:0:0:
1,296,65907,1,0,3:0:0:0:
1,197,66074,2,0,L|0:118,1,70,12|2,0:0|0:0,0:0:0:0:
54,45,66407,2,0,L|103:41,3,35,2|8|8|8,3:2|0:0|0:0|0:0,0:0:0:0:
133,65,66741,2,0,L|182:69,3,35,10|8|8|8,3:2|0:0|0:0|0:0,0:0:0:0:
207,39,67074,6,0,B|250:68|305:47|272:13|366:-30|462:-1|448:114|418:133,1,314.999990386963,6|0,3:2|0:0,0:0:0:0:
402,150,68407,1,10,0:0:0:0:
218,358,69741,6,0,B|246:333|246:333|347:352,1,119.000002269745,6|8,3:2|0:0,0:0:0:0:
412,371,70241,1,2,3:2:0:0:
412,371,70324,1,2,0:0:0:0:
412,371,70408,2,0,P|406:334|404:305,1,59.5000011348725,2|0,3:2|3:0,0:0:0:0:
455,254,70741,2,0,P|463:218|471:190,1,59.5000011348725,10|0,0:0|3:0,0:0:0:0:
420,135,71074,6,0,L|295:116,1,119.000002269745,2|10,3:2|0:0,0:0:0:0:
241,68,71574,1,2,3:2:0:0:
241,68,71741,2,0,L|181:73,1,59.5000011348725,2|0,3:2|3:0,0:0:0:0:
131,132,72074,2,0,L|62:122,1,59.5000011348725,10|0,0:0|3:0,0:0:0:0:
16,68,72408,6,0,P|56:132|41:188,1,119.000002269745,2|8,3:2|0:0,0:0:0:0:
9,247,72908,1,2,3:2:0:0:
9,247,72991,1,2,0:0:0:0:
9,247,73075,2,0,P|44:259|72:266,1,59.5000011348725,2|0,3:2|3:0,0:0:0:0:
104,337,73408,2,0,P|141:335|170:332,1,59.5000011348725,10|0,0:0|3:0,0:0:0:0:
209,268,73741,6,0,P|254:246|321:281,1,119.000002269745,2|10,3:2|0:0,0:0:0:0:
385,319,74241,1,2,3:2:0:0:
385,319,74408,2,0,L|396:259,1,59.5000011348725,2|0,3:2|3:0,0:0:0:0:
450,202,74741,2,0,P|420:185|381:180,1,59.5000011348725,10|0,0:0|3:0,0:0:0:0:
318,200,75075,6,0,B|311:158|311:158|332:135|332:135|325:74,1,119.000002269745,6|8,3:2|0:0,0:0:0:0:
281,25,75575,1,2,3:2:0:0:
281,25,75658,1,2,0:0:0:0:
281,25,75742,2,0,P|244:31|215:38,1,59.5000011348725,2|0,3:2|3:0,0:0:0:0:
186,105,76075,2,0,P|153:100|116:97,1,59.5000011348725,10|0,0:0|3:0,0:0:0:0:
47,73,76408,6,0,B|55:122|55:122|42:148|42:148|50:201,1,119.000002269745,2|10,3:2|0:0,0:0:0:0:
19,262,76908,1,2,3:2:0:0:
19,262,77074,2,0,P|48:270|81:264,1,59.5000011348725,2|0,3:2|3:0,0:0:0:0:
133,208,77408,2,0,P|151:239|155:264,1,59.5000011348725,10|0,0:0|3:0,0:0:0:0:
128,338,77741,6,0,P|185:304|253:336,1,119.000002269745,2|8,3:2|0:0,0:0:0:0:
308,369,78241,1,2,3:2:0:0:
308,369,78324,1,2,0:0:0:0:
308,369,78408,2,0,P|345:364|373:358,1,59.5000011348725,2|0,3:2|3:0,0:0:0:0:
445,374,78741,2,0,P|445:344|448:310,1,59.5000011348725,14|0,0:0|0:0,0:0:0:0:
500,251,79074,6,0,L|501:210,3,29.7500005674362,8|8|8|8,3:2|0:0|0:0|0:0,0:0:0:0:
465,177,79407,2,0,L|464:136,3,29.7500005674362,8|8|8|8,3:2|0:0|0:0|0:0,0:0:0:0:
479,94,79741,2,0,L|431:87,3,29.7500005674362,8|8|8|8,3:2|0:0|0:0|0:0,0:0:0:0:
397,104,80074,2,0,L|365:108,3,29.7500005674362,8|8|8|8,3:2|0:0|0:0|0:0,0:0:0:0:
319,97,80407,6,0,B|289:76|289:76|296:39|301:0,2,105,6|2|2,3:2|0:0|0:0,0:0:0:0:
334,177,81088,6,0,B|313:207|313:207|276:200|237:195,2,105,2|2|2,0:0|0:0|0:0,0:0:0:0:
201,133,81793,6,0,P|169:181|177:234,2,105,2|2|2,0:0|0:0|0:0,0:0:0:0:
233,52,82478,6,0,P|175:48|133:81,2,105,2|2|2,0:0|0:0|0:0,0:0:0:0:
256,192,83099,12,2,87803,0:0:0:0:
