osu file format v14

[General]
AudioFilename: audio.mp3
AudioLeadIn: 0
PreviewTime: 44859
Countdown: 0
SampleSet: Soft
StackLeniency: 0.7
Mode: 0
LetterboxInBreaks: 0
WidescreenStoryboard: 0

[Editor]
Bookmarks: 27359
DistanceSpacing: 1.1
BeatDivisor: 4
GridSize: 32
TimelineZoom: 4.599998

[Metadata]
Title:Miss Tail (Cut Ver.)
TitleUnicode:ミステイル (Cut Ver.)
Artist:THE ORAL CIGARETTES
ArtistUnicode:THE ORAL CIGARETTES
Creator:Takakin
Version:Blitzifyyy's Extra
Source:
Tags:blitzifyyy dkblaze Yuuma before it's too late its edit version short rock cigs japanese jrock j-rock toc 5150 あきらかにあきら Akira Akirakani 中西雅哉 Masaya Nakanishi 山中拓也 Takuya Yamanaka 鈴木重伸 Shigenobu Suzuki
BeatmapID:2616211
BeatmapSetID:1255210

[Difficulty]
HPDrainRate:6
CircleSize:4.5
OverallDifficulty:8
ApproachRate:9
SliderMultiplier:1.75
SliderTickRate:1

[Events]
//Background and Video events
0,0,"blobtzifyyy.jpg",0,0
//Break Periods
//Storyboard Layer 0 (Background)
//Storyboard Layer 1 (Fail)
//Storyboard Layer 2 (Pass)
//Storyboard Layer 3 (Foreground)
//Storyboard Layer 4 (Overlay)
//Storyboard Sound Samples

[TimingPoints]
408,333.333333333333,4,2,6,65,1,0
408,-100,4,2,6,65,0,0
1657,-100,4,2,6,65,0,0
1741,-142.857142857143,4,2,6,65,0,0
2074,-142.857142857143,4,2,6,65,0,0
2157,-117.647058823529,4,2,6,5,0,0
2241,-117.647058823529,4,2,6,65,0,0
2657,-100,4,2,6,5,0,0
2741,-100,4,2,6,65,0,0
4324,-100,4,2,6,65,0,0
4407,-142.857142857143,4,2,6,65,0,0
4823,-142.857142857143,4,2,6,5,0,0
4907,-117.647058823529,4,2,6,65,0,0
5324,-100,4,2,6,5,0,0
5407,-100,4,2,6,65,0,0
6991,-100,4,2,6,65,0,0
7074,-142.857142857143,4,2,6,65,0,0
7407,-117.647058823529,4,2,6,65,0,0
7490,-117.647058823529,4,2,6,5,0,0
7574,-117.647058823529,4,2,6,65,0,0
7991,-100,4,2,6,5,0,0
8074,-100,4,2,6,65,0,0
8407,-100,4,2,6,65,0,0
10741,-200,4,2,6,65,0,0
10991,-200,4,2,6,5,0,0
11074,-90.9090909090909,4,2,6,75,0,0
32407,-90.9090909090909,4,2,6,70,0,0
43074,-100,4,2,6,60,0,0
43741,-100,4,2,6,60,0,0
44407,-100,4,2,6,75,0,0
44491,-100,4,2,6,75,0,0
45074,-100,4,2,6,75,0,0
45741,-100,4,2,6,80,0,1
48657,-100,4,2,6,5,0,1
48741,-100,4,2,6,80,0,1
51324,-100,4,2,6,80,0,1
51407,-100,4,2,6,80,0,1
52657,-100,4,2,6,5,0,1
52741,-100,4,2,6,80,0,1
55741,-100,4,2,6,80,0,0
56407,-100,4,2,6,80,0,1
59324,-100,4,2,6,5,0,1
59407,-100,4,2,6,80,0,1
61991,-100,4,2,6,80,0,1
62074,-100,4,2,6,80,0,1
63324,-100,4,2,6,5,0,1
63407,-100,4,2,6,80,0,1
67074,-100,4,2,6,75,0,0
68324,-100,4,2,6,75,0,0
68407,-100,4,2,6,75,0,0
69741,-90.9090909090909,4,2,6,75,0,0
80407,340.909090909091,4,2,6,60,1,0
81088,352.941176470588,4,2,6,60,1,0
81793,342.857142857143,4,2,6,60,1,0
82478,355.029585798817,4,2,6,60,1,0
87625,-100,4,2,6,5,0,0
87803,-100,4,2,6,60,0,0
88069,-100,4,2,6,5,0,0

[Colours]
Combo1 : 250,165,224
Combo2 : 248,202,139
Combo3 : 251,40,140
Combo4 : 254,203,240
Combo5 : 254,52,103
Combo6 : 251,96,154
Combo7 : 181,103,243
Combo8 : 141,186,252
SliderBorder : 250,145,180
SliderTrackOverride : 58,25,13

[HitObjects]
181,343,408,6,0,B|79:336|127:274|13:281,2,175,2|8|0,3:2|0:0|3:0,0:0:0:0:
379,141,1241,1,0,0:0:0:0:
291,82,1407,2,0,P|270:132|289:187,1,87.5,10|0,0:0|0:0,0:0:0:0:
438,364,1741,6,0,B|376:357|376:357|354:367|354:367|285:361,1,153.124995326996,2|0,3:2|0:0,0:0:0:0:
474,345,2241,6,0,B|520:289|484:206|484:206|473:237|434:257,1,185.937503546476,2|0,0:0|0:0,0:0:0:0:
422,148,2741,6,0,P|468:122|534:138,1,87.5,10|0,0:0|0:0,0:0:0:0:
284,257,3074,6,0,B|194:251|194:251|157:228|109:247,2,175,2|8|0,3:2|0:0|3:0,0:0:0:0:
76,60,3907,1,0,0:0:0:0:
28,169,4074,2,0,P|30:118|28:73,1,87.5,8|0,0:0|0:0,0:0:0:0:
328,248,4407,6,0,P|282:223|215:306,1,153.124995326996,2|0,3:2|0:0,0:0:0:0:
366,257,4907,6,0,B|339:145|412:189|393:69,1,185.937503546476,2|0,0:0|0:0,0:0:0:0:
330,26,5407,6,0,P|376:-2|423:6,1,87.5,10|0,0:0|0:0,0:0:0:0:
206,143,5741,6,0,B|166:154|128:119|128:119|92:154|34:142,2,175,2|8|0,3:2|0:0|3:0,0:0:0:0:
440,345,6574,1,0,0:0:0:0:
385,257,6741,2,0,P|442:240|491:261,1,87.5,10|0,0:0|0:0,0:0:0:0:
184,360,7074,6,0,B|194:344|205:332|205:332|65:339,1,153.124995326996,2|0,3:2|0:0,0:0:0:0:
205,333,7574,6,0,P|232:249|178:145,1,185.937503546476,2|0,0:0|0:0,0:0:0:0:
131,126,8074,6,0,P|178:112|220:90,1,87.5,10|0,0:0|0:0,0:0:0:0:
3,4,8407,6,0,B|14:83|14:83|19:90|19:90|15:96|15:96|27:197,2,175,2|8|0,3:2|0:0|3:0,0:0:0:0:
351,177,9407,5,10,0:0:0:0:
329,155,9491,1,8,0:0:0:0:
351,133,9574,1,8,0:0:0:0:
372,155,9657,1,8,0:0:0:0:
350,154,9741,5,2,3:2:0:0:
455,190,10741,6,0,P|492:175|519:146,1,65.625,4|0,3:3|0:0,0:0:0:0:
356,149,11074,6,0,P|343:205|367:257,1,96.250002937317,6|0,3:2|0:0,0:0:0:0:
386,128,11324,1,0,3:0:0:0:
386,128,11407,1,8,0:0:0:0:
238,310,11574,1,2,3:2:0:0:
231,293,11657,1,2,0:0:0:0:
224,276,11741,1,2,3:2:0:0:
266,144,11907,1,0,3:0:0:0:
455,180,12074,1,10,0:0:0:0:
413,48,12240,1,0,3:0:0:0:
318,273,12407,6,0,P|273:281|219:274,1,96.250002937317,2|0,3:2|0:0,0:0:0:0:
343,244,12657,1,2,3:2:0:0:
343,244,12741,1,10,0:0:0:0:
286,362,12907,1,2,3:2:0:0:
176,141,13074,1,2,3:2:0:0:
294,177,13241,1,0,3:0:0:0:
203,335,13407,1,10,0:0:0:0:
323,368,13574,1,0,3:0:0:0:
96,218,13741,6,0,P|101:268|90:336,1,96.250002937317,2|0,3:2|0:0,0:0:0:0:
72,189,13991,1,0,3:0:0:0:
72,189,14074,1,8,0:0:0:0:
216,54,14241,1,2,3:2:0:0:
222,74,14324,1,2,0:0:0:0:
227,92,14407,1,2,3:2:0:0:
45,25,14574,1,0,3:0:0:0:
251,204,14741,1,10,0:0:0:0:
419,107,14908,1,0,3:0:0:0:
299,274,15074,6,0,P|251:291|203:274,1,96.250002937317,2|0,3:2|0:0,0:0:0:0:
327,287,15324,1,2,3:2:0:0:
327,287,15407,1,10,0:0:0:0:
180,170,15574,1,2,3:2:0:0:
102,367,15741,1,2,3:2:0:0:
228,268,15907,1,0,3:0:0:0:
0,184,16074,1,10,0:0:0:0:
126,283,16240,1,0,3:0:0:0:
192,89,16407,6,0,P|241:90|290:98,1,96.250002937317,6|0,3:2|0:0,0:0:0:0:
162,67,16657,1,0,3:0:0:0:
162,67,16741,1,8,0:0:0:0:
338,213,16907,1,2,3:2:0:0:
342,194,16991,1,2,0:0:0:0:
345,175,17074,1,2,3:2:0:0:
241,6,17241,1,0,3:0:0:0:
154,268,17407,1,10,0:0:0:0:
256,125,17574,1,0,3:0:0:0:
348,293,17741,6,0,P|394:289|458:292,1,96.250002937317,2|0,3:2|0:0,0:0:0:0:
318,267,17991,1,2,3:2:0:0:
318,267,18074,1,10,0:0:0:0:
205,376,18241,1,2,3:2:0:0:
124,165,18407,1,2,3:2:0:0:
234,285,18574,1,0,3:0:0:0:
343,112,18741,1,10,0:0:0:0:
207,197,18908,1,0,3:0:0:0:
159,26,19074,6,0,P|213:6|265:27,1,96.250002937317,2|0,3:2|0:0,0:0:0:0:
129,44,19324,1,0,3:0:0:0:
129,44,19407,1,8,0:0:0:0:
28,244,19574,1,2,3:2:0:0:
38,227,19657,1,2,0:0:0:0:
48,210,19741,1,2,3:2:0:0:
0,43,19907,1,0,3:0:0:0:
209,78,20074,1,10,0:0:0:0:
36,130,20240,1,0,3:0:0:0:
199,247,20407,6,0,P|253:242|305:243,1,96.250002937317,2|0,3:2|3:0,0:0:0:0:
171,272,20657,1,2,0:0:0:0:
171,272,20741,1,14,0:0:0:0:
236,153,20907,1,2,0:0:0:0:
450,362,21074,5,10,0:0:0:0:
424,327,21157,1,8,0:0:0:0:
419,284,21240,1,8,0:0:0:0:
434,244,21323,1,8,0:0:0:0:
461,239,21407,5,10,0:3:0:0:
486,204,21490,1,8,0:3:0:0:
491,161,21573,1,4,0:3:0:0:
476,121,21656,1,4,0:3:0:0:
443,93,21741,6,0,B|381:91|381:91|363:96|363:96|314:96,1,96.250002937317,6|0,3:2|0:0,0:0:0:0:
466,63,21991,1,2,3:2:0:0:
466,63,22074,2,0,P|473:43|474:13,1,48.1250014686585,8|0,0:0|0:0,0:0:0:0:
331,116,22241,2,0,P|313:165|327:210,1,96.250002937317,2|0,3:2|3:0,0:0:0:0:
429,277,22574,1,0,3:0:0:0:
289,383,22741,2,0,L|283:284,1,96.250002937317,8|0,0:0|3:0,0:0:0:0:
312,99,23074,6,0,P|262:119|203:110,1,96.250002937317,2|0,3:2|0:0,0:0:0:0:
325,65,23324,1,2,3:2:0:0:
325,65,23407,2,0,L|382:62,1,48.1250014686585,8|0,0:0|0:0,0:0:0:0:
216,133,23574,2,0,P|163:133|95:129,1,96.250002937317,2|0,3:2|3:0,0:0:0:0:
23,44,23907,1,0,3:0:0:0:
120,240,24074,2,0,B|120:190|120:190|122:187|122:187|119:139,1,96.250002937317,8|0,0:0|3:0,0:0:0:0:
39,337,24407,6,0,P|77:306|141:301,1,96.250002937317,2|0,3:2|0:0,0:0:0:0:
16,369,24657,1,0,3:0:0:0:
16,369,24741,1,8,0:0:0:0:
17,209,24907,1,2,3:2:0:0:
13,189,24991,1,2,0:0:0:0:
7,170,25074,1,2,3:2:0:0:
155,276,25241,1,0,3:0:0:0:
213,103,25407,1,10,0:0:0:0:
103,208,25574,1,0,3:0:0:0:
28,43,25741,6,0,P|78:58|147:31,1,96.250002937317,2|0,3:2|0:0,0:0:0:0:
18,15,25991,1,2,3:2:0:0:
18,15,26074,1,10,0:0:0:0:
123,130,26241,1,2,0:0:0:0:
301,5,26407,5,10,0:0:0:0:
297,38,26490,1,4,0:3:0:0:
292,71,26573,1,4,0:3:0:0:
288,105,26656,1,4,0:3:0:0:
287,141,26740,1,14,0:0:0:0:
287,141,27074,5,10,3:2:0:0:
320,114,27157,1,0,0:0:0:0:
363,109,27240,1,8,0:0:0:0:
401,127,27323,1,8,0:0:0:0:
425,163,27407,2,0,L|424:221,3,48.1250014686585,8|8|8|8,3:2|0:0|0:0|0:0,0:0:0:0:
392,283,27741,5,2,3:2:0:0:
348,281,27824,1,8,0:0:0:0:
305,280,27907,1,8,0:0:0:0:
262,279,27990,1,8,0:0:0:0:
218,276,28074,2,0,L|167:275,3,48.1250014686585,0|8|8|8,3:2|0:0|0:0|0:0,0:0:0:0:
106,344,28407,5,10,3:2:0:0:
78,310,28490,1,0,0:0:0:0:
68,269,28573,1,8,0:0:0:0:
76,227,28656,1,8,0:0:0:0:
101,192,28741,2,0,P|115:177|125:142,3,48.1250014686585,8|8|8|8,3:2|0:0|0:0|0:0,0:0:0:0:
27,55,29074,6,0,P|13:70|3:105,3,48.1250014686585,2|8|4|4,3:2|0:0|0:3|0:3,0:0:0:0:
109,227,29407,1,8,0:3:0:0:
142,225,29490,1,8,0:3:0:0:
176,224,29573,1,4,0:3:0:0:
210,223,29656,1,4,0:3:0:0:
243,222,29741,6,0,P|252:172|233:119,1,96.250002937317,6|0,3:2|0:0,0:0:0:0:
221,250,29991,1,0,3:0:0:0:
221,250,30074,1,8,0:0:0:0:
384,218,30241,1,2,3:2:0:0:
403,216,30324,1,2,0:0:0:0:
422,215,30407,1,2,3:2:0:0:
348,74,30574,1,0,3:0:0:0:
439,308,30741,1,10,0:0:0:0:
507,159,30908,1,0,3:0:0:0:
304,186,31074,6,0,P|249:188|202:183,1,96.250002937317,2|0,3:2|0:0,0:0:0:0:
331,166,31324,1,2,3:2:0:0:
331,166,31407,1,10,0:0:0:0:
193,69,31574,1,2,0:0:0:0:
56,279,31741,5,10,0:0:0:0:
53,235,31824,1,8,0:0:0:0:
50,192,31907,1,8,0:0:0:0:
47,149,31990,1,8,0:0:0:0:
45,106,32074,1,6,3:2:0:0:
45,106,32407,6,0,B|146:77|128:165|226:140,1,192.500005874634,14|0,0:0|3:0,0:0:0:0:
214,282,32907,2,0,P|165:214|231:139,1,192.500005874634,10|0,0:0|3:0,0:0:0:0:
358,216,33407,1,10,0:0:0:0:
240,215,33574,1,2,3:2:0:0:
367,15,33741,6,0,B|368:101|368:101|372:118|372:118|372:210,1,192.500005874634,10|2,0:0|3:2,0:0:0:0:
217,88,34241,2,0,P|299:93|368:7,1,192.500005874634,10|0,0:0|3:0,0:0:0:0:
212,277,34741,1,10,0:0:0:0:
172,259,34824,1,8,0:0:0:0:
130,262,34907,1,8,0:0:0:0:
94,286,34991,1,10,0:0:0:0:
74,324,35074,6,0,P|79:255|75:212,1,96.250002937317,6|0,3:2|0:0,0:0:0:0:
52,347,35324,1,2,3:2:0:0:
52,347,35407,1,10,0:0:0:0:
8,168,35574,1,2,3:2:0:0:
6,148,35657,1,2,0:0:0:0:
4,128,35741,1,2,3:2:0:0:
154,75,35907,1,0,3:0:0:0:
234,262,36074,1,10,0:0:0:0:
107,168,36240,1,0,0:0:0:0:
282,78,36407,6,0,P|275:134|277:186,1,96.250002937317,2|0,3:2|0:0,0:0:0:0:
304,47,36657,1,2,3:2:0:0:
304,47,36741,1,10,0:0:0:0:
142,85,36907,1,2,3:2:0:0:
281,194,37074,5,2,3:2:0:0:
324,192,37157,1,8,0:0:0:0:
367,191,37240,1,8,0:0:0:0:
410,190,37324,1,8,0:0:0:0:
454,189,37407,1,2,3:2:0:0:
454,189,37741,6,0,P|470:135|338:94,1,192.500005874634,14|2,0:0|3:2,0:0:0:0:
467,362,38241,2,0,P|424:276|459:184,1,192.500005874634,10|0,0:0|3:0,0:0:0:0:
270,363,38741,1,10,0:0:0:0:
376,364,38907,1,2,3:2:0:0:
264,247,39074,6,0,B|182:244|182:244|157:255|157:255|62:251,1,192.500005874634,10|2,0:0|3:2,0:0:0:0:
285,59,39574,2,0,B|260:118|260:118|264:253,1,192.500005874634,10|0,0:0|3:0,0:0:0:0:
13,26,40074,1,10,0:0:0:0:
36,61,40157,1,8,0:0:0:0:
72,85,40240,1,8,0:0:0:0:
115,91,40324,1,10,0:0:0:0:
155,73,40407,6,0,P|193:58|258:78,1,96.250002937317,6|0,3:2|0:0,0:0:0:0:
141,114,40657,1,2,3:2:0:0:
141,114,40741,1,10,0:0:0:0:
18,280,40907,1,2,3:0:0:0:
11,261,40991,1,2,0:0:0:0:
4,242,41074,1,2,0:0:0:0:
72,85,41241,1,0,3:0:0:0:
161,308,41407,1,10,0:0:0:0:
85,178,41574,1,0,0:0:0:0:
294,214,41741,6,0,P|236:215|192:212,1,96.250002937317,2|0,3:2|0:0,0:0:0:0:
316,188,41991,1,2,3:2:0:0:
316,188,42074,1,14,0:0:0:0:
262,99,42241,1,2,0:0:0:0:
385,14,42407,6,0,P|403:9|437:18,3,48.1250014686585,10|8|8|8,3:2|0:0|0:0|0:0,0:0:0:0:
501,101,42741,1,6,3:3:0:0:
500,145,42824,1,4,0:3:0:0:
499,188,42907,1,4,0:3:0:0:
498,231,42991,1,4,0:3:0:0:
497,275,43074,5,6,3:2:0:0:
0,0,44407,5,10,0:0:0:0:
245,223,45741,5,6,3:2:0:0:
119,35,45907,1,0,0:0:0:0:
79,338,46074,5,10,0:0:0:0:
171,280,46241,1,0,0:0:0:0:
210,29,46407,5,2,3:2:0:0:
50,158,46573,1,2,3:2:0:0:
367,152,46740,5,10,0:0:0:0:
285,87,46907,1,2,0:0:0:0:
178,375,47074,6,0,P|222:374|275:370,1,87.5,2|0,3:2|3:0,0:0:0:0:
73,154,47407,2,0,P|94:204|78:265,1,87.5,10|0,0:0|0:0,0:0:0:0:
89,42,47741,2,0,P|35:35|-9:-9,1,87.5,2|0,3:3|3:0,0:0:0:0:
177,111,48074,2,0,P|209:67|270:51,1,87.5,10|0,0:0|0:0,0:0:0:0:
441,261,48407,6,0,B|381:258|381:258|370:264|370:264|307:262,1,131.25,2|0,3:2|0:0,0:0:0:0:
481,239,48741,2,0,P|492:197|477:152,1,87.5,10|0,0:0|0:0,0:0:0:0:
303,347,49074,1,2,3:2:0:0:
215,301,49241,2,0,P|202:342|213:384,1,87.5,2|8,3:2|0:0,0:0:0:0:
251,126,49574,1,2,0:0:0:0:
159,181,49741,6,0,P|107:184|63:182,1,87.5,2|2,3:2|3:2,0:0:0:0:
317,319,50074,2,0,B|306:276|306:276|320:226,1,87.5,10|0,0:0|0:0,0:0:0:0:
509,66,50407,5,10,3:2:0:0:
475,93,50490,1,8,0:0:0:0:
433,104,50573,1,10,0:0:0:0:
391,96,50657,1,8,0:0:0:0:
356,67,50741,5,10,3:2:0:0:
317,45,50824,1,8,0:0:0:0:
274,41,50907,1,8,0:0:0:0:
233,56,50991,1,8,0:0:0:0:
206,87,51074,6,0,B|139:111|81:69|81:69|104:70|135:54,1,175,6|8,3:2|0:0,0:0:0:0:
160,234,51741,2,0,P|117:237|72:232,1,87.5,2|0,3:2|3:0,0:0:0:0:
272,359,52074,2,0,P|229:356|184:361,1,87.5,10|0,0:0|0:0,0:0:0:0:
394,177,52407,6,0,P|356:211|389:301,1,131.25,2|0,3:2|0:0,0:0:0:0:
421,148,52741,2,0,P|416:92|417:36,1,87.5,10|0,0:0|0:0,0:0:0:0:
288,245,53074,2,0,P|338:268|386:297,1,87.5,2|0,3:2|3:0,0:0:0:0:
270,81,53407,2,0,P|224:113|175:140,1,87.5,10|0,0:0|0:0,0:0:0:0:
18,223,53741,5,6,3:2:0:0:
55,117,53907,1,0,3:0:0:0:
268,257,54074,2,0,P|213:253|174:256,1,87.5,10|0,0:0|0:0,0:0:0:0:
282,70,54407,2,0,P|337:74|376:71,1,87.5,2|2,3:2|3:2,0:0:0:0:
253,268,54741,2,0,P|198:264|159:267,1,87.5,10|0,0:0|0:0,0:0:0:0:
467,357,55074,6,0,P|461:329|466:296,3,43.75,10|8|8|8,3:2|0:0|0:0|0:0,0:0:0:0:
502,228,55407,2,0,P|508:200|503:167,3,43.75,10|8|8|8,3:2|0:0|0:0|0:0,0:0:0:0:
381,23,55741,5,10,3:2:0:0:
409,54,55824,1,8,0:0:0:0:
414,97,55907,1,8,0:0:0:0:
393,135,55991,1,8,0:0:0:0:
354,152,56074,1,10,3:3:0:0:
320,147,56157,1,8,0:3:0:0:
298,131,56241,1,6,0:3:0:0:
290,115,56324,1,4,0:3:0:0:
288,106,56407,5,6,3:2:0:0:
364,333,56574,1,0,0:0:0:0:
96,178,56741,5,10,0:0:0:0:
192,139,56907,1,0,0:0:0:0:
415,258,57074,5,2,3:2:0:0:
188,334,57241,1,2,3:2:0:0:
343,66,57408,5,10,0:0:0:0:
382,162,57574,1,2,0:0:0:0:
114,1,57741,6,0,P|119:39|118:93,1,87.5,2|0,3:2|3:0,0:0:0:0:
371,43,58074,2,0,P|414:30|467:52,1,87.5,10|0,0:0|0:0,0:0:0:0:
299,144,58407,2,0,P|266:113|258:56,1,87.5,2|0,3:2|3:0,0:0:0:0:
422,155,58741,2,0,P|411:198|366:233,1,87.5,10|0,0:0|0:0,0:0:0:0:
99,353,59074,6,0,B|167:348|167:348|182:352|182:352|249:348,1,131.25,2|0,3:2|0:0,0:0:0:0:
63,336,59407,2,0,P|68:291|68:244,1,87.5,10|0,0:0|0:0,0:0:0:0:
300,381,59741,1,2,3:2:0:0:
342,269,59907,2,0,P|337:314|337:361,1,87.5,2|8,3:2|0:0,0:0:0:0:
229,136,60241,1,2,0:0:0:0:
309,183,60407,6,0,B|355:192|355:192|400:180,1,87.5,2|0,3:2|3:0,0:0:0:0:
204,28,60741,2,0,P|201:71|201:119,1,87.5,10|0,0:0|0:0,0:0:0:0:
84,302,61074,2,0,P|86:258|87:211,1,87.5,2|2,3:2|3:2,0:0:0:0:
274,375,61407,1,10,0:0:0:0:
242,346,61490,1,8,0:0:0:0:
242,304,61573,1,10,0:0:0:0:
273,275,61657,1,8,0:0:0:0:
315,279,61741,6,0,B|425:275|350:200|481:198,1,175,6|8,3:2|0:0,0:0:0:0:
87,263,62407,2,0,P|38:265|-2:261,1,87.5,2|0,3:2|3:0,0:0:0:0:
220,373,62741,2,0,P|171:371|131:375,1,87.5,10|0,0:0|0:0,0:0:0:0:
327,212,63074,6,0,P|292:236|316:317,1,131.25,2|0,3:2|0:0,0:0:0:0:
357,184,63407,2,0,P|303:178|254:164,1,87.5,10|2,0:0|0:0,0:0:0:0:
450,247,63741,2,0,P|471:296|484:346,1,87.5,2|0,3:2|3:0,0:0:0:0:
456,133,64075,2,0,P|488:89|524:53,1,87.5,10|0,0:0|0:0,0:0:0:0:
213,45,64407,5,6,3:2:0:0:
326,2,64574,1,0,3:0:0:0:
168,207,64741,2,0,P|170:159|164:108,1,87.5,8|0,0:0|0:0,0:0:0:0:
357,269,65074,1,0,3:0:0:0:
307,153,65241,1,0,3:0:0:0:
116,350,65407,1,8,0:0:0:0:
166,234,65574,1,0,0:0:0:0:
266,384,65741,6,0,P|321:382|366:385,1,87.5,2|0,3:2|3:0,0:0:0:0:
247,220,66074,2,0,P|192:222|147:219,1,87.5,12|2,0:0|0:0,0:0:0:0:
35,3,66407,5,2,3:2:0:0:
7,34,66490,1,8,0:0:0:0:
2,77,66573,1,8,0:0:0:0:
23,115,66657,1,8,0:0:0:0:
62,132,66740,1,10,3:2:0:0:
96,127,66823,1,8,0:0:0:0:
118,111,66907,1,8,0:0:0:0:
126,95,66990,1,8,0:0:0:0:
128,86,67073,5,6,3:2:0:0:
0,384,68407,5,10,0:0:0:0:
156,235,69741,6,0,P|169:179|145:127,1,96.250002937317,6|0,3:2|0:0,0:0:0:0:
126,256,69991,1,0,3:0:0:0:
126,256,70074,1,8,0:0:0:0:
274,74,70241,1,2,3:2:0:0:
281,91,70324,1,2,0:0:0:0:
288,108,70408,1,2,3:2:0:0:
246,240,70574,1,0,3:0:0:0:
57,204,70741,1,10,0:0:0:0:
99,336,70907,1,0,3:0:0:0:
194,111,71074,6,0,P|239:103|293:110,1,96.250002937317,2|0,3:2|0:0,0:0:0:0:
169,140,71324,1,2,3:2:0:0:
169,140,71408,1,10,0:0:0:0:
226,22,71574,1,2,3:2:0:0:
336,243,71741,1,2,3:2:0:0:
218,207,71908,1,0,3:0:0:0:
309,49,72074,1,10,0:0:0:0:
189,16,72241,1,0,3:0:0:0:
416,166,72408,6,0,P|411:116|422:48,1,96.250002937317,2|0,3:2|0:0,0:0:0:0:
440,195,72658,1,0,3:0:0:0:
440,195,72741,1,8,0:0:0:0:
306,280,72908,1,2,3:2:0:0:
286,280,72991,1,2,0:0:0:0:
266,279,73074,1,2,3:2:0:0:
473,384,73241,1,0,3:0:0:0:
512,194,73408,1,10,0:0:0:0:
380,334,73575,1,0,3:0:0:0:
322,158,73741,6,0,P|274:175|226:158,1,96.250002937317,2|0,3:2|0:0,0:0:0:0:
350,171,73991,1,2,3:2:0:0:
350,171,74074,1,10,0:0:0:0:
280,16,74241,1,2,3:2:0:0:
372,268,74408,1,2,3:2:0:0:
455,125,74574,1,0,3:0:0:0:
330,384,74741,1,10,0:0:0:0:
247,241,74907,1,0,3:0:0:0:
148,375,75074,6,0,P|99:374|50:366,1,96.250002937317,6|0,3:2|0:0,0:0:0:0:
175,353,75324,1,0,3:0:0:0:
175,353,75408,1,8,0:0:0:0:
52,222,75574,1,2,3:2:0:0:
60,204,75657,1,2,0:0:0:0:
69,186,75741,1,2,3:2:0:0:
285,194,75908,1,0,3:0:0:0:
57,56,76074,1,10,0:0:0:0:
170,234,76241,1,0,3:0:0:0:
278,43,76408,6,0,P|324:39|388:42,1,96.250002937317,2|0,3:2|0:0,0:0:0:0:
250,63,76658,1,2,3:2:0:0:
250,63,76741,1,10,0:0:0:0:
430,122,76908,1,2,3:2:0:0:
281,287,77074,1,2,3:2:0:0:
326,118,77241,1,0,3:0:0:0:
444,367,77407,1,10,0:0:0:0:
489,198,77574,1,0,3:0:0:0:
320,365,77741,6,0,P|263:375|215:345,1,96.250002937317,2|0,3:2|0:0,0:0:0:0:
352,351,77991,1,0,3:0:0:0:
352,351,78074,1,8,0:0:0:0:
209,240,78241,1,2,3:2:0:0:
190,245,78324,1,2,0:0:0:0:
171,250,78407,1,2,3:2:0:0:
372,207,78574,1,0,3:0:0:0:
119,117,78741,1,14,0:0:0:0:
320,74,78908,1,0,0:0:0:0:
36,93,79074,6,0,P|32:119|35:143,3,48.1250014686585,8|8|8|8,3:2|0:0|0:0|0:0,0:0:0:0:
53,254,79407,1,8,3:2:0:0:
65,290,79490,1,8,0:0:0:0:
98,311,79573,1,8,0:0:0:0:
137,305,79656,1,8,0:0:0:0:
161,278,79741,6,0,P|185:265|218:267,3,48.1250014686585,8|8|8|8,3:2|0:0|0:0|0:0,0:0:0:0:
346,384,80074,1,8,3:2:0:0:
347,340,80157,1,8,0:0:0:0:
350,296,80240,1,8,0:0:0:0:
354,252,80323,1,8,0:0:0:0:
356,209,80407,5,6,3:2:0:0:
235,249,80662,1,2,0:0:0:0:
111,289,80918,1,2,0:0:0:0:
195,126,81088,5,2,0:0:0:0:
235,249,81352,1,2,0:0:0:0:
274,371,81617,1,2,0:0:0:0:
111,289,81793,5,2,0:0:0:0:
235,249,82050,1,2,0:0:0:0:
357,209,82307,1,2,0:0:0:0:
274,371,82478,5,2,0:0:0:0:
235,249,82744,1,2,0:0:0:0:
195,126,83010,1,2,0:0:0:0:
256,192,83099,12,0,87625,0:0:0:0:
63,284,87803,6,0,B|57:271|62:253|62:253|89:253|89:253|96:256|96:256|127:256|127:256|135:239|123:208,1,131.25,2|0,0:0|0:0,0:0:0:0:
