osu file format v14

[General]
AudioFilename: audio.mp3
AudioLeadIn: 0
PreviewTime: 44991
Countdown: 0
SampleSet: Soft
StackLeniency: 0.7
Mode: 0
LetterboxInBreaks: 0
WidescreenStoryboard: 1

[Editor]
DistanceSpacing: 1
BeatDivisor: 4
GridSize: 32
TimelineZoom: 2.100001

[Metadata]
Title:Miss Tail (Cut Ver.)
TitleUnicode:ミステイル (Cut Ver.)
Artist:THE ORAL CIGARETTES
ArtistUnicode:THE ORAL CIGARETTES
Creator:Fufla
Version:Normal
Source:
Tags:dkblaze jeby buddon before it's too late its edit version short rock cigs japanese jrock j-rock toc 5150 あきらかにあきら Akira Akirakani 中西雅哉 Masaya Nakanishi 山中拓也 Takuya Yamanaka 鈴木重伸 Shigenobu Suzuki
BeatmapID:3942613
BeatmapSetID:1910614

[Difficulty]
HPDrainRate:3
CircleSize:3
OverallDifficulty:4
ApproachRate:5
SliderMultiplier:1.1
SliderTickRate:1

[Events]
//Background and Video events
0,0,"77559996_p0.jpg",0,0
//Break Periods
//Storyboard Layer 0 (Background)
//Storyboard Layer 1 (Fail)
//Storyboard Layer 2 (Pass)
//Storyboard Layer 3 (Foreground)
//Storyboard Layer 4 (Overlay)
//Storyboard Sound Samples

[TimingPoints]
408,333.333333333333,4,2,6,65,1,0
408,-105.263157894737,4,2,6,65,0,0
11074,-100,4,2,6,75,0,0
27074,-95.2380952380952,4,2,6,75,0,0
29741,-100,4,2,6,75,0,0
32407,-105.263157894737,4,2,6,70,0,0
43074,-105.263157894737,4,2,6,60,0,0
44407,-105.263157894737,4,2,6,75,0,0
45741,-95.2380952380952,4,2,6,80,0,0
67074,-95.2380952380952,4,2,6,75,0,0
69741,-100,4,2,6,75,0,0
80407,340.909090909091,4,2,6,60,1,0
81088,352.941176470588,4,2,6,60,1,0
81793,342.857142857143,4,2,6,60,1,0
82478,355.029585798817,4,2,6,60,1,0

[Colours]
Combo1 : 168,104,162
Combo2 : 55,83,147
Combo3 : 118,99,173
Combo4 : 201,160,197

[HitObjects]
164,192,408,6,0,P|174:243|182:298,2,104.499997209549,2|8|0,3:2|0:0|3:0,0:0:0:0:
142,89,1407,1,10,0:0:0:0:
243,115,1741,2,0,P|290:129|362:106,1,104.499997209549,2|8,3:2|0:0,0:0:0:0:
394,105,2241,2,0,P|404:177|423:279,1,156.749995814324,2|10,0:0|0:0,0:0:0:0:
326,308,3074,2,0,B|284:277|284:277|223:284,2,104.499997209549,2|8|0,3:2|0:0|3:0,0:0:0:0:
407,373,4074,1,8,0:0:0:0:
484,303,4407,2,0,P|474:246|466:181,1,104.499997209549,2|8,3:2|0:0,0:0:0:0:
453,149,4907,2,0,B|395:141|395:141|363:159|363:159|285:146,1,156.749995814324,2|10,0:0|0:0,0:0:0:0:
197,139,5741,6,0,P|179:184|208:251,2,104.499997209549,2|8|0,3:2|0:0|3:0,0:0:0:0:
271,65,6741,1,10,0:0:0:0:
179,14,7074,2,0,P|113:12|63:6,1,104.499997209549,2|8,3:2|0:0,0:0:0:0:
22,4,7574,2,0,B|-11:48|-11:48|20:154,1,156.749995814324,2|10,0:0|0:0,0:0:0:0:
80,229,8407,2,0,P|119:190|183:193,1,104.499997209549,2|8,3:2|0:0,0:0:0:0:
257,237,9074,1,0,3:0:0:0:
203,326,9407,2,0,P|177:331|151:335,1,52.2499986047745,10|8,0:0|0:0,0:0:0:0:
99,341,9741,5,2,3:2:0:0:
99,341,10741,1,6,3:2:0:0:
83,232,11074,6,0,P|137:253|179:204,1,110,6|8,3:2|0:0,0:0:0:0:
217,189,11574,1,2,3:2:0:0:
217,189,11741,2,0,P|203:143|184:71,1,110,2|10,3:2|0:0,0:0:0:0:
277,20,12407,2,0,P|319:49|390:33,1,110,2|8,3:2|0:0,0:0:0:0:
433,35,12907,1,2,3:2:0:0:
433,35,13074,1,2,3:2:0:0:
500,121,13407,1,10,0:0:0:0:
408,183,13741,6,0,B|415:226|415:226|402:254|402:254|408:288,1,110,2|8,3:2|0:0,0:0:0:0:
416,348,14241,1,2,3:2:0:0:
416,348,14407,1,2,3:2:0:0:
314,304,14741,1,10,0:0:0:0:
206,325,15074,2,0,P|209:351|213:383,2,55,2|2|8,3:2|0:0|0:0,0:0:0:0:
183,280,15574,1,2,3:2:0:0:
183,280,15741,2,0,P|138:294|79:249,1,110,2|10,3:2|0:0,0:0:0:0:
73,154,16407,6,0,P|86:96|100:34,1,110,6|8,3:2|0:0,0:0:0:0:
134,7,16907,1,2,3:2:0:0:
134,7,17074,2,0,P|164:55|233:43,1,110,2|10,3:2|0:0,0:0:0:0:
322,43,17741,2,0,P|329:83|339:166,1,110,2|10,3:2|0:0,0:0:0:0:
347,206,18241,1,2,3:2:0:0:
347,206,18407,1,2,3:2:0:0:
251,261,18741,1,10,0:0:0:0:
259,370,19074,6,0,P|210:352|141:348,1,110,2|8,3:2|0:0,0:0:0:0:
103,336,19574,1,2,3:2:0:0:
103,336,19741,1,2,3:2:0:0:
137,231,20074,1,10,0:0:0:0:
112,123,20407,2,0,P|139:121|176:105,1,55,2|0,3:2|3:0,0:0:0:0:
219,99,20741,1,12,0:0:0:0:
321,58,21074,2,0,P|325:89|330:133,1,55,10|8,0:0|0:0,0:0:0:0:
333,167,21407,1,10,0:3:0:0:
344,276,21741,6,0,P|309:279|281:305,1,55,6|0,3:2|0:0,0:0:0:0:
245,312,22074,1,8,0:0:0:0:
245,312,22241,2,0,B|186:304|186:304|148:339|148:339|92:328,1,165,2|8,3:2|0:0,0:0:0:0:
2,280,23074,2,0,P|19:258|24:231,1,55,2|0,3:2|0:0,0:0:0:0:
35,177,23407,1,8,0:0:0:0:
35,177,23574,2,0,B|87:191|87:191|132:150|132:150|188:161,1,165,2|8,3:2|0:0,0:0:0:0:
290,176,24407,6,0,P|296:145|306:104,2,55,2|0|8,3:2|3:2|0:0,0:0:0:0:
291,235,24907,1,2,3:2:0:0:
291,235,25074,2,0,P|350:222|393:264,1,110,2|10,3:2|0:0,0:0:0:0:
355,355,25741,2,0,P|286:346|225:338,1,110,2|8,3:2|0:0,0:0:0:0:
192,325,26241,1,2,0:0:0:0:
192,325,26407,2,0,P|180:298|191:249,1,55,10|4,0:0|0:3,0:0:0:0:
191,218,26741,1,14,0:0:0:0:
256,123,27074,6,0,P|287:118|322:116,1,57.7499982376099,10|8,3:2|0:0,0:0:0:0:
349,71,27407,2,0,P|377:73|406:77,1,57.7499982376099,8|8,3:2|0:0,0:0:0:0:
462,92,27741,1,10,3:2:0:0:
511,196,28074,1,8,3:2:0:0:
413,257,28407,2,0,P|375:258|349:273,1,57.7499982376099,10|8,3:2|0:0,0:0:0:0:
320,311,28741,2,0,P|282:310|256:295,1,57.7499982376099,8|8,3:2|0:0,0:0:0:0:
225,259,29074,2,0,B|169:240|137:301|156:296|114:337|56:311,1,173.24999471283,10|4,3:2|0:3,0:0:0:0:
18,320,29741,5,6,3:2:0:0:
70,222,30074,1,8,0:0:0:0:
25,119,30407,2,0,P|71:113|138:98,1,110,2|10,3:2|0:0,0:0:0:0:
238,67,31074,2,0,P|265:62|292:66,1,55,2|0,3:2|0:0,0:0:0:0:
345,80,31407,1,8,0:0:0:0:
434,144,31741,2,0,P|428:184|426:216,1,55,10|8,0:0|0:0,0:0:0:0:
389,238,32074,2,0,P|395:278|397:310,1,55,6|0,3:2|0:0,0:0:0:0:
378,341,32407,6,0,P|301:320|214:309,2,156.749995814324,14|10|10,0:0|0:0|0:0,0:0:0:0:
479,313,33741,2,0,P|500:236|511:149,1,156.749995814324,10|10,0:0|0:0,0:0:0:0:
507,107,34407,1,2,3:2:0:0:
413,60,34741,2,0,P|379:59|348:46,1,52.2499986047745,10|8,0:0|0:0,0:0:0:0:
311,40,35074,5,6,3:2:0:0:
224,98,35407,1,8,0:0:0:0:
282,185,35741,2,0,P|276:236|269:306,1,104.499997209549,2|10,3:2|0:0,0:0:0:0:
198,364,36407,2,0,P|177:346|139:340,1,52.2499986047745,2|2,3:2|0:0,0:0:0:0:
117,300,36741,2,0,P|96:318|58:324,1,52.2499986047745,10|2,0:0|0:0,0:0:0:0:
20,320,37074,2,0,B|39:271|39:271|27:201,1,104.499997209549,10|10,3:2|3:2,0:0:0:0:
79,127,37741,6,0,P|138:184|208:163,2,156.749995814324,14|10|10,0:0|0:0|0:0,0:0:0:0:
170,76,39074,2,0,P|243:61|294:116,1,156.749995814324,10|10,0:0|0:0,0:0:0:0:
306,167,39741,1,2,3:2:0:0:
354,260,40074,2,0,P|348:292|337:328,1,52.2499986047745,10|8,0:0|0:0,0:0:0:0:
342,363,40407,6,0,P|388:371|437:340,1,104.499997209549,6|8,3:2|0:0,0:0:0:0:
492,254,41074,1,2,0:0:0:0:
428,171,41407,1,10,0:0:0:0:
490,86,41741,2,0,P|462:80|433:67,1,52.2499986047745,2|2,3:2|0:0,0:0:0:0:
406,31,42074,2,0,P|381:40|356:46,1,52.2499986047745,10|2,0:0|0:0,0:0:0:0:
306,60,42407,2,0,P|316:122|326:174,1,104.499997209549,10|6,3:2|3:3,0:0:0:0:
338,218,42907,1,4,0:3:0:0:
338,218,43074,6,0,B|183:223|279:32|92:4|0:95,1,417.999988838196,6|14,3:2|3:2,0:0:0:0:
460,20,45741,6,0,P|453:74|444:155,1,115.49999647522,6|10,3:2|0:0,0:0:0:0:
485,184,46241,1,2,0:0:0:0:
485,184,46407,2,0,P|483:221|468:257,1,57.7499982376099,2|2,3:2|3:2,0:0:0:0:
420,256,46741,2,0,P|421:293|430:324,1,57.7499982376099,10|2,0:0|0:0,0:0:0:0:
442,368,47074,1,2,3:2:0:0:
327,353,47407,2,0,P|274:342|211:332,1,115.49999647522,10|2,0:0|3:3,0:0:0:0:
162,318,47907,1,0,3:0:0:0:
162,318,48074,1,10,0:0:0:0:
149,203,48407,6,0,P|181:217|217:214,1,57.7499982376099,2|0,3:2|3:0,0:0:0:0:
235,177,48741,2,0,P|260:165|289:163,1,57.7499982376099,10|0,0:0|0:0,0:0:0:0:
346,190,49074,1,2,3:2:0:0:
346,190,49241,1,2,3:2:0:0:
350,78,49574,1,2,0:0:0:0:
350,78,49741,2,0,P|388:67|418:62,1,57.7499982376099,2|0,3:2|3:2,0:0:0:0:
463,54,50074,1,10,0:0:0:0:
488,166,50407,2,0,L|474:238,1,57.7499982376099,10|8,3:2|0:0,0:0:0:0:
430,257,50741,2,0,L|444:329,1,57.7499982376099,10|8,3:2|0:0,0:0:0:0:
446,371,51074,6,0,P|413:357|335:373,1,115.49999647522,6|8,3:2|0:0,0:0:0:0:
263,282,51741,2,0,P|234:289|200:296,1,57.7499982376099,2|0,3:2|3:0,0:0:0:0:
149,302,52074,1,10,0:0:0:0:
43,350,52407,2,0,P|40:285|23:215,1,115.49999647522,2|10,3:2|0:0,0:0:0:0:
23,120,53074,2,0,P|55:127|88:113,1,57.7499982376099,2|0,3:2|3:0,0:0:0:0:
114,74,53407,2,0,P|141:66|169:74,1,57.7499982376099,10|0,0:0|0:0,0:0:0:0:
227,80,53741,6,0,B|259:117|259:117|235:189,1,115.49999647522,6|10,3:2|0:0,0:0:0:0:
208,291,54407,2,0,P|246:300|273:326,1,57.7499982376099,2|0,3:2|3:2,3:2:0:0:
309,342,54741,1,10,0:0:0:0:
383,254,55074,2,0,P|385:223|395:179,1,57.7499982376099,10|8,3:2|0:0,0:0:0:0:
430,155,55407,2,0,P|428:124|418:80,1,57.7499982376099,10|8,3:2|0:0,0:0:0:0:
413,40,55741,2,0,P|350:50|290:19,1,115.49999647522,10|10,3:2|3:3,0:0:0:0:
189,16,56407,6,0,P|183:72|175:142,1,115.49999647522,6|10,3:2|0:0,0:0:0:0:
141,178,56907,1,2,0:0:0:0:
141,178,57074,2,0,P|149:210|150:244,1,57.7499982376099,2|2,3:2|3:2,0:0:0:0:
196,269,57407,2,0,P|187:301|187:335,1,57.7499982376099,10|2,0:0|0:0,0:0:0:0:
181,383,57741,1,2,3:2:0:0:
285,335,58074,2,0,P|339:317|412:305,1,115.49999647522,10|2,0:0|3:2,0:0:0:0:
456,294,58574,1,0,3:0:0:0:
456,294,58741,1,10,0:0:0:0:
408,188,59074,6,0,P|396:143|371:61,1,115.49999647522,2|10,3:2|0:0,0:0:0:0:
275,32,59741,1,2,3:2:0:0:
275,32,59907,2,0,P|230:20|165:58,1,115.49999647522,2|2,3:2|0:0,0:0:0:0:
132,93,60407,2,0,P|135:123|145:159,1,57.7499982376099,2|2,3:2|3:0,0:0:0:0:
93,182,60741,2,0,P|89:212|80:248,1,57.7499982376099,10|0,0:0|0:0,0:0:0:0:
106,291,61074,1,2,3:2:0:0:
215,329,61407,2,0,P|239:311|289:316,1,57.7499982376099,10|8,0:0|0:0,0:0:0:0:
324,306,61741,6,0,B|343:250|343:250|309:190,1,115.49999647522,6|8,3:2|0:0,0:0:0:0:
228,124,62407,2,0,P|244:73|245:60,1,57.7499982376099,2|0,3:2|3:0,0:0:0:0:
256,12,62741,1,10,0:0:0:0:
367,39,63074,2,0,P|383:90|384:103,1,57.7499982376099,2|0,3:2|3:0,0:0:0:0:
394,151,63408,1,10,0:0:0:0:
400,266,63741,2,0,P|353:248|320:253,1,57.7499982376099,2|0,3:2|3:0,0:0:0:0:
298,215,64074,2,0,P|280:237|255:252,1,57.7499982376099,10|2,0:0|0:0,0:0:0:0:
198,264,64407,6,0,B|153:251|153:251|129:261|129:261|86:246,1,115.49999647522,6|8,3:2|0:0,0:0:0:0:
29,147,65074,2,0,P|78:151|145:123,1,115.49999647522,0|8,3:0|0:0,0:0:0:0:
241,71,65741,2,0,P|267:87|311:99,1,57.7499982376099,2|0,3:2|3:0,0:0:0:0:
348,109,66074,1,12,0:0:0:0:
413,204,66407,2,0,P|405:236|399:270,1,57.7499982376099,10|8,3:2|0:0,0:0:0:0:
366,307,66741,2,0,P|338:316|310:324,1,57.7499982376099,10|8,3:2|0:0,0:0:0:0:
253,327,67074,6,0,B|192:335|184:217|184:217|142:300|60:355|-4:295|-5:210|82:172|113:207,1,461.999985900879,6|14,3:2|3:2,0:0:0:0:
507,34,69741,6,0,P|498:88|482:162,1,110,6|8,3:2|0:0,0:0:0:0:
473,195,70241,1,2,3:2:0:0:
473,195,70407,2,0,P|425:180|365:226,1,110,2|10,3:2|0:0,0:0:0:0:
302,289,71074,2,0,B|253:295|253:295|231:316|231:316|190:323,1,110,2|8,3:2|0:0,0:0:0:0:
146,325,71574,1,2,3:2:0:0:
146,325,71741,1,2,3:2:0:0:
53,265,72074,1,10,0:0:0:0:
91,161,72407,6,0,B|137:150|137:150|157:158|157:158|214:144,1,110,2|8,3:2|0:0,0:0:0:0:
251,145,72907,1,2,3:2:0:0:
251,145,73074,1,2,3:2:0:0:
314,55,73407,1,10,0:0:0:0:
377,145,73741,2,0,P|404:139|431:137,2,55,2|2|8,3:2|0:0|0:0,0:0:0:0:
345,191,74241,1,2,3:2:0:0:
345,191,74407,2,0,P|350:253|358:306,1,110,2|10,3:2|0:0,0:0:0:0:
255,344,75074,6,0,P|204:315|147:345,1,110,6|8,3:2|0:0,0:0:0:0:
110,351,75574,1,2,3:2:0:0:
110,351,75741,2,0,P|100:286|92:225,1,110,2|10,3:2|0:0,0:0:0:0:
81,132,76407,2,0,P|134:157|208:162,1,110,2|8,3:2|0:0,0:0:0:0:
243,161,76907,1,2,3:2:0:0:
243,161,77074,1,2,3:2:0:0:
269,54,77407,1,10,0:0:0:0:
378,39,77741,6,0,B|433:32|433:32|475:85,1,110,2|8,3:2|0:0,0:0:0:0:
496,127,78241,1,2,3:2:0:0:
496,127,78407,2,0,P|485:152|478:179,1,55,2|0,3:2|3:0,0:0:0:0:
460,231,78741,1,14,0:0:0:0:
350,231,79074,2,0,P|307:244|236:294,1,110,10|8,3:2|3:2,0:0:0:0:
208,310,79574,1,8,0:0:0:0:
208,310,79741,2,0,P|185:296|170:259,1,55,8|8,3:2|0:0,0:0:0:0:
124,246,80074,2,0,P|118:219|124:193,1,55,8|8,3:2|0:0,0:0:0:0:
147,144,80407,5,6,3:2:0:0:
256,192,80577,12,2,87803,0:0:0:0:
