osu file format v14

[General]
AudioFilename: audio.mp3
AudioLeadIn: 0
PreviewTime: 52065
Countdown: 0
SampleSet: Soft
StackLeniency: 0.7
Mode: 0
LetterboxInBreaks: 0
WidescreenStoryboard: 1

[Editor]
Bookmarks: 51866
DistanceSpacing: 0.4
BeatDivisor: 4
GridSize: 32
TimelineZoom: 2.799999

[Metadata]
Title:MACHINEGUN (TV Size)
TitleUnicode:MACHINEGUN (TV Size)
Artist:THE ORAL CIGARETTES
ArtistUnicode:THE ORAL CIGARETTES
Creator:Nevo
Version:xChorse's Insane
Source:SCARLET NEXUS
Tags:Shirahane Suou torriru sotarks xchorse addy2607 anime japanese rock opening jrock j-rock op
BeatmapID:3255469
BeatmapSetID:1591563

[Difficulty]
HPDrainRate:5
CircleSize:4
OverallDifficulty:7
ApproachRate:9
SliderMultiplier:1.7
SliderTickRate:1

[Events]
//Background and Video events
0,0,"0dc90f89-1b2f-4f8b-8106-2a1b7111365e-min.png",0,0
Video,-185,"scarlet_nexus_op2.mp4"
//Break Periods
2,42710,46987
//Storyboard Layer 0 (Background)
//Storyboard Layer 1 (Fail)
//Storyboard Layer 2 (Pass)
//Storyboard Layer 3 (Foreground)
//Storyboard Layer 4 (Overlay)
//Storyboard Sound Samples

[TimingPoints]
1659,319.148936170213,4,2,1,70,1,0
8361,-83.3333333333333,3,2,1,70,0,0
9478,-200,3,2,1,70,0,0
11073,-181.818181818181,3,2,1,70,0,0
11712,-100,3,2,1,80,0,0
15541,-66.6666666666667,3,2,1,80,0,0
15861,-100,3,2,1,80,0,0
20010,-76.9230769230769,3,2,1,80,0,0
21446,-500,3,2,1,80,0,0
21924,-100,3,2,1,70,0,0
29744,-133.333333333333,3,2,1,70,0,0
32297,-100,3,2,1,70,0,0
47616,-100,3,2,1,70,0,0
50169,-100,3,2,1,70,0,0
52722,-86.9565217391304,3,2,1,90,0,1
69956,-333.333333333333,3,2,1,90,0,0
70595,-80,3,2,1,90,0,1
73148,-86.9565217391304,3,2,1,90,0,1
75701,-68.9655172413793,3,2,1,90,0,1
78254,-86.9565217391304,3,2,1,90,0,1
80807,-64.5161290322581,3,2,1,90,0,1
83361,-86.9565217391304,3,2,1,90,0,1
85914,-333.333333333333,3,2,1,80,0,0
87031,-100,3,2,1,80,0,0
88148,-100,3,2,1,50,0,0

[Colours]
Combo1 : 174,174,174
Combo2 : 224,95,95
Combo3 : 151,151,255

[HitObjects]
512,297,1659,6,0,L|502:240,1,42.5,10|0,0:0|0:0,0:0:0:0:
429,192,1818,2,0,L|439:135,5,42.5,10|0|2|0|0|0,0:0|0:0|0:0|0:0|0:0|0:0,0:0:0:0:
421,200,2297,2,0,B|378:198|378:198|374:195|374:195|320:191,1,85
281,310,2616,6,0,L|271:253,1,42.5,10|0,0:0|0:0,0:0:0:0:
198,205,2775,2,0,L|208:148,6,42.5,10|0|2|0|0|0|2,0:0|0:0|0:0|0:0|0:0|0:0|0:0,0:0:0:0:
173,308,3414,5,0,3:0:0:0:
147,311,3494,1,0,3:0:0:0:
121,314,3573,1,12,0:0:0:0:
74,242,3733,1,8,3:3:0:0:
117,168,3893,1,8,3:3:0:0:
70,96,4053,1,8,3:3:0:0:
127,33,4212,6,0,P|177:29|193:38,1,42.5,10|0,0:0|0:0,0:0:0:0:
247,85,4371,2,0,P|268:85|288:78,5,42.5,10|0|2|0|0|0,0:0|0:0|0:0|0:0|0:0|0:0,0:0:0:0:
230,77,4850,2,0,B|232:113|232:113|235:117|235:117|237:160,1,85
117,206,5169,6,0,P|167:202|183:211,1,42.5,10|0,0:0|0:0,0:0:0:0:
237,258,5329,2,0,P|258:258|278:251,6,42.5,10|0|2|0|0|0|2,0:0|0:0|0:0|0:0|0:0|0:0|0:0,0:0:0:0:
467,157,5967,5,8,3:3:0:0:
470,183,6047,1,8,3:3:0:0:
473,209,6126,1,14,0:0:0:0:
478,320,6286,1,8,0:0:0:0:
462,334,6365,1,8,0:0:0:0:
442,342,6445,1,8,3:3:0:0:
421,343,6525,1,8,3:3:0:0:
401,337,6605,1,8,3:3:0:0:
361,200,6765,6,0,L|351:257,1,42.5,10|0,0:0|0:0,0:0:0:0:
278,305,6924,2,0,L|288:362,5,42.5,10|0|2|0|0|0,0:0|0:0|3:2|0:0|0:0|0:0,0:0:0:0:
271,293,7403,2,0,P|231:311|170:284,1,85
101,236,7722,6,0,L|91:293,1,42.5,10|0,0:0|0:0,0:0:0:0:
20,339,7882,2,0,L|28:398,5,42.5,10|0|2|0|0|0,0:0|0:0|3:2|0:0|0:0|0:0,0:0:0:0:
0,243,8361,5,10,0:0:0:0:
56,135,8520,1,8,0:0:0:0:
74,144,8600,1,8,0:0:0:0:
87,159,8680,1,8,3:3:0:0:
225,66,8839,5,8,3:3:0:0:
145,87,8999,1,8,3:3:0:0:
84,32,9159,1,12,0:0:0:0:
295,200,9478,6,0,L|301:180,1,21.25,6|0,3:2|0:0,0:0:0:0:
40,304,9797,2,0,L|45:324,1,21.25,6|0,3:2|0:0,0:0:0:0:
84,32,10116,6,0,L|78:11,1,21.25,6|0,3:2|0:0,0:0:0:0:
144,89,10276,1,8,0:0:0:0:
105,166,10435,1,6,3:2:0:0:
374,207,10754,6,0,L|379:186,1,21.25,6|0,3:2|0:0,0:0:0:0:
314,264,10914,1,8,0:0:0:0:
353,341,11073,2,0,B|398:363|434:331|425:309|461:282|516:303,1,163.625004993439,6|0,3:2|0:0,0:0:0:0:
504,341,11712,6,0,B|459:363|423:331|432:309|396:282|341:303,1,170,6|2,3:2|3:0,0:0:0:0:
260,361,12190,1,10,0:0:0:0:
201,238,12350,1,0,3:0:0:0:
189,255,12429,1,8,0:0:0:0:
183,276,12509,1,2,3:0:0:0:
86,338,12669,1,2,3:0:0:0:
0,254,12829,1,10,0:0:0:0:
122,27,12988,6,0,B|170:70|170:70|140:194,1,170,2|2,3:2|3:0,0:0:0:0:
14,145,13467,2,0,P|54:103|94:101,1,85,10|2,0:0|3:0,0:0:0:0:
254,184,13786,2,0,P|293:171|318:137,1,85,0|0,3:0|3:0,0:0:0:0:
318,124,14026,1,0,3:0:0:0:
310,112,14105,1,8,0:0:0:0:
173,233,14265,6,0,P|263:218|341:262,1,170,6|2,3:2|3:0,0:0:0:0:
481,352,14744,2,0,B|503:316|503:316|479:280,1,85,10|0,0:0|3:0,0:0:0:0:
398,115,15063,2,0,B|374:150|374:150|396:186,1,85,2|0,3:0|3:0,0:0:0:0:
407,194,15302,1,0,3:0:0:0:
419,196,15382,1,10,0:0:0:0:
512,42,15541,6,0,B|475:67|446:53|446:53|426:35|400:28|400:28|372:48|328:35,1,191.250007295609,6|0,3:2|0:0,0:0:0:0:
318,33,15861,1,2,3:0:0:0:
287,141,16020,1,10,0:0:0:0:
193,54,16180,1,0,3:0:0:0:
200,64,16260,1,0,3:0:0:0:
201,76,16339,1,8,0:0:0:0:
122,196,16499,1,8,0:0:0:0:
118,185,16578,1,8,0:0:0:0:
117,175,16659,1,8,0:0:0:0:
117,164,16738,1,8,0:0:0:0:
123,154,16818,6,0,B|151:143|151:143|157:169|148:186|148:186|46:171,1,170,6|2,3:2|3:0,0:0:0:0:
0,254,17296,1,10,0:0:0:0:
97,339,17456,1,0,3:0:0:0:
109,322,17535,1,0,3:0:0:0:
115,301,17615,1,2,3:2:0:0:
188,235,17775,1,0,3:0:0:0:
273,282,17935,1,10,0:0:0:0:
454,187,18094,6,0,B|444:151|404:144|404:144|280:174,1,170,2|2,3:2|3:0,0:0:0:0:
212,106,18573,2,0,L|300:85,1,85,10|2,0:0|0:0,0:0:0:0:
336,245,18893,2,0,L|248:266,1,85,2|0,3:0|3:0,0:0:0:0:
241,263,19132,1,0,3:0:0:0:
230,256,19212,1,8,0:0:0:0:
108,315,19371,6,0,B|90:312|85:295|85:295|109:272|109:272|86:263|86:263|95:245|95:245|87:234|87:234|88:221|88:221|84:208|84:208|80:188,1,170,6|0,3:2|3:0,0:0:0:0:
254,362,19850,1,8,0:0:0:0:
336,245,20010,6,0,B|361:243|366:226|366:226|328:203|328:203|363:194|363:194|340:176|340:176|363:165|363:165|354:143|354:143|361:128|361:128|373:77,1,220.999989883423,6|0,3:2|3:0,0:0:0:0:
254,362,20489,1,8,0:0:0:0:
108,315,20648,6,0,P|84:312|50:320,1,55.2499974708558,6|0,3:2|0:0,0:0:0:0:
336,245,20967,6,0,P|355:230|388:220,1,55.2499974708558,6|0,3:2|0:0,0:0:0:0:
197,96,21286,1,0,3:0:0:0:
190,109,21366,1,0,3:0:0:0:
189,124,21446,2,0,P|210:126|231:120,1,42.5,8|0,0:0|0:0,0:0:0:0:
221,90,21924,6,0,B|211:166|211:166|213:172|213:172|199:268,1,170,6|2,3:2|3:2,0:2:0:0:
209,266,22323,1,0,3:2:0:0:
220,267,22403,1,8,0:2:0:0:
311,209,22563,1,2,0:2:0:0:
382,296,22722,2,0,P|421:303|469:270,1,85,2|0,0:2|3:2,0:2:0:0:
509,218,22962,1,2,0:2:0:0:
512,210,23041,2,0,L|509:107,1,85,8|2,0:2|0:2,0:0:0:0:
439,45,23361,6,0,P|402:61|346:39,1,85,2|0,3:2|0:0,0:2:0:0:
334,142,23680,1,8,0:2:0:0:
258,79,23839,2,0,P|217:68|178:84,1,85,0|2,0:0|0:2,0:0:0:0:
48,173,24159,2,0,P|88:183|127:167,1,85,2|10,3:2|0:2,0:0:0:0:
0,89,24478,1,2,0:2:0:0:
3,244,24637,6,0,L|15:346,1,85,2|2,3:2|3:2,0:0:0:0:
85,365,24877,1,0,0:0:0:0:
93,371,24956,2,0,P|141:365|170:331,1,85,8|2,0:2|0:2,0:0:0:0:
211,190,25276,2,0,L|223:292,1,85,2|0,0:2|3:2,0:2:0:0:
293,311,25516,1,2,0:2:0:0:
301,317,25595,2,0,P|349:311|378:277,1,85,8|2,0:2|0:2,0:0:0:0:
446,107,25914,5,6,3:2:0:0:
429,200,26073,1,0,3:2:0:0:
288,66,26233,5,14,0:2:0:0:
305,159,26392,1,2,0:2:0:0:
425,7,26552,5,14,0:2:0:0:
436,1,26791,5,14,0:2:0:0:
448,0,27031,5,14,0:2:0:0:
512,215,27350,1,0,3:2:0:0:
495,227,27429,1,2,3:2:0:0:
474,233,27509,1,14,0:2:0:0:
382,139,27669,5,0,0:2:0:0:
324,200,27829,2,0,P|285:207|237:174,1,85,2|0,0:2|3:2,0:2:0:0:
178,226,28069,1,2,0:2:0:0:
171,219,28148,2,0,P|132:212|84:245,1,85,8|2,0:2|0:2,0:0:0:0:
10,184,28467,6,0,L|-3:81,1,85,2|0,3:2|0:0,0:2:0:0:
76,27,28786,1,8,0:2:0:0:
153,180,28946,2,0,L|163:95,1,85,0|2,0:0|0:2,0:0:0:0:
272,31,29265,2,0,L|282:115,1,85,2|10,3:2|0:2,0:0:0:0:
382,170,29584,1,2,0:2:0:0:
472,55,29744,6,0,B|430:51|430:51|418:56|418:56|377:51,1,95.6250036478044,6|2,3:2|0:2,0:2:0:0:
365,65,30063,2,0,B|407:61|407:61|419:66|419:66|459:61,1,95.6250036478044,6|0,3:2|0:0,0:2:0:0:
382,170,30382,6,0,B|340:166|340:166|328:171|328:171|287:166,1,95.6250036478044,6|0,3:2|0:0,0:2:0:0:
275,180,30701,2,0,B|308:176|308:176|318:180|318:180|350:176,1,63.7500024318696,6|0,3:2|3:2,0:2:0:0:
397,253,30940,1,2,3:2:0:0:
393,262,31020,1,14,0:2:0:0:
109,39,31978,1,10,0:2:0:0:
95,47,32057,1,8,0:2:0:0:
84,59,32137,1,8,0:2:0:0:
77,73,32217,1,8,0:2:0:0:
74,88,32297,5,6,3:2:0:0:
137,160,32456,1,2,0:2:0:0:
84,240,32616,2,0,L|-4:252,1,85,10|2,0:2|0:2,0:0:0:0:
145,320,32935,2,0,L|233:332,1,85,2|2,3:2|0:2,0:0:0:0:
310,384,33254,1,2,3:2:0:0:
391,335,33414,6,0,P|425:277|369:220,1,127.5,10|0,0:2|0:0,0:2:0:0:
376,232,33733,2,0,P|342:181|369:126,1,127.5,2|0,0:2|0:0,0:2:0:0:
389,128,34052,5,2,0:2:0:0:
366,38,34212,1,2,3:2:0:0:
459,12,34371,1,10,3:3:0:0:
482,102,34531,1,10,0:2:0:0:
376,232,34690,6,0,B|327:245|295:211|303:205|271:170|213:189,1,170,14|2,0:2|0:2,0:2:0:0:
143,223,35169,1,10,0:2:0:0:
154,309,35329,1,2,0:2:0:0:
0,176,35488,2,0,P|50:156|91:167,1,85,2|2,3:2|0:2,0:0:0:0:
139,232,35807,1,2,3:2:0:0:
307,160,35967,6,0,B|326:143|323:100|323:100|304:71|304:71|299:34|320:0,1,170,10|10,0:2|0:2,0:2:0:0:
234,114,36446,1,2,3:2:0:0:
389,52,36605,1,10,3:3:0:0:
397,52,36685,1,10,3:3:0:0:
405,54,36765,1,2,3:2:0:0:
489,117,36924,1,8,3:3:0:0:
424,180,37084,1,10,3:3:0:0:
472,241,37244,1,14,0:2:0:0:
446,308,37403,6,0,P|413:326|340:301,1,85,2|0,3:2|0:2,0:2:0:0:
311,270,37643,1,2,0:2:0:0:
302,261,37722,2,0,P|260:255|223:274,1,85,8|2,0:2|0:2,0:0:0:0:
89,370,38041,2,0,L|79:284,1,85,2|0,3:2|0:2,0:2:0:0:
51,210,38281,1,2,0:2:0:0:
57,203,38361,2,0,P|104:190|153:211,1,85,8|10,0:0|0:2,0:0:0:0:
302,261,38680,6,0,L|312:175,1,85,2|0,3:2|0:2,0:2:0:0:
340,101,38920,1,2,0:2:0:0:
334,94,39000,2,0,P|287:81|238:102,1,85,8|2,0:2|0:2,0:0:0:0:
211,164,39318,1,2,3:2:0:0:
128,184,39478,1,2,0:2:0:0:
59,134,39637,1,10,0:2:0:0:
64,56,39797,1,8,0:2:0:0:
78,46,39877,1,8,0:2:0:0:
94,48,39956,6,0,P|110:117|52:184,1,127.5,6|0,3:2|0:0,0:2:0:0:
40,229,40276,2,0,L|50:278,3,42.5,10|8|8|8,0:2|0:2|0:2|0:2,0:0:0:0:
109,319,40595,2,0,L|99:368,3,42.5,10|8|8|8,0:2|0:2|0:2|0:2,0:0:0:0:
167,225,40914,2,0,L|177:274,3,42.5,10|8|8|8,0:2|0:2|0:2|0:2,0:0:0:0:
236,315,41233,2,0,L|226:364,3,42.5,10|8|8|8,0:2|0:2|0:2|0:2,0:0:0:0:
296,257,41552,5,10,0:2:0:0:
314,246,41631,1,8,0:2:0:0:
335,241,41711,1,8,0:2:0:0:
356,241,41791,1,8,0:2:0:0:
377,259,41871,5,10,0:2:0:0:
395,270,41950,1,0,3:0:0:0:
410,285,42030,1,0,3:0:0:0:
421,304,42110,1,0,3:0:0:0:
412,320,42190,5,2,3:0:0:0:
256,64,42510,1,6,3:2:0:0:
139,186,47616,6,0,B|191:199|232:158|232:158|281:164|294:190|294:190|252:171|215:188,1,255,2|10,3:0|0:0,0:0:0:0:
247,268,48334,1,8,0:0:0:0:
252,277,48414,1,8,0:0:0:0:
161,93,48573,1,10,0:0:0:0:
479,238,48893,5,2,3:0:0:0:
390,357,49052,2,0,B|387:331|372:314|372:314|393:291|412:285|412:285|385:252|408:189,1,170,0|8,3:0|0:0,0:0:0:0:
448,49,49611,1,0,3:0:0:0:
453,58,49690,1,2,0:0:0:0:
512,115,49850,2,0,P|465:140|403:122,1,85,10|0,0:0|3:0,0:0:0:0:
350,114,50089,1,0,3:0:0:0:
339,120,50169,5,6,3:2:0:0:
259,46,50329,1,8,0:0:0:0:
154,207,50488,1,10,0:0:0:0:
172,196,50567,1,8,0:0:0:0:
185,179,50647,1,8,0:0:0:0:
190,159,50727,1,8,0:0:0:0:
189,138,50807,1,10,0:0:0:0:
72,52,50967,1,10,0:0:0:0:
71,73,51046,1,8,0:0:0:0:
79,92,51126,1,8,0:0:0:0:
259,46,51286,2,0,P|281:34|327:35,1,42.5,10|8,0:0|0:0,0:0:0:0:
422,119,51446,6,0,P|354:151|306:106,1,127.5,2|2,3:2|3:2,0:0:0:0:
312,115,51765,1,10,0:2:0:0:
8,296,52722,6,0,P|48:258|127:292,1,146.62500279665,6|0,3:2|3:2,0:2:0:0:
134,302,53041,2,0,P|180:308|215:276,1,97.7500018644333,10|2,0:2|0:2,0:2:0:0:
221,257,53281,1,8,0:2:0:0:
215,238,53361,1,2,3:2:0:0:
302,365,53520,5,0,3:2:0:0:
362,289,53680,1,10,0:2:0:0:
449,323,53839,1,2,0:2:0:0:
457,327,53919,1,8,0:2:0:0:
465,332,53999,6,0,L|485:220,1,97.7500018644333,2|0,3:2|3:2,0:2:0:0:
372,166,54318,1,8,0:2:0:0:
465,105,54478,2,0,P|495:113|540:87,2,48.8750009322167,2|8|0,0:2|0:2|3:2,0:0:0:0:
401,21,54797,1,2,3:2:0:0:
312,75,54956,2,0,B|276:90|233:75|242:49|207:34|147:52,1,146.62500279665,8|10,0:2|0:2,0:2:0:0:
143,55,55276,6,0,B|112:95|112:95|126:139,1,97.7500018644333,2|0,3:2|3:2,0:2:0:0:
205,250,55595,2,0,B|236:210|236:210|221:165,1,97.7500018644333,8|2,0:2|0:2,0:2:0:0:
214,158,55834,1,10,0:2:0:0:
204,156,55914,1,2,3:2:0:0:
121,329,56073,5,0,3:2:0:0:
205,261,56233,1,8,0:2:0:0:
295,320,56393,1,2,0:2:0:0:
409,223,56552,6,0,P|434:182|391:120,1,97.7500018644333,2|0,3:2|0:2,0:2:0:0:
409,136,56791,1,2,3:2:0:0:
400,141,56871,1,8,0:2:0:0:
299,81,57031,1,2,3:2:0:0:
213,167,57190,1,8,0:2:0:0:
192,179,57269,1,8,3:3:0:0:
168,184,57349,1,8,3:3:0:0:
144,178,57429,1,8,3:3:0:0:
125,164,57510,2,0,P|85:138|17:158,1,97.7500018644333,8|0,0:2|3:2,0:2:0:0:
95,363,57829,6,0,B|111:343|111:343|117:329|117:329|131:323|131:323|129:324|131:314|131:314|138:298|138:298|135:250,1,97.7500018644333,14|0,0:2|3:2,0:0:0:0:
170,87,58148,2,0,B|186:106|186:106|192:121|192:121|206:127|206:127|204:126|206:136|206:136|213:152|213:152|210:200,1,97.7500018644333,10|0,0:2|3:2,0:0:0:0:
261,339,58467,1,10,0:2:0:0:
261,339,58627,2,0,B|277:319|277:319|283:305|283:305|297:299|297:299|295:300|297:290|297:290|304:274|304:274|301:226,1,97.7500018644333,0|10,3:2|0:2,0:0:0:0:
336,63,58946,2,0,B|352:82|352:82|358:97|358:97|372:103|372:103|370:102|372:112|372:112|379:128|379:128|376:176,1,97.7500018644333,0|10,3:2|0:2,0:0:0:0:
261,339,59265,2,0,B|277:319|277:319|283:305|283:305|297:299|297:299|295:300|297:290|297:290|304:274|304:274|301:226,1,97.7500018644333,0|10,3:2|0:2,0:0:0:0:
168,84,59584,1,0,3:2:0:0:
168,84,59744,2,0,B|184:103|184:103|190:118|190:118|204:124|204:124|202:123|204:133|204:133|211:149|211:149|208:197,1,97.7500018644333,10|0,0:2|3:2,0:0:0:0:
204,246,59983,1,0,3:2:0:0:
211,257,60063,2,0,P|264:273|323:239,1,97.7500018644333,14|0,0:2|0:2,0:2:0:0:
378,142,60382,5,14,0:2:0:0:
478,179,60541,1,8,0:2:0:0:
341,242,60701,1,10,0:2:0:0:
332,265,60780,1,8,0:2:0:0:
336,289,60860,1,10,0:2:0:0:
349,309,60940,1,8,0:2:0:0:
370,321,61020,1,10,0:2:0:0:
478,179,61180,2,0,L|490:123,2,48.8750009322167,8|10|8,0:2|0:2|0:2,0:0:0:0:
365,134,61499,1,10,0:2:0:0:
302,259,61659,5,10,3:3:0:0:
273,167,61818,1,8,0:3:0:0:
181,200,61978,1,8,0:3:0:0:
210,292,62137,1,10,0:0:0:0:
394,226,62456,1,8,0:0:0:0:
306,83,62616,1,8,0:2:0:0:
284,93,62695,1,8,0:2:0:0:
260,95,62775,1,8,0:2:0:0:
237,87,62855,1,8,0:2:0:0:
222,75,62935,6,0,P|184:115|218:194,1,146.62500279665,6|0,3:2|3:2,0:2:0:0:
228,201,63254,2,0,P|234:247|202:282,1,97.7500018644333,10|0,0:2|3:2,0:2:0:0:
183,288,63494,1,10,0:2:0:0:
164,282,63574,1,2,3:2:0:0:
29,370,63733,5,0,3:2:0:0:
71,285,63893,1,10,0:2:0:0:
33,198,64052,1,2,3:2:0:0:
25,202,64132,1,8,3:2:0:0:
17,207,64212,6,0,P|-4:165|37:95,1,97.7500018644333,2|0,3:2|3:2,0:2:0:0:
105,104,64531,1,8,0:2:0:0:
48,19,64690,2,0,L|-23:11,2,48.8750009322167,2|0|0,3:2|3:2|3:2,0:0:0:0:
108,113,65010,1,2,3:2:0:0:
177,31,65169,2,0,B|246:25|246:25|294:33|294:75,1,146.62500279665,8|8,0:2|3:2,0:0:0:0:
294,94,65489,6,0,B|287:142|287:142|289:148|289:148|276:220,1,97.7500018644333,2|0,3:2|3:2,0:2:0:0:
398,284,65807,2,0,B|390:241|390:241|392:235|392:235|385:187,1,97.7500018644333,8|2,0:2|3:2,0:0:0:0:
390,179,66047,1,8,0:2:0:0:
398,173,66127,1,2,3:2:0:0:
477,45,66286,5,0,3:2:0:0:
392,89,66446,1,10,0:2:0:0:
315,33,66606,1,2,3:2:0:0:
233,182,66765,6,0,P|167:203|115:157,1,146.62500279665,2|2,3:2|3:2,0:2:0:0:
126,138,67084,1,8,0:2:0:0:
63,264,67244,1,2,3:2:0:0:
0,85,67403,1,8,0:2:0:0:
12,64,67482,1,8,3:3:0:0:
32,50,67562,1,2,3:2:0:0:
56,46,67642,1,0,0:0:0:0:
80,52,67722,2,0,L|193:39,1,97.7500018644333,8|2,0:2|3:2,0:0:0:0:
243,88,67962,1,0,3:2:0:0:
238,103,68041,1,10,0:2:0:0:
331,193,68361,6,0,P|353:151|369:136,3,48.8750009322167,8|8|8|8,0:2|0:2|0:2|0:2,0:0:0:0:
371,262,68680,2,0,P|413:284|428:300,3,48.8750009322167,10|8|8|8,0:2|0:2|0:2|0:2,0:0:0:0:
302,302,68999,2,0,P|280:344|264:359,3,48.8750009322167,10|8|8|8,0:2|0:2|0:2|0:2,0:0:0:0:
262,233,69318,2,0,P|220:211|205:195,3,48.8750009322167,10|8|8|8,0:2|0:2|0:2|0:2,0:0:0:0:
331,193,69637,5,10,0:2:0:0:
334,181,69716,1,8,0:2:0:0:
339,170,69796,1,8,0:2:0:0:
346,159,69876,1,8,0:2:0:0:
353,150,69956,6,0,P|389:146|367:135,1,89.2499972763062,14|0,0:2|0:0,0:0:0:0:
385,48,70595,6,0,B|366:43|366:43|353:55|340:55|340:55|330:47|330:47|316:48|316:48|294:40|294:40|286:41,1,106.25,6|0,3:2|0:2,0:2:0:0:
111,115,70914,2,0,B|130:110|130:110|143:122|156:122|156:122|166:114|166:114|180:115|180:115|202:107|202:107|209:108,1,106.25,10|0,0:2|0:2,0:2:0:0:
372,199,71233,1,2,3:2:0:0:
372,199,71393,2,0,B|353:194|353:194|340:206|327:206|327:206|317:198|317:198|303:199|303:199|281:191|281:191|273:192,1,106.25,0|8,0:0|0:2,0:0:0:0:
108,266,71712,2,0,B|127:261|127:261|140:273|153:273|153:273|163:265|163:265|177:266|177:266|199:258|199:258|206:259,1,106.25,2|0,0:2|3:2,0:2:0:0:
372,199,72031,2,0,B|353:194|353:194|340:206|327:206|327:206|317:198|317:198|303:199|303:199|281:191|281:191|273:192,1,106.25,2|8,0:2|0:2,0:2:0:0:
111,115,72350,1,2,0:2:0:0:
111,115,72510,2,0,B|130:110|130:110|143:122|156:122|156:122|166:114|166:114|180:115|180:115|202:107|202:107|209:108,1,106.25,0|0,3:2|0:2,0:0:0:0:
385,48,72829,2,0,B|366:43|366:43|353:55|340:55|340:55|330:47|330:47|316:48|316:48|294:40|294:40|286:41,1,106.25,10|0,0:2|0:2,0:2:0:0:
111,115,73148,6,0,P|96:173|131:209,1,97.7500018644333,2|0,3:2|3:2,0:2:0:0:
181,256,73387,1,2,3:2:0:0:
191,259,73467,2,0,L|309:244,1,97.7500018644333,8|2,0:2|0:2,0:2:0:0:
458,185,73786,6,0,P|473:127|438:91,1,97.7500018644333,2|0,3:2|3:2,0:2:0:0:
384,63,74025,1,2,3:2:0:0:
374,60,74105,2,0,L|256:75,1,97.7500018644333,8|2,0:2|0:2,0:2:0:0:
77,57,74424,6,0,P|59:101|81:142,1,97.7500018644333,2|0,3:2|3:2,0:2:0:0:
159,142,74664,1,2,3:2:0:0:
165,139,74744,2,0,P|180:81|145:45,1,97.7500018644333,8|2,0:2|0:2,0:2:0:0:
13,222,75063,1,10,0:2:0:0:
92,367,75222,1,8,0:2:0:0:
108,366,75301,1,8,0:2:0:0:
122,359,75381,1,10,0:2:0:0:
131,345,75461,1,8,0:2:0:0:
134,330,75541,1,8,0:2:0:0:
129,314,75620,1,8,0:2:0:0:
118,302,75701,6,0,B|137:299|137:299|153:304|153:304|174:296|174:296|184:306|189:300|189:300|203:288|203:288|223:289|223:289|242:281,1,123.250003761292,6|0,3:2|0:2,0:2:0:0:
389,190,76020,2,0,B|370:187|370:187|354:192|354:192|333:184|333:184|322:194|318:188|318:188|304:176|304:176|284:177|284:177|265:169,1,123.250003761292,10|0,0:2|0:2,0:2:0:0:
76,128,76339,1,2,3:2:0:0:
76,128,76499,2,0,B|95:125|95:125|111:130|111:130|132:122|132:122|142:132|147:126|147:126|161:114|161:114|181:115|181:115|200:107,1,123.250003761292,0|8,0:2|0:2,0:0:0:0:
347,16,76818,2,0,B|328:13|328:13|312:18|312:18|291:10|291:10|280:20|276:14|276:14|262:2|262:2|242:3|242:3|223:-5,1,123.250003761292,2|0,0:2|3:2,0:2:0:0:
76,128,77137,2,0,B|95:125|95:125|111:130|111:130|132:122|132:122|142:132|147:126|147:126|161:114|161:114|181:115|181:115|200:107,1,123.250003761292,2|8,0:2|0:2,0:2:0:0:
389,190,77456,1,0,0:2:0:0:
389,190,77616,2,0,B|370:187|370:187|354:192|354:192|333:184|333:184|322:194|318:188|318:188|304:176|304:176|284:177|284:177|265:169,1,123.250003761292,2|0,3:2|0:2,0:2:0:0:
118,302,77935,2,0,B|137:299|137:299|153:304|153:304|174:296|174:296|184:306|189:300|189:300|203:288|203:288|223:289|223:289|242:281,1,123.250003761292,8|8,0:2|0:2,0:0:0:0:
403,339,78254,6,0,P|432:253|400:214,1,146.62500279665,2|2,3:2|0:2,0:2:0:0:
389,190,78573,2,0,P|362:142|388:95,1,97.7500018644333,8|2,0:2|0:2,0:0:0:0:
491,30,78893,2,0,B|430:36|430:36|402:22|402:22|340:23,1,146.62500279665,2|2,3:2|3:2,0:2:0:0:
329,41,79212,2,0,L|215:33,1,97.7500018644333,8|2,0:2|0:2,0:0:0:0:
83,121,79531,6,0,B|37:176|37:176|98:265,1,146.62500279665,2|2,3:2|0:2,0:2:0:0:
97,247,79850,2,0,B|139:240|139:240|151:242|151:242|208:230,1,97.7500018644333,8|2,0:2|0:2,0:0:0:0:
370,129,80169,1,2,3:2:0:0:
329,41,80329,1,2,3:2:0:0:
240,82,80488,1,10,0:2:0:0:
282,171,80648,1,0,3:2:0:0:
439,338,80807,6,0,B|445:332|445:332|437:331|430:320|430:320|431:315|431:315|438:306|451:306|451:306|451:302|451:302|441:296|436:285|436:285|437:281|437:281|451:269|451:269|451:263|451:263|446:259|446:259|452:224,1,131.750001005173,14|0,0:2|3:2,0:0:0:0:
329,41,81127,2,0,B|335:46|335:46|327:47|320:58|320:58|321:63|321:63|328:72|341:72|341:72|341:76|341:76|331:82|326:93|326:93|327:97|327:97|341:109|341:109|341:115|341:115|336:119|336:119|342:154,1,131.750001005173,10|0,0:2|3:2,0:0:0:0:
205,338,81446,1,10,0:2:0:0:
205,338,81605,2,0,B|211:332|211:332|203:331|196:320|196:320|197:315|197:315|204:306|217:306|217:306|217:302|217:302|207:296|202:285|202:285|203:281|203:281|217:269|217:269|217:263|217:263|212:259|212:259|218:224,1,131.750001005173,0|10,3:2|0:2,0:0:0:0:
95,41,81925,2,0,B|101:46|101:46|93:47|86:58|86:58|87:63|87:63|94:72|107:72|107:72|107:76|107:76|97:82|92:93|92:93|93:97|93:97|107:109|107:109|107:115|107:115|102:119|102:119|108:154,1,131.750001005173,0|10,3:2|0:2,0:0:0:0:
205,338,82244,2,0,B|211:332|211:332|203:331|196:320|196:320|197:315|197:315|204:306|217:306|217:306|217:302|217:302|207:296|202:285|202:285|203:281|203:281|217:269|217:269|217:263|217:263|212:259|212:259|218:224,1,131.750001005173,0|10,3:2|0:2,0:0:0:0:
329,41,82563,1,0,3:2:0:0:
329,41,82722,2,0,B|335:46|335:46|327:47|320:58|320:58|321:63|321:63|328:72|341:72|341:72|341:76|341:76|331:82|326:93|326:93|327:97|327:97|341:109|341:109|341:115|341:115|336:119|336:119|342:154,1,131.750001005173,10|0,0:2|3:2,0:0:0:0:
439,338,83041,2,0,B|445:332|445:332|437:331|430:320|430:320|431:315|431:315|438:306|451:306|451:306|451:302|451:302|441:296|436:285|436:285|437:281|437:281|451:269|451:269|451:263|451:263|446:259|446:259|452:224,1,131.750001005173,10|0,0:2|3:2,0:0:0:0:
496,169,83281,1,0,3:2:0:0:
505,176,83361,6,0,B|459:172|459:172|453:167|453:167|395:160,1,97.7500018644333,14|0,0:2|3:2,0:2:0:0:
322,235,83680,1,8,0:2:0:0:
348,71,83839,1,2,3:2:0:0:
170,132,83999,2,0,B|216:136|216:136|222:141|222:141|280:148,1,97.7500018644333,10|0,0:2|3:2,0:2:0:0:
321,244,84318,1,8,0:2:0:0:
130,215,84478,1,2,3:2:0:0:
118,207,84557,1,0,3:2:0:0:
107,197,84637,6,0,P|85:160|85:103,1,97.7500018644333,10|0,0:2|3:2,0:0:0:0:
138,19,84956,1,8,0:2:0:0:
265,146,85116,2,0,L|332:123,2,48.8750009322167,2|0|10,3:2|3:2|0:2,0:0:0:0:
191,293,85435,1,8,0:2:0:0:
185,299,85514,1,8,0:2:0:0:
179,304,85594,1,8,0:2:0:0:
172,308,85674,1,8,0:2:0:0:
164,310,85754,1,8,0:2:0:0:
156,311,85833,1,8,0:2:0:0:
148,311,85914,6,0,P|201:282|273:333,1,152.999995330811,6|0,3:2|3:0,0:0:0:0:
352,289,87031,1,10,0:0:0:0:
425,337,87350,1,10,0:0:0:0:
