osu file format v14

[General]
AudioFilename: audio.mp3
AudioLeadIn: 0
PreviewTime: 52065
Countdown: 0
SampleSet: Soft
StackLeniency: 0.7
Mode: 0
LetterboxInBreaks: 0
WidescreenStoryboard: 1

[Editor]
Bookmarks: 6228,11175,21387,29207,31760,39419,41973,47079,52185,87930
DistanceSpacing: 1.3
BeatDivisor: 4
GridSize: 32
TimelineZoom: 1.399999

[Metadata]
Title:MACHINEGUN (TV Size)
TitleUnicode:MACHINEGUN (TV Size)
Artist:THE ORAL CIGARETTES
ArtistUnicode:THE ORAL CIGARETTES
Creator:Nevo
Version:Suou's Hard
Source:SCARLET NEXUS
Tags:Shirahane Suou torriru sotarks xchorse addy2607 anime japanese rock opening jrock j-rock op
BeatmapID:3253081
BeatmapSetID:1591563

[Difficulty]
HPDrainRate:4
CircleSize:3.7
OverallDifficulty:6.5
ApproachRate:8
SliderMultiplier:1.4
SliderTickRate:1

[Events]
//Background and Video events
0,0,"0dc90f89-1b2f-4f8b-8106-2a1b7111365e-min.png",0,0
Video,-185,"scarlet_nexus_op2.mp4"
//Break Periods
2,42710,46866
//Storyboard Layer 0 (Background)
//Storyboard Layer 1 (Fail)
//Storyboard Layer 2 (Pass)
//Storyboard Layer 3 (Foreground)
//Storyboard Layer 4 (Overlay)
//Storyboard Sound Samples

[TimingPoints]
1659,319.148936170213,4,2,1,70,1,0
11073,-133.333333333333,4,2,1,70,0,0
11712,-111.111111111111,4,2,1,80,0,0
21924,-111.111111111111,4,2,1,70,0,0
52722,-100,4,2,1,90,0,1
85914,-133.333333333333,4,2,1,80,0,0
88148,-133.333333333333,4,2,1,50,0,0

[Colours]
Combo1 : 174,174,174
Combo2 : 224,95,95
Combo3 : 151,151,255

[HitObjects]
372,34,1659,5,10,0:0:0:0:
347,113,1818,1,10,0:0:0:0:
92,107,2616,5,10,0:0:0:0:
117,186,2775,1,10,0:0:0:0:
332,302,3414,6,0,L|324:345,2,35,0|0|12,3:0|3:0|0:0,0:0:0:0:
391,242,3733,1,8,3:3:0:0:
331,182,3893,2,0,L|246:199,1,70,8|8,3:3|3:3,0:0:0:0:
206,259,4212,5,10,0:0:0:0:
126,233,4371,1,10,0:0:0:0:
291,35,5169,5,10,0:0:0:0:
211,61,5328,1,10,0:0:0:0:
429,136,5967,6,0,L|441:88,2,35,8|8|14,3:3|3:3|0:0,0:0:0:0:
383,208,6286,1,8,0:0:0:0:
383,208,6366,1,8,0:0:0:0:
383,208,6446,2,0,L|395:256,2,35,8|8|8,3:3|3:3|3:3,0:0:0:0:
314,158,6765,5,10,0:0:0:0:
265,226,6924,1,10,0:0:0:0:
201,170,7084,2,0,B|131:154|131:154|120:195|69:223,1,140,2|2,3:2|3:2,0:0:0:0:
16,358,7722,5,10,0:0:0:0:
85,310,7882,1,10,0:0:0:0:
143,369,8041,2,0,L|222:354,1,70,2|0,3:2|0:0,0:0:0:0:
264,289,8361,2,0,L|343:304,1,70,10|8,0:0|0:0,0:0:0:0:
372,327,8600,1,8,0:0:0:0:
372,327,8680,2,0,L|381:372,2,35,8|0|8,3:3|0:0|3:3,0:0:0:0:
442,281,8999,2,0,L|451:236,1,35,8|0,3:3|0:0,0:0:0:0:
455,204,9159,1,12,0:0:0:0:
355,68,9478,5,6,3:2:0:0:
239,189,9797,1,6,3:2:0:0:
137,55,10116,5,6,3:2:0:0:
66,101,10276,1,8,0:0:0:0:
106,174,10435,1,6,3:2:0:0:
242,75,10754,5,6,3:2:0:0:
325,38,10914,1,8,0:0:0:0:
368,115,11073,2,0,B|374:144|363:174|363:174|381:208|381:208|367:240|375:278,1,157.500006008148,6|0,3:2|0:0,0:0:0:0:
319,328,11712,6,0,L|189:309,1,125.999996154785,6|2,3:2|3:0,0:0:0:0:
136,251,12190,2,0,L|71:260,1,62.9999980773926,10|0,0:0|3:0,0:0:0:0:
35,265,12430,1,8,0:0:0:0:
35,265,12510,2,0,P|18:232|32:193,1,62.9999980773926,2|2,3:0|3:0,0:0:0:0:
69,140,12829,1,10,0:0:0:0:
1,93,12988,6,0,P|61:102|109:64,1,125.999996154785,2|2,3:2|3:0,0:0:0:0:
175,14,13467,2,0,L|261:29,1,62.9999980773926,10|2,0:0|3:0,0:0:0:0:
297,80,13786,2,0,L|383:65,1,62.9999980773926,0|0,3:0|3:0,0:0:0:0:
410,5,14105,1,8,0:0:0:0:
467,63,14265,6,0,P|498:114|473:193,1,125.999996154785,6|2,3:2|3:0,0:0:0:0:
428,233,14744,2,0,L|358:219,1,62.9999980773926,10|0,0:0|3:0,0:0:0:0:
343,193,14983,1,0,3:0:0:0:
343,193,15063,2,0,L|273:207,1,62.9999980773926,2|0,3:0|3:0,0:0:0:0:
222,262,15382,1,10,0:0:0:0:
165,202,15541,5,6,3:2:0:0:
289,94,15861,1,2,3:0:0:0:
245,24,16020,2,0,L|178:36,1,62.9999980773926,10|0,0:0|3:0,0:0:0:0:
108,0,16339,1,8,0:0:0:0:
38,44,16499,2,0,L|28:101,3,31.4999990386963,8|8|8|8,0:0|0:0|0:0|0:0,0:0:0:0:
50,112,16818,6,0,L|25:250,1,125.999996154785,6|2,3:2|3:0,0:0:0:0:
22,317,17297,2,0,P|52:336|99:314,1,62.9999980773926,10|0,0:0|3:0,0:0:0:0:
118,317,17536,1,0,3:0:0:0:
118,317,17616,2,0,L|197:324,1,62.9999980773926,2|0,3:2|3:0,0:0:0:0:
246,371,17935,1,10,0:0:0:0:
288,300,18095,6,0,L|267:162,1,125.999996154785,2|2,3:2|3:0,0:0:0:0:
210,118,18573,2,0,P|203:78|229:48,1,62.9999980773926,10|2,0:0|0:0,0:0:0:0:
280,12,18893,2,0,L|369:27,1,62.9999980773926,2|0,3:0|3:0,0:0:0:0:
418,52,19212,1,8,0:0:0:0:
373,120,19371,6,0,P|356:156|385:244,1,125.999996154785,6|0,3:2|3:0,0:0:0:0:
432,296,19850,1,8,0:0:0:0:
366,346,20010,2,0,L|235:326,1,125.999996154785,6|0,3:2|3:0,0:0:0:0:
170,285,20488,1,8,0:0:0:0:
120,350,20648,5,6,3:2:0:0:
21,219,20967,1,6,3:2:0:0:
134,101,21286,2,0,L|176:111,2,31.4999990386963,0|0|8,3:0|3:0|0:0,0:0:0:0:
63,58,21605,2,0,P|45:96|52:121,1,62.9999980773926
100,180,21924,5,6,3:2:0:0:
187,26,22244,1,2,3:2:0:0:
187,26,22403,2,0,L|326:10,1,125.999996154785,8|2,0:2|0:2,0:0:0:0:
397,10,22882,1,0,3:2:0:0:
397,10,23041,2,0,L|382:81,1,62.9999980773926,8|2,0:2|0:2,0:0:0:0:
328,132,23361,6,0,L|343:203,2,62.9999980773926,2|0|8,3:2|0:0|0:2,0:2:0:0:
261,84,23839,2,0,P|219:70|150:122,1,125.999996154785,0|2,0:0|3:2,0:0:0:0:
100,173,24318,1,10,0:2:0:0:
236,263,24637,6,0,L|312:275,1,62.9999980773926,2|2,3:2|3:2,0:0:0:0:
371,310,24956,2,0,P|331:263|345:204,1,125.999996154785,8|2,0:2|0:2,0:0:0:0:
395,140,25435,1,0,3:2:0:0:
395,140,25595,1,8,0:2:0:0:
508,257,25914,2,0,L|496:333,1,62.9999980773926,6|0,3:2|3:2,0:2:0:0:
442,379,26233,1,14,0:2:0:0:
380,233,26552,6,0,L|395:133,2,94.499997116089,14|14|14,0:2|0:2|0:2,0:0:0:0:
262,347,27350,5,0,3:2:0:0:
262,347,27510,2,0,L|233:206,1,125.999996154785,14|2,0:2|0:2,0:2:0:0:
214,145,27988,1,0,3:2:0:0:
214,145,28148,2,0,P|179:136|140:155,1,62.9999980773926,8|2,0:2|0:2,0:0:0:0:
96,202,28467,6,0,L|112:269,2,62.9999980773926,2|0|8,3:2|0:0|0:2,0:2:0:0:
32,149,28946,2,0,L|62:19,1,125.999996154785,0|2,0:0|3:2,0:0:0:0:
139,3,29424,2,0,L|229:19,1,62.9999980773926,10|2,0:2|0:2,0:0:0:0:
258,73,29744,6,0,L|389:48,2,125.999996154785,6|6|6,3:2|3:2|3:2,0:2:0:0:
205,227,30701,2,0,L|270:239,1,62.9999980773926,6|0,3:2|3:2,0:2:0:0:
310,251,30940,1,2,3:2:0:0:
310,251,31020,1,14,0:2:0:0:
480,17,31978,6,0,L|471:57,3,31.4999990386963,10|8|8|8,0:2|0:2|0:2|0:2,0:0:0:0:
450,82,32297,6,0,L|471:213,2,125.999996154785,6|10|2,3:2|0:2|3:2,0:2:0:0:
304,153,33254,1,2,3:2:0:0:
304,153,33414,6,0,L|383:169,1,62.9999980773926,10|0,0:2|3:2,0:2:0:0:
346,248,33733,1,2,0:2:0:0:
346,248,33893,2,0,L|267:232,1,62.9999980773926,8|2,0:2|0:2,0:0:0:0:
220,192,34212,1,2,3:2:0:0:
220,192,34371,1,10,3:3:0:0:
172,259,34531,1,10,0:2:0:0:
172,259,34690,1,14,0:2:0:0:
107,207,34850,6,0,L|85:63,2,125.999996154785,0|10|2,3:0|0:2|3:2,0:0:0:0:
234,317,35807,1,2,3:2:0:0:
234,317,35967,6,0,L|223:389,1,62.9999980773926,10|0,0:2|3:2,0:2:0:0:
143,364,36286,2,0,L|152:301,1,62.9999980773926,10|2,0:2|3:2,0:0:0:0:
163,220,36605,2,0,L|122:211,2,31.4999990386963,10|10|2,3:3|3:3|3:2,0:0:0:0:
234,177,36924,1,8,3:3:0:0:
234,177,37084,1,10,3:3:0:0:
301,224,37244,1,14,0:2:0:0:
345,155,37403,6,0,L|321:8,2,125.999996154785,2|8|2,3:2|0:2|3:2,0:2:0:0:
492,238,38361,1,8,0:0:0:0:
492,238,38520,2,0,P|506:272|501:302,1,62.9999980773926,10|2,0:2|3:2,0:0:0:0:
473,375,38839,1,0,0:2:0:0:
473,375,38999,2,0,L|404:364,1,62.9999980773926,8|2,0:2|0:2,0:0:0:0:
348,311,39318,2,0,L|279:328,1,62.9999980773926,2|2,3:2|0:2,0:2:0:0:
207,345,39637,2,0,P|187:310|201:272,1,62.9999980773926,10|8,0:2|0:2,0:2:0:0:
205,250,39877,1,8,0:2:0:0:
205,250,39956,6,0,L|191:175,1,62.9999980773926,6|0,3:2|0:2,0:2:0:0:
256,192,40276,12,2,42190,3:0:0:0:
256,192,42510,5,6,3:2:0:0:
256,192,47616,5,2,3:0:0:0:
256,192,47776,1,2,3:0:0:0:
126,92,48095,2,0,L|144:-1,2,94.499997116089,10|8|10,0:0|0:0|0:0,0:0:0:0:
25,223,48893,5,2,3:0:0:0:
25,223,49052,1,0,3:0:0:0:
164,308,49371,2,0,L|257:290,2,94.499997116089,8|0|10,0:0|3:0|0:0,0:0:0:0:
110,244,50010,1,0,3:0:0:0:
171,189,50169,5,6,3:2:0:0:
113,130,50329,1,8,0:0:0:0:
159,63,50488,2,0,L|217:51,3,31.4999990386963,10|8|8|8,0:0|0:0|0:0|0:0,0:0:0:0:
220,28,50807,2,0,P|260:21|291:44,1,62.9999980773926,10|10,0:0|0:0,0:0:0:0:
312,54,51047,1,8,0:0:0:0:
312,54,51127,2,0,L|311:132,1,62.9999980773926,8|10,0:0|0:0,0:0:0:0:
259,180,51446,2,0,L|260:237,3,31.4999990386963,2|2|2|2,3:2|3:2|3:2|3:2,0:0:0:0:
261,252,51765,6,0,B|320:275|320:275|382:236,1,125.999996154785,10|2,0:2|0:0,0:0:0:0:
82,23,52722,6,0,L|58:178,1,140,6|10,3:2|0:2,0:2:0:0:
8,238,53201,1,2,0:2:0:0:
8,238,53281,1,8,0:2:0:0:
8,238,53361,2,0,L|20:315,1,70,2|0,3:2|3:2,0:2:0:0:
79,375,53680,2,0,P|128:380|150:361,1,70,10|2,0:2|0:2,0:0:0:0:
179,341,53919,1,8,0:2:0:0:
179,341,53999,6,0,L|270:358,1,70,2|0,3:2|3:2,0:2:0:0:
336,374,54318,2,0,P|362:333|337:275,1,105,8|8,0:2|0:2,0:0:0:0:
333,265,54637,2,0,L|264:252,1,70,0|2,3:2|3:2,0:0:0:0:
206,181,54956,2,0,L|137:193,1,70,8|2,0:2|0:2,0:2:0:0:
99,219,55196,1,10,0:2:0:0:
99,219,55276,6,0,P|61:179|98:86,1,140,2|8,3:2|0:2,0:2:0:0:
151,48,55754,1,2,0:2:0:0:
151,48,55834,1,10,0:2:0:0:
151,48,55914,2,0,L|219:60,1,70,2|0,3:2|3:2,0:2:0:0:
295,111,56233,2,0,L|363:98,1,70,8|2,0:2|0:2,0:0:0:0:
446,59,56552,6,0,P|480:112|462:161,1,105,2|2,3:2|3:2,0:2:0:0:
458,167,56871,2,0,L|474:239,1,70,8|2,0:2|3:2,0:2:0:0:
443,321,57190,2,0,L|395:313,3,35,8|8|8|8,0:2|3:3|3:3|3:3,0:0:0:0:
363,303,57510,1,8,0:2:0:0:
298,367,57669,1,0,3:2:0:0:
242,285,57829,6,0,L|257:205,1,70,14|0,0:2|3:2,0:0:0:0:
332,155,58148,2,0,L|344:86,1,70,10|0,0:2|3:2,0:0:0:0:
255,46,58467,2,0,L|242:114,1,70,10|0,0:2|3:2,0:0:0:0:
157,164,58786,2,0,L|144:232,1,70,10|0,0:2|3:2,0:0:0:0:
164,328,59105,6,0,P|130:333|99:317,1,70,10|0,0:2|3:2,0:0:0:0:
79,222,59424,2,0,P|112:216|143:232,1,70,10|0,0:2|3:2,0:0:0:0:
231,187,59744,2,0,L|245:273,1,70,10|0,0:2|3:2,0:0:0:0:
257,307,59983,1,0,3:2:0:0:
257,307,60063,2,0,L|343:321,1,70,14|0,0:2|0:2,0:2:0:0:
405,273,60382,5,14,0:2:0:0:
473,332,60541,1,8,0:2:0:0:
507,247,60701,2,0,L|495:189,3,35,10|8|10|8,0:2|0:2|0:2|0:2,0:0:0:0:
491,167,61020,2,0,P|455:157|409:175,1,70,10|8,0:2|0:2,0:0:0:0:
384,183,61260,1,10,0:2:0:0:
384,183,61339,2,0,P|350:190|317:180,1,70,8|10,0:2|0:2,0:0:0:0:
262,106,61659,6,0,L|278:0,2,105,10|10|10,3:3|3:3|0:0,0:0:0:0:
99,188,62456,1,8,0:0:0:0:
45,114,62616,2,0,L|53:60,3,35,8|8|8|8,0:2|0:2|0:2|0:2,0:0:0:0:
60,35,62935,6,0,B|115:24|115:24|135:38|135:38|206:23,1,140,6|10,3:2|0:2,0:2:0:0:
290,17,63414,1,0,3:2:0:0:
290,17,63494,1,10,0:2:0:0:
290,17,63573,2,0,L|273:97,1,70,2|0,3:2|3:2,0:2:0:0:
210,150,63893,2,0,L|227:230,1,70,10|2,0:2|3:2,0:0:0:0:
248,262,64132,1,8,3:2:0:0:
248,262,64212,6,0,P|289:269|320:254,1,70,2|0,3:2|3:2,0:2:0:0:
368,184,64531,2,0,P|411:159|477:185,1,105,8|0,0:2|3:2,0:0:0:0:
475,185,64850,2,0,L|463:261,1,70,0|2,3:2|3:2,0:0:0:0:
451,344,65169,2,0,P|415:359|370:342,1,70,8|2,0:2|3:2,0:0:0:0:
345,342,65409,1,8,3:2:0:0:
345,342,65488,6,0,L|189:371,1,140,2|8,3:2|0:2,0:2:0:0:
131,337,65967,1,2,3:2:0:0:
131,337,66047,1,8,0:2:0:0:
131,337,66127,2,0,P|124:302|157:260,1,70,2|0,3:2|3:2,0:2:0:0:
211,217,66446,2,0,P|225:185|218:152,1,70,10|2,0:2|3:2,0:0:0:0:
150,91,66765,6,0,L|49:113,1,70,2|0,3:2|3:2,0:2:0:0:
26,178,67084,2,0,L|127:200,1,70,8|2,0:2|3:2,0:0:0:0:
139,273,67403,2,0,L|38:295,1,70,8|2,0:2|3:2,0:0:0:0:
21,364,67722,2,0,L|122:386,1,70,8|2,0:2|3:2,0:0:0:0:
180,370,68041,5,10,0:2:0:0:
296,229,68361,2,0,L|303:173,3,35,8|8|8|8,0:2|0:2|0:2|0:2,0:0:0:0:
332,161,68680,2,0,L|325:105,3,35,10|8|8|8,0:2|0:2|0:2|0:2,0:0:0:0:
300,89,68999,2,0,L|244:82,3,35,10|8|8|8,0:2|0:2|0:2|0:2,0:0:0:0:
228,111,69318,2,0,L|172:118,3,35,10|8|8|8,0:2|0:2|0:2|0:2,0:0:0:0:
152,95,69637,2,0,L|143:16,1,70,10|8,0:2|0:2,0:0:0:0:
54,8,69956,5,14,0:2:0:0:
8,296,70595,6,0,P|33:251|127:258,2,140,6|10|2,3:2|0:2|3:2,0:2:0:0:
90,335,71393,2,0,L|166:352,1,70,0|8,0:0|0:2,0:0:0:0:
233,298,71712,6,0,B|281:287|281:287|310:304|310:304|378:287,1,140,2|2,0:2|0:2,0:2:0:0:
413,213,72190,2,0,L|397:141,1,70,8|2,0:2|0:2,0:0:0:0:
321,93,72510,2,0,L|337:21,1,70,0|0,3:2|0:2,0:0:0:0:
420,59,72829,1,10,0:2:0:0:
301,196,73148,6,0,L|155:179,1,140,2|8,3:2|0:2,0:2:0:0:
99,112,73627,1,2,0:2:0:0:
182,76,73786,2,0,L|321:92,1,140,2|8,3:2|0:2,0:2:0:0:
384,158,74265,1,2,0:2:0:0:
301,196,74424,6,0,P|269:247|307:329,1,140,2|8,3:2|0:2,0:2:0:0:
365,373,74903,1,2,0:2:0:0:
431,310,75063,2,0,L|443:234,1,70,10|8,0:2|0:2,0:0:0:0:
475,210,75302,1,8,0:2:0:0:
475,210,75382,2,0,L|484:152,3,35,10|8|8|8,0:2|0:2|0:2|0:2,0:2:0:0:
449,141,75701,6,0,P|467:98|430:13,2,140,6|10|2,3:2|0:2|3:2,0:2:0:0:
370,187,76499,2,0,L|274:169,1,70,0|8,0:2|0:2,0:0:0:0:
221,128,76818,6,0,B|184:132|153:114|153:114|149:156|107:177,1,140,2|2,0:2|0:2,0:2:0:0:
30,144,77297,2,0,P|1:111|9:62,1,70,8|0,0:2|0:2,0:0:0:0:
52,12,77616,2,0,L|127:5,1,70,2|0,3:2|0:2,0:2:0:0:
208,46,77935,1,8,0:2:0:0:
208,46,78095,1,8,0:2:0:0:
289,6,78254,6,0,P|336:28|315:129,1,140,2|8,3:2|0:2,0:2:0:0:
277,174,78733,1,2,0:2:0:0:
345,234,78893,2,0,P|281:210|223:245,1,140,2|8,3:2|0:2,0:2:0:0:
156,305,79371,1,2,0:2:0:0:
114,223,79531,6,0,L|138:65,1,140,2|8,3:2|0:2,0:2:0:0:
80,11,80010,1,2,0:2:0:0:
28,85,80169,2,0,L|17:154,1,70,2|2,3:2|3:2,0:2:0:0:
9,245,80488,2,0,L|20:314,1,70,10|0,0:2|3:2,0:2:0:0:
40,361,80728,1,0,3:2:0:0:
40,361,80807,6,0,L|117:373,1,70,14|0,0:2|3:2,0:0:0:0:
187,323,81127,2,0,L|264:335,1,70,10|0,0:2|3:2,0:0:0:0:
275,244,81446,2,0,L|205:233,1,70,10|0,0:2|3:2,0:0:0:0:
171,148,81765,2,0,L|101:137,1,70,10|0,0:2|3:2,0:0:0:0:
153,62,82084,6,0,L|223:51,1,70,10|0,0:2|3:2,0:0:0:0:
305,14,82403,2,0,L|375:25,1,70,10|0,0:2|3:2,0:0:0:0:
418,104,82722,2,0,L|407:174,1,70,10|0,0:2|3:2,0:0:0:0:
333,227,83041,2,0,L|344:297,1,70,10|0,0:2|3:2,0:0:0:0:
347,342,83281,1,0,3:2:0:0:
347,342,83361,6,0,L|270:330,1,70,14|0,0:2|3:2,0:2:0:0:
195,371,83680,2,0,L|118:359,1,70,8|2,0:2|3:2,0:0:0:0:
133,269,83999,2,0,L|202:279,1,70,10|0,0:2|3:2,0:2:0:0:
264,216,84318,2,0,L|333:226,1,70,8|2,0:2|3:2,0:0:0:0:
382,234,84557,1,0,3:2:0:0:
382,234,84637,6,0,L|392:158,1,70,10|0,0:2|3:2,0:0:0:0:
354,81,84956,2,0,L|284:70,1,70,8|2,0:2|3:2,0:0:0:0:
245,57,85196,1,0,3:2:0:0:
245,57,85276,2,0,P|211:52|182:71,1,70,10|8,0:2|0:2,0:0:0:0:
159,112,85515,1,8,0:2:0:0:
159,112,85595,2,0,L|168:157,3,35,8|8|8|8,0:2|0:2|0:2|0:2,0:0:0:0:
193,166,85914,6,0,B|137:378|137:378|154:316|99:275,1,315.000012016297,6|0,3:2|3:0,0:0:0:0:
53,350,87031,5,10,0:0:0:0:
226,379,87350,1,10,0:0:0:0:
