osu file format v14

[General]
AudioFilename: audio.mp3
AudioLeadIn: 0
PreviewTime: 52065
Countdown: 0
SampleSet: Soft
StackLeniency: 0.7
Mode: 0
LetterboxInBreaks: 0
WidescreenStoryboard: 0

[Editor]
DistanceSpacing: 1.1
BeatDivisor: 4
GridSize: 32
TimelineZoom: 2.799999

[Metadata]
Title:MACHINEGUN (TV Size)
TitleUnicode:MACHINEGUN (TV Size)
Artist:THE ORAL CIGARETTES
ArtistUnicode:THE ORAL CIGARETTES
Creator:Nevo
Version:Sotarks' Expert
Source:SCARLET NEXUS
Tags:Shirahane Suou torriru sotarks xchorse addy2607 anime japanese rock opening jrock j-rock op
BeatmapID:3259092
BeatmapSetID:1591563

[Difficulty]
HPDrainRate:5.2
CircleSize:4
OverallDifficulty:8.7
ApproachRate:9.2
SliderMultiplier:1.72
SliderTickRate:1

[Events]
//Background and Video events
0,0,"0dc90f89-1b2f-4f8b-8106-2a1b7111365e-min.png",0,0
Video,-185,"scarlet_nexus_op2.mp4"
//Break Periods
2,42709,47046
//Storyboard Layer 0 (Background)
//Storyboard Layer 1 (Fail)
//Storyboard Layer 2 (Pass)
//Storyboard Layer 3 (Foreground)
//Storyboard Layer 4 (Overlay)
//Storyboard Sound Samples

[TimingPoints]
1659,319.148936170213,4,2,22,70,1,0
1659,-192.307692307692,4,2,22,70,0,0
2297,-138.888888888889,4,2,22,70,0,0
2935,-192.307692307692,4,2,22,70,0,0
3573,-138.888888888889,4,2,22,70,0,0
4212,-192.307692307692,4,2,22,70,0,0
4850,-138.888888888889,4,2,22,70,0,0
6286,-121.951219512195,4,2,22,70,0,0
6765,-138.888888888889,4,2,22,70,0,0
9478,-89.2857142857144,4,2,22,70,0,0
9797,-108.695652173913,4,2,22,70,0,0
10435,-138.888888888889,4,2,22,70,0,0
11073,-161.290322580645,4,2,22,70,0,0
11712,-98.0392156862745,4,2,22,80,0,0
15541,-81.9672131147541,4,2,22,80,0,0
16818,-98.0392156862745,4,2,22,80,0,0
19371,-81.9672131147541,4,2,22,80,0,0
20010,-89.2857142857143,4,2,22,80,0,0
20648,-98.0392156862745,4,2,22,80,0,0
21446,-138.888888888889,4,2,22,80,0,0
21924,-108.695652173913,4,2,22,70,0,0
26552,-98.0392156862745,4,2,22,70,0,0
27510,-108.695652173913,4,2,22,70,0,0
30063,-98.0392156862745,4,2,22,70,0,0
30382,-108.695652173913,4,2,22,70,0,0
30701,-98.0392156862745,4,2,22,70,0,0
31020,-138.888888888889,4,2,22,70,0,0
31659,-192.307692307692,4,2,22,70,0,0
32297,-108.695652173913,4,2,22,70,0,0
42190,-192.307692307692,4,2,22,70,0,0
47616,-121.951219512195,4,2,22,70,0,0
52084,-138.888888888889,4,2,22,70,0,0
52722,-89.2857142857143,4,2,22,90,0,0
69956,-121.951219512195,4,2,22,90,0,0
70595,-98.0392156862745,4,2,22,90,0,0
85914,-192.307692307692,4,2,22,80,0,0
88148,-192.307692307692,4,2,22,50,0,0

[Colours]
Combo1 : 174,174,174
Combo2 : 224,95,95
Combo3 : 151,151,255

[HitObjects]
127,82,1659,5,10,0:0:0:0:
170,323,1818,1,10,0:0:0:0:
196,218,1978,2,0,L|201:193,3,22.3599998635254,2|0|0|0,0:0|0:0|0:0|0:0,0:0:0:0:
217,239,2297,2,0,P|262:232|319:224,1,92.8800022675782,2|0,0:0|0:0,0:0:0:0:
332,232,2616,5,10,0:0:0:0:
84,156,2776,1,10,0:0:0:0:
200,120,2935,2,0,L|232:109,3,22.3599998635254,2|0|0|0,0:0|0:0|0:0|0:0,0:0:0:0:
142,73,3254,1,2,0:0:0:0:
217,239,3414,1,0,3:0:0:0:
214,261,3493,1,0,3:0:0:0:
211,283,3573,5,12,0:0:0:0:
338,219,3733,1,8,3:3:0:0:
109,268,3893,1,8,3:3:0:0:
254,145,4052,1,8,3:3:0:0:
254,145,4132,1,8,3:3:0:0:
254,145,4212,1,10,0:0:0:0:
156,374,4371,1,10,0:0:0:0:
257,347,4531,2,0,L|290:339,3,22.3599998635254,2|0|0|0,0:0|0:0|0:0|0:0,0:0:0:0:
304,356,4850,2,0,P|356:361|416:368,1,92.8800022675782,2|0,0:0|0:0,0:0:0:0:
417,361,5169,5,10,0:0:0:0:
340,123,5329,1,10,0:0:0:0:
310,217,5488,2,0,L|298:255,3,30.9600007558594,2|0|0|0,0:0|0:0|0:0|0:0,0:0:0:0:
396,193,5807,1,2,0:0:0:0:
203,236,5967,1,8,3:3:0:0:
172,242,6046,1,8,3:3:0:0:
142,248,6126,1,14,0:0:0:0:
264,142,6286,2,0,P|270:108|262:89,1,35.2600005380249,8|8,0:0|0:0,0:0:0:0:
158,21,6446,1,8,3:3:0:0:
161,45,6525,1,8,3:3:0:0:
165,69,6605,1,8,3:3:0:0:
169,94,6685,1,8,3:3:0:0:
173,118,6765,5,10,0:0:0:0:
406,21,6924,1,10,0:0:0:0:
305,12,7084,2,0,P|317:52|320:79,1,61.9200015117188,2|0,3:2|0:0,0:0:0:0:
354,248,7403,2,0,P|342:208|339:181,1,61.9200015117188,2|0,3:2|0:0,0:0:0:0:
441,201,7722,5,10,0:0:0:0:
145,261,7882,1,10,0:0:0:0:
235,207,8041,2,0,P|247:247|250:274,1,61.9200015117188,2|0,3:2|0:0,0:0:0:0:
118,76,8361,5,10,0:0:0:0:
291,118,8520,1,8,0:0:0:0:
321,124,8599,1,8,0:0:0:0:
351,130,8679,1,8,3:3:0:0:
262,34,8839,1,8,3:3:0:0:
347,246,8999,1,8,3:3:0:0:
495,60,9159,1,12,0:0:0:0:
495,60,9478,6,0,P|426:101|337:68,1,144.480001763672,6|0,3:2|0:0,0:0:0:0:
262,34,9797,6,0,P|203:49|118:63,1,118.679996015991,6|0,3:2|0:0,0:0:0:0:
69,27,10116,5,6,3:2:0:0:
272,169,10276,1,8,0:0:0:0:
160,198,10435,6,0,P|84:213|52:223,1,92.8800022675782,6|0,3:2|0:0,0:0:0:0:
0,175,10754,5,6,3:2:0:0:
175,297,10914,1,8,0:0:0:0:
74,354,11073,6,0,B|173:358|153:312|263:317,1,186.619992596253,6|0,3:2|0:0,0:0:0:0:
376,364,11712,6,0,P|384:298|398:212,1,131.580000803101,6|0,3:2|0:0,0:0:0:0:
399,215,12031,1,2,3:0:0:0:
287,48,12190,1,10,0:0:0:0:
186,215,12350,1,0,3:0:0:0:
229,220,12429,1,8,0:0:0:0:
267,241,12509,1,2,3:0:0:0:
169,89,12669,1,2,3:0:0:0:
50,256,12829,1,10,0:0:0:0:
125,326,12988,6,0,P|160:278|104:167,1,175.440001070801,2|2,3:2|3:0,0:0:0:0:
0,41,13467,2,0,P|57:45|100:51,1,87.7200005354004,10|2,0:0|3:0,0:0:0:0:
329,76,13786,1,0,3:0:0:0:
186,8,13946,1,0,3:0:0:0:
204,47,14025,1,0,3:0:0:0:
208,90,14105,1,8,0:0:0:0:
260,301,14265,6,0,P|266:246|281:150,1,131.580000803101,6|0,3:2|0:0,0:0:0:0:
281,154,14584,1,2,3:0:0:0:
370,276,14744,1,10,0:0:0:0:
177,229,14903,1,0,3:0:0:0:
400,140,15063,1,2,3:0:0:0:
276,81,15222,1,0,3:0:0:0:
268,38,15301,1,0,3:0:0:0:
282,0,15381,1,10,0:0:0:0:
155,204,15541,6,0,B|62:184|62:184|33:152|67:111,1,157.379993516144,6|0,3:2|0:0,0:0:0:0:
68,114,15861,1,2,3:0:0:0:
143,332,16020,1,10,0:0:0:0:
240,264,16180,1,0,3:0:0:0:
265,268,16259,1,0,3:0:0:0:
291,272,16339,1,8,0:0:0:0:
469,348,16499,1,8,0:0:0:0:
443,352,16578,1,8,0:0:0:0:
417,355,16658,1,8,0:0:0:0:
391,358,16738,1,8,0:0:0:0:
365,362,16818,6,0,P|357:306|344:215,1,131.580000803101,6|0,3:2|0:0,0:0:0:0:
343,214,17137,1,2,3:0:0:0:
386,32,17297,1,10,0:0:0:0:
252,171,17456,1,0,3:0:0:0:
215,146,17535,1,0,3:0:0:0:
172,139,17615,1,2,3:2:0:0:
291,79,17776,1,0,3:0:0:0:
184,273,17935,1,10,0:0:0:0:
94,208,18095,6,0,P|55:133|136:59,1,175.440001070801,2|2,3:2|3:0,0:0:0:0:
291,262,18573,1,10,0:0:0:0:
172,139,18733,1,2,0:0:0:0:
353,27,18893,1,2,3:0:0:0:
236,0,19052,1,0,3:0:0:0:
254,39,19131,1,0,3:0:0:0:
259,83,19211,1,8,0:0:0:0:
95,273,19371,6,0,B|183:260|170:302|275:283,1,157.379993516144,6|0,3:2|0:0,0:0:0:0:
268,282,19690,1,0,3:0:0:0:
172,139,19850,1,8,0:0:0:0:
327,350,20010,6,0,P|369:300|334:207,1,144.480001763672,6|0,3:2|0:0,0:0:0:0:
342,210,20329,1,0,3:0:0:0:
427,35,20488,1,8,0:0:0:0:
172,139,20648,6,0,P|125:126|84:118,1,87.7200005354004,6|0,3:2|0:0,0:0:0:0:
147,276,20967,2,0,P|100:263|59:255,1,87.7200005354004,6|0,3:2|0:0,0:0:0:0:
342,210,21286,1,0,3:0:0:0:
383,221,21365,1,0,3:0:0:0:
424,208,21446,6,0,P|429:169|439:133,2,61.9200015117188,8|0|0,0:0|0:0|0:0,0:0:0:0:
329,80,21924,6,0,P|276:73|232:62,1,79.1199973439942,6|0,3:2|0:0,0:2:0:0:
122,110,22244,1,2,3:2:0:0:
82,114,22323,1,0,3:2:0:0:
44,122,22403,1,8,0:2:0:0:
186,225,22563,1,2,0:2:0:0:
105,342,22722,2,0,P|97:285|91:248,1,79.1199973439942,2|0,0:2|3:2,0:2:0:0:
93,263,22962,1,2,0:2:0:0:
93,263,23041,1,8,0:2:0:0:
241,372,23201,1,2,0:2:0:0:
313,315,23361,6,0,P|351:323|390:327,1,79.1199973439942,2|0,3:2|0:0,0:2:0:0:
387,79,23680,2,0,P|378:166|366:239,1,158.239994687988,8|2,0:2|0:2,0:0:0:0:
299,130,24159,1,2,3:2:0:0:
457,168,24318,1,10,0:2:0:0:
282,275,24478,1,2,0:2:0:0:
363,372,24637,6,0,P|371:315|377:278,1,79.1199973439942,2|2,3:2|3:2,0:0:0:0:
374,293,24877,1,0,0:0:0:0:
374,293,24956,1,8,0:2:0:0:
183,365,25116,1,2,0:2:0:0:
282,275,25276,2,0,P|274:332|268:369,1,79.1199973439942,2|0,0:2|3:2,0:2:0:0:
271,354,25516,1,2,0:2:0:0:
271,354,25595,1,8,0:2:0:0:
105,268,25754,1,2,0:2:0:0:
183,365,25914,2,0,P|191:308|197:271,1,79.1199973439942,6|0,3:2|3:2,0:2:0:0:
194,286,26154,1,2,3:2:0:0:
194,286,26233,1,14,0:2:0:0:
26,354,26393,1,2,0:2:0:0:
319,248,26552,6,0,P|369:257|412:277,1,87.7200005354004,14|0,0:2|0:0,0:0:0:0:
240,145,26791,2,0,P|212:179|177:206,1,87.7200005354004,14|0,0:2|0:0,0:0:0:0:
360,146,27031,2,0,P|344:105|338:61,1,87.7200005354004,14|2,0:2|0:2,0:0:0:0:
232,282,27350,1,0,3:2:0:0:
233,326,27430,1,2,3:2:0:0:
250,365,27510,6,0,P|308:353|362:355,1,79.1199973439942,14|0,0:2|0:2,0:2:0:0:
151,265,27829,2,0,P|95:261|49:254,1,79.1199973439942,2|0,0:2|3:2,0:2:0:0:
72,257,28068,1,2,0:2:0:0:
72,257,28148,1,8,0:2:0:0:
213,166,28307,1,2,0:2:0:0:
110,70,28467,1,2,3:2:0:0:
168,26,28627,1,0,0:0:0:0:
117,181,28786,2,0,P|73:167|31:158,1,79.1199973439942,8|0,0:2|0:0,0:0:0:0:
286,241,29105,1,2,0:2:0:0:
213,166,29265,1,2,3:2:0:0:
125,338,29424,1,10,0:2:0:0:
213,166,29584,1,2,0:2:0:0:
135,32,29744,6,0,P|128:93|118:160,1,118.679996015991,6|2,3:2|0:2,0:2:0:0:
150,233,30063,2,0,P|111:259|42:234,1,87.7200005354004,6|2,3:2|0:2,0:2:0:0:
257,94,30382,2,0,P|316:110|403:117,1,118.679996015991,6|0,3:2|0:0,0:2:0:0:
454,67,30701,2,0,P|490:108|481:155,1,87.7200005354004,6|0,3:2|3:2,0:2:0:0:
435,221,30940,1,2,3:2:0:0:
439,236,31020,6,0,B|339:229|365:293|239:272,1,185.760004535156,14|0,0:2|0:0,0:0:0:0:
143,246,31659,2,0,L|148:268,3,22.3599998635254
211,165,31978,1,10,0:2:0:0:
213,140,32057,1,8,0:2:0:0:
216,116,32137,1,8,0:2:0:0:
220,91,32217,1,8,0:2:0:0:
224,67,32297,6,0,P|186:52|131:59,1,79.1199973439942,6|2,3:2|0:2,0:2:0:0:
311,216,32616,2,0,P|351:207|399:199,1,79.1199973439942,10|2,0:2|0:2,0:0:0:0:
323,129,32935,1,2,3:2:0:0:
207,236,33095,1,2,0:2:0:0:
341,343,33254,1,2,3:2:0:0:
415,224,33414,6,0,P|376:230|337:239,1,79.1199973439942,10|0,0:2|3:2,0:2:0:0:
191,341,33733,1,2,0:2:0:0:
101,283,33893,2,0,P|62:274|23:267,1,79.1199973439942,8|2,0:2|0:2,0:0:0:0:
82,185,34212,1,2,3:2:0:0:
47,356,34371,1,10,3:3:0:0:
82,185,34531,1,10,0:2:0:0:
47,356,34690,6,0,P|121:380|191:337,1,158.239994687988,14|2,0:2|0:2,0:2:0:0:
312,185,35169,1,10,0:2:0:0:
173,246,35329,1,2,0:2:0:0:
346,316,35488,1,2,3:2:0:0:
172,246,35648,1,2,0:2:0:0:
329,178,35807,1,2,3:2:0:0:
215,75,35967,6,0,P|223:115|231:161,1,79.1199973439942,10|0,0:2|3:2,0:2:0:0:
459,95,36286,2,0,P|451:55|443:9,1,79.1199973439942,10|2,0:2|3:2,0:0:0:0:
316,84,36605,1,10,3:3:0:0:
335,84,36684,1,10,3:3:0:0:
354,88,36764,1,2,3:2:0:0:
236,59,36924,1,8,3:3:0:0:
444,112,37084,1,10,3:3:0:0:
311,233,37244,1,14,0:2:0:0:
415,339,37403,6,0,P|403:273|400:204,1,118.679996015991,2|2,3:2|0:2,0:2:0:0:
352,140,37722,2,0,P|299:141|263:175,1,79.1199973439942,8|2,0:2|0:2,0:0:0:0:
48,298,38041,2,0,P|113:306|182:327,1,118.679996015991,2|2,3:2|0:2,0:2:0:0:
256,276,38361,1,8,0:0:0:0:
81,142,38520,1,10,0:2:0:0:
219,18,38680,6,0,P|202:88|196:157,1,118.679996015991,2|2,3:2|0:2,0:2:0:0:
153,212,38999,2,0,P|113:232|61:215,1,79.1199973439942,8|2,0:2|0:2,0:0:0:0:
306,111,39318,1,2,3:2:0:0:
235,307,39478,1,2,0:2:0:0:
81,142,39637,1,10,0:2:0:0:
201,23,39797,1,8,0:2:0:0:
218,58,39876,1,8,0:2:0:0:
219,97,39956,1,6,3:2:0:0:
121,292,40276,6,0,P|69:301|56:306,1,39.5599986719971,10|8,0:2|0:2,0:0:0:0:
67,207,40435,1,8,0:2:0:0:
67,207,40515,1,8,0:2:0:0:
67,207,40595,2,0,P|86:203|106:201,3,39.5599986719971,10|8|8|8,0:2|0:2|0:2|0:2,0:0:0:0:
220,254,40914,2,0,P|266:261|283:268,1,39.5599986719971,10|8,0:2|0:2,0:0:0:0:
273,180,41073,2,0,P|227:173|210:166,1,39.5599986719971,8|8,0:2|0:2,0:0:0:0:
356,276,41233,5,10,0:2:0:0:
376,309,41312,1,8,0:2:0:0:
374,348,41393,2,0,P|339:357|307:373,1,39.5599986719971,8|8,0:2|0:2,0:0:0:0:
128,294,41552,1,10,0:2:0:0:
126,254,41631,1,8,0:2:0:0:
147,222,41712,2,0,P|181:232|217:234,1,39.5599986719971,8|8,0:2|0:2,0:0:0:0:
376,199,41871,1,10,0:2:0:0:
382,160,41950,1,0,3:0:0:0:
371,122,42030,1,0,3:0:0:0:
345,93,42110,1,0,3:0:0:0:
308,79,42190,6,0,P|259:96|207:95,1,89.4399994541016,2|6,3:0|3:2,0:0:0:0:
60,47,47616,5,2,3:0:0:0:
60,47,47776,2,0,P|52:90|71:127,1,70.5200010760498,2|0,3:0|0:0,0:0:0:0:
161,178,48095,2,0,P|151:245|144:305,1,105.780001614075,10|8,0:0|0:0,0:0:0:0:
143,298,48414,1,8,0:0:0:0:
60,207,48573,1,10,0:0:0:0:
306,306,48893,5,2,3:0:0:0:
306,306,49052,2,0,P|355:307|383:286,1,70.5200010760498,0|0,3:0|0:0,0:0:0:0:
479,197,49371,2,0,P|398:184|362:175,1,105.780001614075,8|0,0:0|3:0,0:0:0:0:
356,173,49691,1,2,0:0:0:0:
475,296,49850,1,10,0:0:0:0:
285,220,50010,5,0,3:0:0:0:
252,233,50089,1,0,3:0:0:0:
217,236,50169,1,6,3:2:0:0:
356,379,50329,1,8,0:0:0:0:
169,164,50488,1,10,0:0:0:0:
141,185,50567,1,8,0:0:0:0:
124,215,50647,1,8,0:0:0:0:
120,250,50727,1,8,0:0:0:0:
132,283,50807,1,10,0:0:0:0:
356,379,50967,2,0,P|376:373|406:367,2,35.2600005380249,10|8|8,0:0|0:0|0:0,0:0:0:0:
169,164,51286,2,0,P|185:158|203:154,1,35.2600005380249,10|8,0:0|0:0,0:0:0:0:
314,126,51446,5,2,3:2:0:0:
330,144,51525,1,2,3:2:0:0:
341,166,51605,1,2,3:2:0:0:
345,190,51685,1,2,3:2:0:0:
342,215,51765,1,10,0:2:0:0:
263,338,51924,1,2,0:0:0:0:
352,378,52084,2,0,P|355:340|365:306,1,61.9200015117188,2|0,0:0|0:0,0:0:0:0:
183,287,52403,2,0,P|180:325|170:359,1,61.9200015117188,2|0,0:0|0:0,0:0:0:0:
263,338,52643,1,0,0:0:0:0:
272,324,52722,6,0,P|263:267|254:177,1,144.480001763672,6|0,3:2|3:2,0:2:0:0:
254,168,53041,1,10,0:2:0:0:
111,39,53201,1,2,0:2:0:0:
107,86,53280,1,8,0:2:0:0:
92,132,53360,1,2,3:2:0:0:
248,52,53520,1,0,3:2:0:0:
26,227,53680,1,10,0:2:0:0:
125,337,53839,1,2,0:2:0:0:
125,337,53919,1,8,0:2:0:0:
125,337,53999,6,0,P|177:359|221:344,1,96.3200011757813,2|0,3:2|3:2,0:2:0:0:
363,192,54318,1,8,0:2:0:0:
200,147,54478,1,2,0:2:0:0:
215,193,54558,1,8,0:2:0:0:
219,241,54637,1,0,3:2:0:0:
334,75,54797,1,2,3:2:0:0:
299,320,54956,2,0,P|209:336|181:346,1,96.3200011757813,8|2,0:2|0:2,0:2:0:0:
52,97,55276,6,0,P|132:90|212:62,1,144.480001763672,2|2,3:2|0:2,0:2:0:0:
208,63,55595,1,8,0:2:0:0:
102,201,55754,1,2,0:2:0:0:
81,244,55833,1,10,0:2:0:0:
84,291,55913,1,2,3:2:0:0:
224,162,56073,1,0,3:2:0:0:
0,268,56233,1,8,0:2:0:0:
167,373,56393,1,2,0:2:0:0:
167,373,56472,1,0,0:0:0:0:
167,373,56552,6,0,P|226:377|259:344,1,96.3200011757813,2|0,3:2|0:2,0:2:0:0:
350,271,56791,1,2,3:2:0:0:
350,271,56871,2,0,P|411:278|463:291,1,96.3200011757813,8|2,0:2|3:2,0:2:0:0:
138,185,57190,1,8,0:2:0:0:
90,180,57269,1,8,3:3:0:0:
43,170,57349,1,8,3:3:0:0:
277,91,57510,1,8,0:2:0:0:
101,43,57669,1,0,3:2:0:0:
101,43,57749,1,0,3:2:0:0:
101,43,57829,6,0,P|169:33|206:22,1,96.3200011757813,14|0,0:2|3:2,0:0:0:0:
147,285,58148,2,0,P|79:295|42:306,1,96.3200011757813,10|0,0:2|3:2,0:0:0:0:
277,91,58467,1,10,0:2:0:0:
81,185,58627,1,0,3:2:0:0:
306,285,58786,1,10,0:2:0:0:
199,174,58946,1,0,3:2:0:0:
203,197,59025,1,0,3:2:0:0:
208,221,59105,5,10,0:2:0:0:
360,153,59265,1,0,3:2:0:0:
88,267,59424,1,10,0:2:0:0:
360,153,59584,1,0,3:2:0:0:
156,28,59744,2,0,P|151:88|139:144,1,96.3200011757813,10|0,0:2|3:2,0:0:0:0:
203,197,59983,1,0,3:2:0:0:
203,197,60063,1,14,0:2:0:0:
390,304,60382,5,14,0:2:0:0:
101,247,60541,1,8,0:2:0:0:
322,153,60701,2,0,P|330:206|333:219,1,48.1600005878906,10|8,0:2|0:2,0:0:0:0:
215,232,60861,2,0,P|207:179|204:166,1,48.1600005878906,10|8,0:2|0:2,0:0:0:0:
276,65,61020,1,10,0:2:0:0:
156,322,61180,1,8,0:2:0:0:
116,347,61259,1,10,0:2:0:0:
69,340,61339,1,8,0:2:0:0:
311,368,61499,1,10,0:2:0:0:
101,247,61659,5,10,3:3:0:0:
156,322,61818,1,8,0:3:0:0:
236,274,61978,1,8,0:3:0:0:
181,199,62137,2,0,P|189:127|199:36,1,144.480001763672,10|0,0:0|0:0,0:0:0:0:
198,40,62456,1,8,0:0:0:0:
293,235,62616,1,8,0:2:0:0:
334,258,62695,1,8,0:2:0:0:
381,261,62775,1,8,0:2:0:0:
424,240,62855,1,8,0:2:0:0:
453,202,62935,6,0,P|441:132|429:48,1,144.480001763672,6|0,3:2|3:2,0:2:0:0:
426,40,63254,1,10,0:2:0:0:
218,141,63414,1,0,3:2:0:0:
265,143,63493,1,10,0:2:0:0:
309,163,63573,1,2,3:2:0:0:
190,13,63733,1,0,3:2:0:0:
403,139,63893,1,10,0:2:0:0:
288,265,64052,1,2,3:2:0:0:
288,265,64132,1,8,3:2:0:0:
288,265,64212,6,0,P|241:293|175:271,1,96.3200011757813,2|0,3:2|3:2,0:2:0:0:
44,206,64531,1,8,0:2:0:0:
174,86,64690,1,2,3:2:0:0:
172,133,64769,1,0,3:2:0:0:
189,178,64849,1,0,3:2:0:0:
36,65,65010,1,2,3:2:0:0:
280,131,65169,2,0,P|338:121|398:99,1,96.3200011757813,8|2,0:2|3:2,0:0:0:0:
463,331,65488,6,0,P|391:344|296:368,1,144.480001763672,2|2,3:2|3:2,0:2:0:0:
302,369,65807,1,8,0:2:0:0:
101,316,65967,1,2,3:2:0:0:
87,270,66046,1,8,0:2:0:0:
106,227,66126,1,2,3:2:0:0:
256,79,66286,1,0,3:2:0:0:
94,106,66446,2,0,P|39:115|-19:130,1,96.3200011757813,10|2,0:2|3:2,0:0:0:0:
285,290,66765,5,2,3:2:0:0:
189,187,66924,1,0,3:2:0:0:
202,232,67003,1,2,3:2:0:0:
183,275,67083,1,8,0:2:0:0:
343,126,67244,1,2,3:2:0:0:
106,227,67403,2,0,P|53:241|30:253,3,48.1600005878906,8|8|2|0,0:2|3:3|3:2|0:0,0:0:0:0:
189,187,67722,1,8,0:2:0:0:
53,359,67882,1,2,3:2:0:0:
53,359,67962,1,0,3:2:0:0:
53,359,68041,6,0,B|131:355|120:384|201:378,1,144.480001763672,10|0,0:2|0:0,0:2:0:0:
296,353,68361,1,8,0:2:0:0:
321,331,68440,1,8,0:2:0:0:
334,300,68520,1,8,0:2:0:0:
332,267,68600,1,8,0:2:0:0:
316,237,68680,2,0,P|277:242|252:251,3,48.1600005878906,10|8|8|8,0:2|0:2|0:2|0:2,0:0:0:0:
239,148,68999,2,0,P|262:142|286:140,3,48.1600005878906,10|8|8|8,0:2|0:2|0:2|0:2,0:0:0:0:
140,241,69318,2,0,P|149:184|150:172,1,48.1600005878906,10|8,0:2|0:2,0:0:0:0:
417,141,69478,2,0,P|408:198|407:210,1,48.1600005878906,8|8,0:2|0:2,0:0:0:0:
256,59,69637,1,10,0:2:0:0:
389,286,69797,1,8,0:2:0:0:
389,286,69877,1,8,0:2:0:0:
389,286,69956,6,0,B|274:265|299:351|171:322,1,211.560003228149,14|0,0:2|0:0,0:0:0:0:
10,130,70595,6,0,P|75:126|175:99,1,131.580000803101,6|0,3:2|0:0,0:2:0:0:
216,56,70914,2,0,P|247:95|246:149,1,87.7200005354004,10|0,0:2|0:2,0:2:0:0:
141,273,71233,1,2,3:2:0:0:
350,179,71393,1,0,0:0:0:0:
216,56,71552,1,8,0:2:0:0:
120,151,71712,1,2,0:2:0:0:
290,298,71871,6,0,P|280:223|261:154,1,131.580000803101,0|0,3:2|0:0,0:0:0:0:
302,86,72190,2,0,P|365:85|403:131,1,87.7200005354004,8|2,0:2|0:2,0:0:0:0:
366,332,72510,2,0,P|296:341|221:368,1,131.580000803101,0|0,3:2|0:0,0:0:0:0:
143,347,72829,2,0,P|125:295|152:244,1,87.7200005354004,10|0,0:2|0:2,0:2:0:0:
202,45,73148,6,0,P|148:57|94:67,1,87.7200005354004,2|0,3:2|3:2,0:2:0:0:
116,63,73387,1,2,3:2:0:0:
116,63,73467,1,8,0:2:0:0:
258,235,73627,1,2,0:2:0:0:
303,147,73786,2,0,P|357:159|411:169,1,87.7200005354004,2|0,3:2|3:2,0:2:0:0:
389,166,74025,1,2,3:2:0:0:
389,166,74105,1,8,0:2:0:0:
185,327,74265,1,2,0:2:0:0:
139,240,74424,6,0,P|85:252|31:262,1,87.7200005354004,2|0,3:2|3:2,0:2:0:0:
54,258,74663,1,2,3:2:0:0:
54,258,74743,1,8,0:2:0:0:
313,368,74903,1,2,0:2:0:0:
179,162,75063,1,10,0:2:0:0:
376,23,75222,2,0,P|361:80|358:99,1,43.8600002677002,8|8,0:2|0:2,0:0:0:0:
179,162,75382,2,0,P|235:146|253:139,1,43.8600002677002,10|8,0:2|0:2,0:2:0:0:
398,267,75541,2,0,P|356:225|341:213,1,43.8600002677002,8|8,0:2|0:2,0:0:0:0:
305,133,75701,6,0,P|291:222|298:276,1,131.580000803101,6|0,3:2|0:0,0:2:0:0:
268,347,76020,2,0,P|222:366|170:349,1,87.7200005354004,10|0,0:2|0:2,0:2:0:0:
55,188,76339,1,2,3:2:0:0:
204,263,76499,1,0,0:2:0:0:
201,36,76659,1,8,0:2:0:0:
316,185,76818,1,2,0:2:0:0:
434,30,76978,6,0,P|417:99|420:175,1,131.580000803101,0|0,3:2|0:0,0:0:0:0:
392,255,77297,2,0,P|343:280|295:271,1,87.7200005354004,8|0,0:2|0:2,0:0:0:0:
71,113,77616,2,0,P|139:119|204:143,1,131.580000803101,2|0,3:2|0:0,0:2:0:0:
291,100,77935,1,8,0:2:0:0:
79,243,78095,1,8,0:2:0:0:
203,275,78254,6,0,P|254:285|304:299,1,87.7200005354004,2|0,3:2|0:2,0:2:0:0:
288,294,78494,1,2,0:2:0:0:
288,294,78573,1,8,0:2:0:0:
265,163,78733,1,2,0:2:0:0:
239,30,78893,2,0,P|290:40|340:54,1,87.7200005354004,2|0,3:2|0:2,0:2:0:0:
324,49,79133,1,2,3:2:0:0:
324,49,79212,1,8,0:2:0:0:
265,163,79371,1,2,0:2:0:0:
203,275,79531,6,0,P|254:285|304:299,1,87.7200005354004,2|0,3:2|0:2,0:2:0:0:
288,294,79771,1,2,0:2:0:0:
288,294,79850,1,8,0:2:0:0:
443,191,80010,1,2,0:2:0:0:
372,216,80169,1,2,3:2:0:0:
470,307,80329,1,2,3:2:0:0:
351,115,80488,1,10,0:2:0:0:
197,170,80648,1,0,3:2:0:0:
197,170,80728,1,0,3:2:0:0:
197,170,80807,6,0,P|128:187|83:192,1,87.7200005354004,14|0,0:2|3:2,0:0:0:0:
139,384,81127,2,0,P|208:367|253:362,1,87.7200005354004,10|0,0:2|3:2,0:0:0:0:
437,192,81446,1,10,0:2:0:0:
171,265,81605,1,0,3:2:0:0:
437,192,81765,1,10,0:2:0:0:
288,61,81924,1,0,3:2:0:0:
285,82,82003,1,0,3:2:0:0:
282,104,82083,5,10,0:2:0:0:
403,35,82244,1,0,3:2:0:0:
158,91,82403,1,10,0:2:0:0:
427,168,82563,1,0,3:2:0:0:
182,224,82722,2,0,P|117:239|64:254,1,87.7200005354004,10|0,0:2|3:2,0:0:0:0:
310,367,83041,1,10,0:2:0:0:
320,348,83120,1,0,0:0:0:0:
325,326,83200,1,0,3:2:0:0:
323,305,83280,1,0,3:2:0:0:
314,283,83361,6,0,P|265:282|218:321,1,87.7200005354004,14|0,0:2|3:2,0:2:0:0:
232,301,83600,1,2,0:2:0:0:
232,301,83680,1,8,0:2:0:0:
410,351,83839,1,2,3:2:0:0:
290,160,83999,1,10,0:2:0:0:
163,211,84159,2,0,P|116:227|100:229,1,43.8600002677002,0|2,3:2|0:2,0:0:0:0:
314,283,84318,1,8,0:2:0:0:
186,121,84478,1,2,3:2:0:0:
186,121,84557,1,0,3:2:0:0:
186,121,84637,6,0,P|172:69|198:27,1,87.7200005354004,10|0,0:2|3:2,0:0:0:0:
184,39,84877,1,0,0:0:0:0:
184,39,84956,1,8,0:2:0:0:
340,165,85116,1,2,3:2:0:0:
336,186,85195,1,0,3:2:0:0:
333,208,85275,1,10,0:2:0:0:
207,362,85435,1,8,0:2:0:0:
204,340,85514,1,8,0:2:0:0:
202,318,85594,1,8,0:2:0:0:
199,296,85674,1,8,0:2:0:0:
197,274,85754,1,8,0:2:0:0:
195,252,85833,1,8,0:2:0:0:
192,231,85914,6,0,B|333:201|304:304|451:269,1,268.319998362305,6|0,3:2|3:0,0:0:0:0:
278,41,87031,1,10,0:0:0:0:
342,384,87350,1,10,0:0:0:0:
