osu file format v14

[General]
AudioFilename: audio.mp3
AudioLeadIn: 0
PreviewTime: 52065
Countdown: 0
SampleSet: Soft
StackLeniency: 0.7
Mode: 0
LetterboxInBreaks: 0
WidescreenStoryboard: 0

[Editor]
Bookmarks: 51866
DistanceSpacing: 1.1
BeatDivisor: 4
GridSize: 32
TimelineZoom: 2.799999

[Metadata]
Title:MACHINEGUN (TV Size)
TitleUnicode:MACHINEGUN (TV Size)
Artist:THE ORAL CIGARETTES
ArtistUnicode:THE ORAL CIGARETTES
Creator:Nevo
Version:Scarlet
Source:SCARLET NEXUS
Tags:Shirahane Suou torriru sotarks xchorse addy2607 anime japanese rock opening jrock j-rock op
BeatmapID:3250587
BeatmapSetID:1591563

[Difficulty]
HPDrainRate:6
CircleSize:4
OverallDifficulty:9
ApproachRate:9.3
SliderMultiplier:1.7
SliderTickRate:1

[Events]
//Background and Video events
0,0,"0dc90f89-1b2f-4f8b-8106-2a1b7111365e-min.png",0,0
Video,-185,"scarlet_nexus_op2.mp4"
//Break Periods
2,42710,47062
//Storyboard Layer 0 (Background)
//Storyboard Layer 1 (Fail)
//Storyboard Layer 2 (Pass)
//Storyboard Layer 3 (Foreground)
//Storyboard Layer 4 (Overlay)
//Storyboard Sound Samples

[TimingPoints]
1659,319.148936170213,4,2,1,70,1,0
8361,-83.3333333333333,3,2,1,70,0,0
11073,-117.647058823529,3,2,1,70,0,0
11712,-86.9565217391304,3,2,1,80,0,0
21924,-100,3,2,1,70,0,0
47616,-133.333333333333,3,2,1,70,0,0
50169,-100,3,2,1,70,0,0
52722,-76.9230769230769,3,2,1,90,0,1
69956,-76.9230769230769,3,2,1,90,0,0
70595,-76.9230769230769,3,2,1,90,0,1
85914,-76.9230769230769,3,2,1,80,0,0
87031,-100,3,2,1,80,0,0
88148,-142.857142857143,3,2,1,50,0,0

[Colours]
Combo1 : 174,174,174
Combo2 : 224,95,95
Combo3 : 151,151,255

[HitObjects]
126,305,1659,5,10,0:0:0:0:
420,245,1818,1,10,0:0:0:0:
306,158,1978,2,0,L|322:264,1,85,2|0,0:0|0:0,0:0:0:0:
356,72,2297,2,0,L|336:234,1,127.5,2|0,0:0|0:0,0:0:0:0:
327,325,2616,5,10,0:0:0:0:
57,210,2775,1,10,0:0:0:0:
173,119,2935,2,0,L|157:225,1,85,2|0,0:0|0:0,0:0:0:0:
65,40,3254,2,0,L|82:159,1,85,2|0,0:0|3:0,0:0:0:0:
77,124,3494,1,0,3:0:0:0:
77,124,3573,1,12,0:0:0:0:
276,70,3733,1,8,3:3:0:0:
175,29,3893,1,8,3:3:0:0:
402,74,4052,1,8,3:3:0:0:
402,74,4132,1,8,3:3:0:0:
402,74,4212,5,10,0:0:0:0:
194,145,4371,1,10,0:0:0:0:
267,214,4531,2,0,P|324:217|353:196,1,85,2|0,0:0|0:0,0:0:0:0:
473,271,4850,2,0,P|427:234|327:223,1,127.5,2|0,0:0|0:0,0:0:0:0:
300,304,5169,5,10,0:0:0:0:
52,234,5329,1,10,0:0:0:0:
114,134,5488,2,0,P|171:131|200:152,1,85,2|0,0:0|0:0,0:0:0:0:
394,99,5807,2,0,P|341:121|307:111,1,85,2|8,0:0|3:3,0:0:0:0:
238,80,6047,1,8,3:3:0:0:
238,80,6127,1,14,0:0:0:0:
461,15,6286,1,8,0:0:0:0:
486,48,6365,1,8,0:0:0:0:
499,88,6445,1,8,3:3:0:0:
496,131,6525,1,8,3:3:0:0:
480,169,6605,1,8,3:3:0:0:
450,200,6684,1,8,3:3:0:0:
410,216,6765,5,10,0:0:0:0:
151,155,6924,1,10,0:0:0:0:
86,272,7084,2,0,L|172:258,1,85,2|0,3:2|0:0,0:0:0:0:
288,361,7403,2,0,L|202:347,1,85,2|0,3:2|0:0,0:0:0:0:
40,181,7722,5,10,0:0:0:0:
365,119,7882,1,10,0:0:0:0:
209,28,8041,2,0,L|292:41,1,85,2|0,3:2|0:0,0:0:0:0:
339,216,8361,6,0,P|273:161|270:120,1,101.999996887207,10|8,0:0|0:0,0:0:0:0:
270,149,8600,1,8,0:0:0:0:
270,149,8680,1,8,3:3:0:0:
459,169,8839,1,8,3:3:0:0:
315,329,8999,1,8,3:3:0:0:
177,103,9159,1,12,0:0:0:0:
167,120,9478,6,0,L|196:276,1,152.999995330811,6|0,3:2|0:0,0:0:0:0:
230,207,9797,2,0,L|201:363,1,152.999995330811,6|0,3:2|0:0,0:0:0:0:
113,295,10116,1,6,3:2:0:0:
364,247,10276,1,8,0:0:0:0:
266,61,10435,6,0,P|310:125|391:127,1,152.999995330811,6|0,3:2|0:0,0:0:0:0:
465,71,10754,1,6,3:2:0:0:
230,207,10914,1,8,0:0:0:0:
451,376,11073,6,0,B|483:327|483:327|455:165,1,216.750004134178,6|0,3:2|0:0,0:0:0:0:
142,246,11712,6,0,L|126:380,1,97.7500018644333,6|0,3:2|0:0,0:0:0:0:
271,102,12031,1,2,3:0:0:0:
68,188,12190,1,10,0:0:0:0:
252,301,12350,1,0,3:0:0:0:
252,301,12430,1,8,0:0:0:0:
252,301,12509,2,0,P|302:300|368:265,1,97.7500018644333,2|2,3:0|3:0,0:0:0:0:
156,157,12829,1,10,0:0:0:0:
382,40,12988,6,0,L|355:184,1,146.62500279665,2|0,3:2|0:0,0:0:0:0:
362,206,13307,1,2,3:0:0:0:
481,105,13467,1,10,0:0:0:0:
257,136,13626,1,2,3:0:0:0:
479,275,13786,1,0,3:0:0:0:
479,275,13866,1,0,3:0:0:0:
479,275,13945,2,0,P|429:276|363:311,1,97.7500018644333,0|8,3:0|0:0,0:0:0:0:
156,378,14265,6,0,L|140:244,1,97.7500018644333,6|0,3:2|0:0,0:0:0:0:
187,97,14584,1,2,3:0:0:0:
31,196,14743,1,10,0:0:0:0:
298,167,14903,1,0,3:0:0:0:
298,167,14983,1,0,3:0:0:0:
298,167,15062,2,0,P|318:113|314:47,1,97.7500018644333,2|0,3:0|3:0,0:0:0:0:
91,95,15382,1,10,0:0:0:0:
234,283,15541,6,0,P|309:262|406:251,1,146.62500279665,6|0,3:2|0:0,0:0:0:0:
468,288,15860,1,2,3:0:0:0:
197,198,16020,1,10,0:0:0:0:
442,140,16179,1,0,3:0:0:0:
442,140,16259,1,0,3:0:0:0:
442,140,16339,1,8,0:0:0:0:
223,29,16499,1,8,0:0:0:0:
175,17,16578,1,8,0:0:0:0:
128,26,16658,1,8,0:0:0:0:
87,54,16738,1,8,0:0:0:0:
62,95,16818,6,0,L|83:209,1,97.7500018644333,6|0,3:2|0:0,0:0:0:0:
218,365,17137,1,2,3:0:0:0:
299,199,17296,1,10,0:0:0:0:
117,301,17456,1,0,3:0:0:0:
117,301,17536,1,0,3:0:0:0:
117,301,17616,2,0,P|62:305|-3:285,1,97.7500018644333,2|0,3:2|3:0,0:0:0:0:
188,154,17935,1,10,0:0:0:0:
298,361,18095,6,0,L|314:190,1,146.62500279665,2|0,3:2|0:0,0:0:0:0:
351,102,18413,1,2,3:0:0:0:
497,199,18573,1,10,0:0:0:0:
370,7,18732,1,2,0:0:0:0:
292,202,18893,1,2,3:0:0:0:
452,118,19052,1,0,3:0:0:0:
452,118,19132,1,0,3:0:0:0:
452,118,19212,1,8,0:0:0:0:
163,57,19371,6,0,L|181:220,1,146.62500279665,6|0,3:2|0:0,0:0:0:0:
188,291,19690,1,0,3:0:0:0:
65,139,19850,1,8,0:0:0:0:
331,132,20010,6,0,L|313:295,1,146.62500279665,6|0,3:2|0:0,0:0:0:0:
306,366,20329,1,0,3:0:0:0:
429,214,20489,1,8,0:0:0:0:
200,322,20648,6,0,P|142:313|103:283,1,97.7500018644333,6|0,3:2|0:0,0:0:0:0:
306,366,20967,2,0,P|364:357|403:327,1,97.7500018644333,6|0,3:2|0:0,0:0:0:0:
242,136,21286,1,0,3:0:0:0:
242,136,21366,1,0,3:0:0:0:
242,136,21446,2,0,L|257:253,2,97.7500018644333,8|0|0,0:0|0:0|0:0,0:0:0:0:
153,55,21924,6,0,P|92:33|23:74,1,127.5,6|0,3:2|0:2,0:2:0:0:
37,56,22244,1,2,3:2:0:0:
30,97,22323,1,0,3:2:0:0:
23,139,22403,1,8,0:2:0:0:
139,212,22563,1,2,0:2:0:0:
10,303,22722,2,0,P|52:288|111:293,1,85,2|0,0:2|3:2,0:2:0:0:
112,297,22962,2,0,P|154:312|213:307,1,85,2|0,0:2|0:2,0:2:0:0:
211,297,23201,1,2,0:2:0:0:
423,350,23361,6,0,P|361:324|379:219,1,170,2|8,3:2|0:2,0:2:0:0:
363,232,23999,2,0,L|475:253,1,85,2|2,0:2|3:2,0:2:0:0:
285,135,24318,2,0,L|173:156,1,85,10|2,0:2|0:2,0:2:0:0:
375,24,24637,5,2,3:2:0:0:
441,66,24797,2,0,P|446:108|428:162,1,85,2|8,3:2|0:2,0:2:0:0:
289,313,25116,1,2,0:2:0:0:
220,262,25276,2,0,P|157:247|108:255,1,85,2|0,0:2|3:2,0:2:0:0:
119,228,25515,2,0,P|65:248|21:285,1,85,2|0,0:2|0:2,0:2:0:0:
26,289,25754,1,2,0:2:0:0:
203,159,25914,6,0,L|219:46,1,85,6|0,3:2|3:2,0:2:0:0:
176,0,26153,1,2,3:2:0:0:
176,0,26233,2,0,L|187:116,1,85,14|2,0:2|0:2,0:2:0:0:
448,194,26552,5,14,0:2:0:0:
101,133,26791,1,14,0:2:0:0:
301,24,27031,1,14,0:2:0:0:
378,135,27190,6,0,P|313:119|278:127,1,85,2|0,0:2|3:2,0:2:0:0:
203,159,27430,1,2,3:2:0:0:
203,159,27510,2,0,P|252:158|309:135,1,85,14|0,0:2|0:2,0:2:0:0:
101,133,27829,2,0,L|124:237,1,85,2|0,0:2|3:2,0:2:0:0:
133,232,28068,2,0,L|110:336,1,85,2|0,0:2|0:2,0:2:0:0:
102,331,28307,1,2,0:2:0:0:
408,294,28467,6,0,P|368:253|261:256,1,170,2|8,3:2|0:2,0:2:0:0:
261,255,29105,1,2,0:2:0:0:
316,342,29265,1,2,3:2:0:0:
426,176,29424,1,10,0:2:0:0:
404,256,29584,1,2,0:2:0:0:
361,93,29744,6,0,P|316:70|249:74,1,85,6|0,3:2|0:2,0:2:0:0:
458,51,30063,2,0,P|413:74|346:70,1,85,6|2,3:2|0:2,0:2:0:0:
182,35,30382,6,0,L|199:118,1,85,6|0,3:2|0:2,0:2:0:0:
78,91,30701,2,0,L|58:188,1,85,6|0,3:2|3:2,0:2:0:0:
60,174,30940,1,2,3:2:0:0:
60,174,31020,5,14,0:2:0:0:
305,340,31978,1,10,0:2:0:0:
354,349,32057,1,8,0:2:0:0:
400,330,32137,1,8,0:2:0:0:
428,288,32217,1,8,0:2:0:0:
428,238,32297,6,0,L|416:150,1,85,6|2,3:2|0:2,0:2:0:0:
296,79,32616,1,10,0:2:0:0:
381,30,32776,1,2,0:2:0:0:
195,77,32935,1,2,3:2:0:0:
311,100,33095,1,2,0:2:0:0:
117,148,33254,1,2,3:2:0:0:
220,273,33414,6,0,L|230:163,1,85,10|0,0:2|3:2,0:2:0:0:
14,103,33733,2,0,L|24:213,1,85,2|8,0:2|0:2,0:2:0:0:
25,344,34052,1,2,0:2:0:0:
130,245,34212,1,2,3:2:0:0:
196,371,34371,1,10,3:3:0:0:
116,330,34531,1,10,0:2:0:0:
301,314,34690,6,0,P|347:295|437:302,1,127.5,14|0,0:2|0:2,0:2:0:0:
448,313,35010,1,2,0:2:0:0:
360,255,35169,1,10,0:2:0:0:
495,211,35329,1,2,0:2:0:0:
283,226,35488,1,2,3:2:0:0:
381,160,35648,1,2,0:2:0:0:
205,136,35807,1,2,3:2:0:0:
426,61,35967,6,0,L|509:74,1,85,10|0,0:2|3:2,0:2:0:0:
322,88,36286,1,10,0:2:0:0:
250,24,36446,1,2,3:2:0:0:
94,78,36605,5,10,3:3:0:0:
94,78,36685,1,10,3:3:0:0:
94,78,36765,1,2,3:2:0:0:
205,136,36924,1,8,3:3:0:0:
10,122,37084,1,10,3:3:0:0:
221,123,37244,1,14,0:2:0:0:
149,208,37403,6,0,L|64:220,1,85,2|0,3:2|0:2,0:2:0:0:
87,249,37643,2,0,L|3:234,1,85,2|0,0:2|0:2,0:2:0:0:
13,274,37882,1,2,0:2:0:0:
355,287,38041,6,0,L|439:299,1,85,2|0,3:2|0:2,0:2:0:0:
417,328,38281,2,0,L|500:313,1,85,2|0,0:2|0:2,0:2:0:0:
491,353,38520,1,10,0:2:0:0:
257,227,38680,6,0,P|243:183|245:129,1,85,2|0,3:2|0:2,0:2:0:0:
287,58,38919,2,0,P|285:100|272:140,1,85,2|0,0:2|0:2,0:2:0:0:
193,67,39159,1,2,0:2:0:0:
357,117,39318,2,0,L|453:90,1,85,2|2,3:2|0:2,0:2:0:0:
512,211,39637,2,0,L|416:184,1,85,10|8,0:2|0:2,0:2:0:0:
416,204,39877,1,8,0:2:0:0:
416,204,39956,2,0,L|334:227,1,85,6|0,3:2|0:2,0:2:0:0:
193,351,40276,1,10,0:2:0:0:
150,350,40356,1,8,0:2:0:0:
114,330,40436,1,8,0:2:0:0:
92,294,40516,1,8,0:2:0:0:
90,252,40595,1,10,0:2:0:0:
109,214,40675,1,8,0:2:0:0:
144,191,40755,1,8,0:2:0:0:
179,167,40834,1,8,0:2:0:0:
197,130,40914,1,10,0:2:0:0:
196,88,40994,1,8,0:2:0:0:
174,52,41074,1,8,0:2:0:0:
137,32,41153,1,8,0:2:0:0:
95,31,41233,5,10,0:2:0:0:
117,67,41312,1,8,0:2:0:0:
149,94,41392,1,8,0:2:0:0:
187,112,41472,1,8,0:2:0:0:
229,117,41552,1,10,0:2:0:0:
271,110,41631,1,8,0:2:0:0:
309,90,41711,1,8,0:2:0:0:
339,61,41791,1,8,0:2:0:0:
372,35,41871,1,10,0:2:0:0:
413,25,41951,1,0,3:0:0:0:
454,35,42031,1,0,3:0:0:0:
487,61,42111,1,0,3:0:0:0:
505,99,42190,5,0,3:0:0:0:
500,128,42269,1,0,3:0:0:0:
496,157,42349,1,0,3:0:0:0:
492,187,42429,1,0,3:0:0:0:
488,216,42510,5,6,3:2:0:0:
205,336,47616,6,0,L|130:326,1,63.7500024318696,2|2,3:0|3:0,0:0:0:0:
141,327,48095,6,0,P|215:304|293:301,1,127.500004863739,10|8,0:0|0:0,0:0:0:0:
286,219,48573,2,0,P|339:256|344:269,1,63.7500024318696,10|0,0:0|0:0,0:0:0:0:
426,364,48893,6,0,P|420:296|444:215,1,127.500004863739,2|0,3:0|0:0,0:0:0:0:
477,157,49371,2,0,P|487:118|479:88,1,63.7500024318696,8|0,0:0|0:0,0:0:0:0:
423,32,49690,1,2,0:0:0:0:
343,77,49850,2,0,L|268:68,1,63.7500024318696,10|0,0:0|3:0,0:0:0:0:
138,9,50169,6,0,P|147:29|164:117,1,85,6|8,3:2|0:0,0:0:0:0:
61,257,50488,1,10,0:0:0:0:
80,217,50568,1,8,0:0:0:0:
115,189,50648,1,8,0:0:0:0:
155,179,50728,1,8,0:0:0:0:
198,175,50807,1,10,0:0:0:0:
415,239,50967,1,10,0:0:0:0:
415,239,51046,1,8,0:0:0:0:
415,239,51126,1,8,0:0:0:0:
298,53,51286,1,10,0:0:0:0:
298,53,51366,1,8,0:0:0:0:
298,53,51446,5,2,3:2:0:0:
300,95,51525,1,2,3:2:0:0:
303,137,51605,1,2,3:2:0:0:
306,180,51685,1,2,3:2:0:0:
309,222,51765,1,10,0:2:0:0:
394,30,51924,1,2,0:0:0:0:
182,166,52084,2,0,P|140:174|99:167,1,85,2|0,0:0|0:0,0:0:0:0:
12,227,52403,2,0,P|68:199|130:206,1,127.5,2|0,0:0|0:0,0:0:0:0:
189,309,52722,6,0,L|64:288,1,110.499994941712,6|0,3:2|3:2,0:2:0:0:
272,315,52962,1,0,3:2:0:0:
268,333,53041,2,0,L|159:351,1,110.499994941712,10|2,0:2|0:2,0:2:0:0:
347,240,53361,2,0,P|378:306|366:356,1,110.499994941712,2|0,3:2|3:2,0:2:0:0:
247,194,53680,1,10,0:2:0:0:
470,235,53839,1,2,0:2:0:0:
383,32,53999,6,0,L|372:158,1,110.499994941712,2|0,3:2|3:2,0:2:0:0:
373,142,54238,1,2,0:2:0:0:
373,142,54318,1,8,0:2:0:0:
178,83,54478,1,2,0:2:0:0:
178,83,54557,1,8,0:2:0:0:
178,83,54637,1,0,3:2:0:0:
288,40,54797,1,2,3:2:0:0:
66,36,54956,2,0,P|60:90|77:142,1,110.499994941712,8|2,0:2|0:2,0:2:0:0:
145,197,55196,1,10,0:2:0:0:
145,197,55276,6,0,L|266:181,1,110.499994941712,2|0,3:2|3:2,0:2:0:0:
398,261,55515,1,2,0:2:0:0:
390,284,55595,2,0,L|269:268,1,110.499994941712,8|2,0:2|0:2,0:2:0:0:
101,367,55914,2,0,P|170:344|196:299,1,110.499994941712,2|0,3:2|3:2,0:2:0:0:
74,272,56153,2,0,P|139:304|189:291,1,110.499994941712,2|0,0:2|0:2,0:2:0:0:
82,183,56393,1,2,0:2:0:0:
329,164,56552,6,0,L|348:35,1,110.499994941712,2|0,3:2|0:2,0:2:0:0:
418,183,56791,1,2,3:2:0:0:
418,183,56871,2,0,L|434:292,1,110.499994941712,8|2,0:2|3:2,0:2:0:0:
435,293,57111,1,0,3:2:0:0:
435,293,57190,1,8,0:2:0:0:
387,264,57269,1,8,3:3:0:0:
334,249,57349,1,8,3:3:0:0:
279,247,57429,1,8,3:3:0:0:
225,267,57510,2,0,L|205:384,1,110.499994941712,8|0,0:2|3:2,0:2:0:0:
86,74,57829,5,14,0:2:0:0:
133,308,57988,1,0,3:2:0:0:
224,60,58148,5,10,0:2:0:0:
225,267,58307,1,0,3:2:0:0:
368,107,58467,5,10,0:2:0:0:
322,266,58626,1,0,3:2:0:0:
468,187,58786,5,10,0:2:0:0:
418,290,58946,1,0,3:2:0:0:
335,27,59105,5,10,0:2:0:0:
328,239,59265,1,0,3:2:0:0:
168,15,59424,5,10,0:2:0:0:
220,242,59584,1,0,3:2:0:0:
11,82,59744,5,10,0:2:0:0:
136,331,59903,1,0,3:2:0:0:
136,331,59983,1,0,3:2:0:0:
136,331,60063,2,0,L|258:317,1,110.499994941712,14|0,0:2|0:2,0:2:0:0:
480,377,60382,6,0,L|359:360,1,110.499994941712,14|8,0:2|0:2,0:2:0:0:
352,130,60701,1,10,0:2:0:0:
400,137,60780,1,8,0:2:0:0:
436,170,60860,1,10,0:2:0:0:
449,217,60940,1,8,0:2:0:0:
434,264,61020,1,10,0:2:0:0:
192,129,61180,1,8,0:2:0:0:
186,85,61259,1,10,0:2:0:0:
181,41,61339,1,8,0:2:0:0:
345,226,61499,1,10,0:2:0:0:
190,359,61659,6,0,L|70:335,1,110.499994941712,10|8,3:3|0:3,0:0:0:0:
0,263,61898,2,0,L|108:241,1,110.499994941712,10|0,3:3|0:0,0:0:0:0:
200,202,62137,2,0,P|227:139|209:98,1,110.499994941712,10|0,0:0|3:0,0:0:0:0:
25,73,62456,1,8,0:0:0:0:
268,148,62616,5,8,0:2:0:0:
316,140,62695,1,8,0:2:0:0:
364,134,62775,1,8,0:2:0:0:
413,128,62855,1,8,0:2:0:0:
461,122,62935,6,0,P|480:185|449:249,1,110.499994941712,6|0,3:2|3:2,0:2:0:0:
506,299,63174,1,0,3:2:0:0:
506,299,63254,2,0,P|457:273|403:278,1,110.499994941712,10|0,0:2|3:2,0:2:0:0:
329,342,63494,1,10,0:2:0:0:
329,342,63573,2,0,L|219:326,1,110.499994941712,2|0,3:2|3:2,0:2:0:0:
49,359,63893,1,10,0:2:0:0:
298,256,64052,1,2,3:2:0:0:
124,96,64212,6,0,P|118:151|152:229,1,110.499994941712,2|0,3:2|3:2,0:2:0:0:
227,107,64451,2,0,P|183:141|152:220,1,110.499994941712,2|0,0:2|0:2,0:2:0:0:
312,157,64690,1,2,3:2:0:0:
312,157,64770,1,0,3:2:0:0:
312,157,64850,1,0,3:2:0:0:
167,301,65010,2,0,L|57:286,1,110.499994941712,2|8,3:2|0:2,0:2:0:0:
329,384,65329,1,2,3:2:0:0:
329,384,65409,1,8,3:2:0:0:
329,384,65488,6,0,P|359:314|350:261,1,110.499994941712,2|0,3:2|3:2,0:2:0:0:
356,281,65728,1,2,3:2:0:0:
356,281,65807,1,8,0:2:0:0:
222,200,65967,1,2,3:2:0:0:
429,76,66127,2,0,L|414:199,1,110.499994941712,2|0,3:2|3:2,0:2:0:0:
151,121,66446,1,10,0:2:0:0:
322,47,66605,1,2,3:2:0:0:
105,241,66765,6,0,P|160:236|212:218,1,110.499994941712,2|0,3:2|3:2,0:2:0:0:
328,223,67004,2,0,P|276:204|221:199,1,110.499994941712,2|0,3:2|0:2,0:2:0:0:
177,321,67244,1,2,3:2:0:0:
51,141,67403,1,8,0:2:0:0:
51,141,67483,1,8,3:3:0:0:
51,141,67563,1,2,3:2:0:0:
11,261,67722,1,8,0:2:0:0:
152,79,67882,1,2,3:2:0:0:
152,79,67962,1,0,3:2:0:0:
152,79,68041,6,0,L|281:69,1,110.499994941712,10|0,0:2|0:2,0:2:0:0:
414,222,68361,1,8,0:2:0:0:
373,213,68440,1,8,0:2:0:0:
353,177,68520,1,8,0:2:0:0:
365,138,68600,1,8,0:2:0:0:
402,120,68680,1,10,0:2:0:0:
443,128,68759,1,8,0:2:0:0:
484,159,68839,1,8,0:2:0:0:
503,212,68919,1,8,0:2:0:0:
495,264,68999,1,10,0:2:0:0:
459,302,69079,1,8,0:2:0:0:
408,315,69158,1,8,0:2:0:0:
359,298,69238,1,8,0:2:0:0:
319,272,69318,5,10,0:2:0:0:
273,263,69398,1,8,0:2:0:0:
226,271,69478,1,8,0:2:0:0:
185,294,69557,1,8,0:2:0:0:
148,324,69638,1,10,0:2:0:0:
102,333,69718,1,8,0:2:0:0:
56,321,69798,1,8,0:2:0:0:
21,289,69878,1,8,0:2:0:0:
3,245,69957,1,14,0:2:0:0:
421,90,70595,6,0,L|402:204,1,110.499994941712,6|0,3:2|0:2,0:2:0:0:
277,23,70914,2,0,L|296:137,1,110.499994941712,10|0,0:2|0:2,0:2:0:0:
163,314,71233,2,0,P|226:224|322:244,1,220.999989883423,2|8,3:2|0:2,0:2:0:0:
390,355,71712,6,0,P|323:369|258:341,1,110.499994941712,2|0,0:2|3:2,0:2:0:0:
384,142,72031,2,0,P|429:193|437:263,1,110.499994941712,2|8,0:2|0:2,0:2:0:0:
259,119,72350,2,0,B|104:92|104:92|37:121,1,220.999989883423,2|0,0:2|0:2,0:2:0:0:
116,296,72829,2,0,P|142:246|131:189,1,110.499994941712,10|0,0:2|0:2,0:2:0:0:
0,324,73148,6,0,L|145:306,1,110.499994941712,2|0,3:2|3:2,0:2:0:0:
227,268,73387,1,2,3:2:0:0:
227,268,73467,2,0,L|336:281,1,110.499994941712,8|2,0:2|0:2,0:2:0:0:
457,342,73786,2,0,P|431:262|434:220,1,110.499994941712,2|0,3:2|3:2,0:2:0:0:
489,131,74026,1,2,3:2:0:0:
489,131,74105,2,0,P|471:213|447:248,1,110.499994941712,8|2,0:2|0:2,0:2:0:0:
305,127,74424,6,0,L|281:2,1,110.499994941712,2|0,3:2|3:2,0:2:0:0:
206,96,74664,1,2,3:2:0:0:
206,96,74744,2,0,L|185:204,1,110.499994941712,8|2,0:2|0:2,0:2:0:0:
376,349,75063,1,10,0:2:0:0:
354,310,75142,1,8,0:2:0:0:
320,283,75222,1,8,0:2:0:0:
278,271,75302,1,8,0:2:0:0:
234,277,75382,2,0,L|246:348,3,55.2499974708558,10|8|8|8,0:2|0:2|0:2|0:2,0:2:0:0:
143,299,75701,6,0,P|82:272|22:270,1,110.499994941712,6|0,3:2|0:2,0:2:0:0:
280,152,76020,2,0,P|217:176|173:217,1,110.499994941712,10|0,0:2|0:2,0:2:0:0:
13,100,76339,2,0,P|67:106|117:130,1,110.499994941712,2|0,3:2|0:2,0:2:0:0:
280,259,76659,1,8,0:2:0:0:
373,209,76818,6,0,L|386:77,1,110.499994941712,2|0,0:2|3:2,0:2:0:0:
490,282,77137,2,0,L|477:150,1,110.499994941712,2|8,0:2|0:2,0:2:0:0:
269,368,77456,1,0,0:2:0:0:
269,368,77616,2,0,L|282:236,1,110.499994941712,2|0,3:2|0:2,0:2:0:0:
81,100,77935,1,8,0:2:0:0:
102,132,78014,1,8,0:2:0:0:
132,156,78094,1,8,0:2:0:0:
168,170,78174,1,8,0:2:0:0:
206,172,78254,6,0,P|264:149|332:159,1,110.499994941712,2|0,3:2|0:2,0:2:0:0:
321,141,78494,2,0,P|378:166|419:221,1,110.499994941712,2|0,0:2|0:2,0:2:0:0:
437,216,78733,1,2,0:2:0:0:
81,373,78893,6,0,P|106:315|161:274,1,110.499994941712,2|0,3:2|0:2,0:2:0:0:
140,269,79133,2,0,P|198:246|266:256,1,110.499994941712,2|0,3:2|0:2,0:2:0:0:
275,240,79372,1,2,0:2:0:0:
20,84,79531,6,0,P|78:61|146:71,1,110.499994941712,2|0,3:2|0:2,0:2:0:0:
135,53,79771,2,0,P|192:78|233:133,1,110.499994941712,2|0,0:2|0:2,0:2:0:0:
251,128,80010,1,2,0:2:0:0:
105,279,80169,2,0,L|79:150,1,110.499994941712,2|2,3:2|3:2,0:2:0:0:
446,236,80488,2,0,L|424:344,1,110.499994941712,10|0,0:2|3:2,0:2:0:0:
424,344,80728,1,0,3:2:0:0:
424,344,80807,5,14,0:2:0:0:
347,241,80967,1,0,3:2:0:0:
277,365,81127,5,10,0:2:0:0:
370,157,81286,1,0,3:2:0:0:
162,250,81446,5,10,0:2:0:0:
424,90,81605,1,0,3:2:0:0:
126,111,81765,5,10,0:2:0:0:
509,74,81924,1,0,3:2:0:0:
348,328,82084,5,10,0:2:0:0:
330,231,82244,1,0,3:2:0:0:
182,336,82403,5,10,0:2:0:0:
366,145,82563,1,0,3:2:0:0:
79,195,82722,5,10,0:2:0:0:
421,74,82882,1,0,3:2:0:0:
94,24,83041,5,10,0:2:0:0:
210,217,83201,1,0,3:2:0:0:
210,217,83281,1,0,3:2:0:0:
210,217,83361,6,0,P|253:153|246:88,1,110.499994941712,14|0,0:2|3:2,0:2:0:0:
199,28,83600,2,0,P|213:103|264:144,1,110.499994941712,2|0,0:2|0:2,0:2:0:0:
330,45,83839,1,2,3:2:0:0:
449,246,83999,6,0,L|329:223,1,110.499994941712,10|0,0:2|3:2,0:2:0:0:
370,328,84238,2,0,L|250:305,1,110.499994941712,2|0,0:2|0:2,0:2:0:0:
160,360,84478,1,2,3:2:0:0:
160,360,84557,1,0,3:2:0:0:
160,360,84637,1,10,0:2:0:0:
43,248,84797,1,0,3:2:0:0:
192,271,84956,1,8,0:2:0:0:
259,189,85116,1,2,3:2:0:0:
259,189,85196,1,0,3:2:0:0:
259,189,85276,1,10,0:2:0:0:
30,73,85435,1,8,0:2:0:0:
61,103,85514,1,8,0:2:0:0:
101,123,85594,1,8,0:2:0:0:
144,129,85674,1,8,0:2:0:0:
188,122,85754,1,8,0:2:0:0:
227,102,85833,1,8,0:2:0:0:
258,72,85913,5,6,3:2:0:0:
258,72,86871,5,0,3:0:0:0:
184,325,87031,2,0,L|164:218,1,85,10|0,0:0|0:0,0:0:0:0:
321,371,87350,2,0,L|341:264,1,85,10|0,0:0|0:0,0:0:0:0:
498,230,87669,1,2,0:0:0:0:
498,230,87829,2,0,P|439:248|380:192,1,127.5,2|0,0:0|0:0,0:0:0:0:
379,198,88148,6,0,L|360:61,1,118.999996368408,2|0,0:0|0:0,0:0:0:0:
