osu file format v14

[General]
AudioFilename: audio.mp3
AudioLeadIn: 0
PreviewTime: 52065
Countdown: 0
SampleSet: Soft
StackLeniency: 0.7
Mode: 0
LetterboxInBreaks: 0
WidescreenStoryboard: 1

[Editor]
Bookmarks: 51866
DistanceSpacing: 1.1
BeatDivisor: 4
GridSize: 32
TimelineZoom: 2.299999

[Metadata]
Title:MACHINEGUN (TV Size)
TitleUnicode:MACHINEGUN (TV Size)
Artist:THE ORAL CIGARETTES
ArtistUnicode:THE ORAL CIGARETTES
Creator:Nevo
Version:Addy's Normal
Source:SCARLET NEXUS
Tags:Shirahane Suou torriru sotarks xchorse addy2607 anime japanese rock opening jrock j-rock op
BeatmapID:3254441
BeatmapSetID:1591563

[Difficulty]
HPDrainRate:4
CircleSize:3
OverallDifficulty:5
ApproachRate:6
SliderMultiplier:0.999999999999999
SliderTickRate:1

[Events]
//Background and Video events
0,0,"0dc90f89-1b2f-4f8b-8106-2a1b7111365e-min.png",0,0
Video,-185,"scarlet_nexus_op2.mp4"
//Break Periods
//Storyboard Layer 0 (Background)
//Storyboard Layer 1 (Fail)
//Storyboard Layer 2 (Pass)
//Storyboard Layer 3 (Foreground)
//Storyboard Layer 4 (Overlay)
//Storyboard Sound Samples

[TimingPoints]
1659,319.148936170213,4,2,1,70,1,0
1659,-111.111111111111,3,2,1,70,0,0
8361,-105.263157894737,3,2,1,70,0,0
11073,-105.263157894737,3,2,1,70,0,0
11712,-100,3,2,1,80,0,0
21924,-105.263157894737,3,2,1,70,0,0
47616,-105.263157894737,3,2,1,70,0,0
50169,-100,3,2,1,70,0,0
52722,-95.2380952380952,3,2,1,90,0,1
69956,-100,3,2,1,90,0,0
70595,-95.2380952380952,3,2,1,90,0,1
85914,-100,3,2,1,80,0,0
87031,-100,3,2,1,80,0,0
88148,-100,3,2,1,50,0,0

[Colours]
Combo1 : 174,174,174
Combo2 : 224,95,95
Combo3 : 151,151,255

[HitObjects]
496,50,1659,6,0,L|496:103,1,44.999998626709,10|10,0:0|0:0,0:0:0:0:
499,342,2616,2,0,L|446:342,1,44.999998626709,10|10,0:0|0:0,0:0:0:0:
259,342,3414,1,0,3:0:0:0:
259,342,3573,2,0,L|206:342,1,44.999998626709,12|8,0:0|3:3,0:0:0:0:
164,339,3893,1,8,3:3:0:0:
65,338,4212,6,0,L|65:285,1,44.999998626709,10|10,0:0|0:0,0:0:0:0:
61,45,5169,2,0,L|114:45,1,44.999998626709,10|10,0:0|0:0,0:0:0:0:
308,46,5967,1,8,3:3:0:0:
308,46,6127,2,0,L|308:99,1,44.999998626709,14|8,0:0|0:0,0:0:0:0:
311,140,6446,2,0,L|311:193,1,44.999998626709,8|8,3:3|3:3,0:0:0:0:
311,234,6765,6,0,L|364:234,1,44.999998626709,10|10,0:0|0:0,0:0:0:0:
406,232,7084,1,2,3:2:0:0:
484,292,7403,1,2,3:2:0:0:
407,355,7722,2,0,L|354:355,1,44.999998626709,10|10,0:0|0:0,0:0:0:0:
312,357,8041,1,2,3:2:0:0:
207,355,8361,2,0,L|207:290,1,47.4999987316131,10|8,0:0|0:0,0:0:0:0:
207,255,8680,2,0,L|207:190,1,47.4999987316131,8|8,3:3|3:3,0:0:0:0:
211,159,8999,1,8,3:3:0:0:
211,159,9159,1,12,0:0:0:0:
211,54,9478,5,6,3:2:0:0:
106,56,9797,1,6,3:2:0:0:
1,56,10116,2,0,L|0:0,2,47.4999987316131,6|8|6,3:2|0:0|3:2,0:0:0:0:
1,160,10754,1,6,3:2:0:0:
2,264,11073,2,0,P|71:298|120:258,1,142.499996194839,6|0,3:2|0:0,0:0:0:0:
138,211,11712,6,0,L|137:97,1,99.9999999999999,6|2,3:2|3:0,0:0:0:0:
138,56,12190,1,10,0:0:0:0:
248,56,12510,2,0,L|305:55,1,50,2|2,3:0|3:0,0:0:0:0:
353,55,12829,1,10,0:0:0:0:
353,55,12988,2,0,B|399:31|399:31|452:62,1,99.9999999999999,2|2,3:2|3:0,0:0:0:0:
487,84,13467,1,10,0:0:0:0:
491,193,13786,2,0,L|491:248,1,50,0|0,3:0|3:0,0:0:0:0:
495,302,14105,1,8,0:0:0:0:
495,302,14265,6,0,P|449:278|402:311,1,99.9999999999999,6|2,3:2|3:0,0:0:0:0:
380,345,14744,1,10,0:0:0:0:
294,276,15063,2,0,L|294:221,1,50,2|0,3:0|3:0,0:0:0:0:
294,170,15382,1,10,0:0:0:0:
294,170,15541,2,0,P|312:120|284:78,1,99.9999999999999,6|2,3:2|3:0,0:0:0:0:
239,60,16020,2,0,L|176:60,1,50,10|0,0:0|3:0,0:0:0:0:
133,62,16339,2,0,L|70:62,1,50,8|8,0:0|0:0,0:0:0:0:
37,91,16659,1,8,0:0:0:0:
37,91,16818,6,0,P|19:141|47:183,1,99.9999999999999,6|2,3:2|3:0,0:0:0:0:
78,219,17297,1,10,0:0:0:0:
25,315,17616,2,0,L|85:315,1,50,2|0,3:2|3:0,0:0:0:0:
134,317,17935,1,10,0:0:0:0:
134,317,18095,2,0,B|180:341|180:341|233:310,1,99.9999999999999,2|2,3:2|3:0,0:0:0:0:
270,292,18573,1,10,0:0:0:0:
270,181,18893,2,0,L|270:112,1,50,2|0,3:0|3:0,0:0:0:0:
275,79,19212,1,8,0:0:0:0:
275,79,19371,6,0,L|393:79,1,99.9999999999999,6|0,3:2|3:0,0:0:0:0:
434,87,19850,1,8,0:0:0:0:
434,87,20009,2,0,L|434:205,1,99.9999999999999,6|0,3:2|3:0,0:0:0:0:
439,246,20488,1,8,0:0:0:0:
439,246,20648,1,6,3:2:0:0:
441,355,20967,1,6,3:2:0:0:
331,355,21286,1,0,3:0:0:0:
331,355,21446,2,0,L|331:297,1,50,8|0,0:0|0:0,0:0:0:0:
331,249,21765,1,0,0:0:0:0:
331,249,21924,6,0,B|285:272|285:272|241:248,1,94.9999974632263,6|2,3:2|3:2,0:2:0:0:
152,290,22563,1,2,0:2:0:0:
152,290,22722,2,0,L|151:380,2,71.2499980974197,2|2|2,0:2|0:2|0:2,0:2:0:0:
111,256,23361,2,0,P|87:212|113:169,1,94.9999974632263,2|8,3:2|0:2,0:2:0:0:
179,101,23999,2,0,L|241:101,1,47.4999987316131,2|2,0:2|3:2,0:2:0:0:
278,101,24318,1,10,0:2:0:0:
363,40,24637,6,0,B|404:17|404:17|461:49,1,94.9999974632263,2|8,3:2|0:2,0:0:0:0:
488,71,25116,1,2,0:2:0:0:
488,71,25276,2,0,L|488:182,1,94.9999974632263,2|8,0:2|0:2,0:2:0:0:
492,270,25914,2,0,L|438:270,1,47.4999987316131,6|0,3:2|3:2,0:2:0:0:
392,270,26233,1,14,0:2:0:0:
292,239,26552,2,0,P|281:281|296:311,2,71.2499980974197,14|14|14,0:2|0:2|0:2,0:0:0:0:
325,198,27190,1,2,0:2:0:0:
399,124,27510,6,0,L|398:66,1,47.4999987316131,14|0,0:2|0:2,0:2:0:0:
398,24,27829,2,0,L|471:22,2,71.2499980974197,2|2|2,0:2|0:2|0:2,0:2:0:0:
345,28,28467,2,0,P|296:47|256:22,1,94.9999974632263,2|8,3:2|0:2,0:2:0:0:
166,73,29105,2,0,L|166:139,1,47.4999987316131,2|2,0:2|3:2,0:0:0:0:
168,172,29424,2,0,L|168:238,1,47.4999987316131,10|2,0:2|0:2,0:0:0:0:
196,263,29744,6,0,P|225:297|202:352,1,94.9999974632263,6|6,3:2|3:2,0:2:0:0:
164,360,30222,1,2,0:2:0:0:
164,360,30382,2,0,L|49:360,1,94.9999974632263,6|6,3:2|3:2,0:2:0:0:
20,362,30861,1,0,3:2:0:0:
20,362,31020,1,14,0:2:0:0:
8,153,31659,2,0,L|62:153,1,47.4999987316131
102,175,31978,2,0,L|156:174,1,47.4999987316131,10|8,0:2|0:2,0:0:0:0:
191,143,32297,6,0,L|192:89,1,47.4999987316131,6|2,3:2|0:2,0:2:0:0:
191,43,32616,1,10,0:2:0:0:
292,17,32935,2,0,L|292:81,1,47.4999987316131,2|2,3:2|0:2,0:0:0:0:
296,120,33254,1,2,3:2:0:0:
296,120,33414,2,0,B|321:161|321:161|293:211,1,94.9999974632263,10|2,0:2|0:2,0:2:0:0:
229,281,34052,1,2,0:2:0:0:
229,281,34212,2,0,L|162:281,2,47.4999987316131,2|10|10,3:2|3:3|0:2,0:0:0:0:
272,309,34690,6,0,L|379:309,1,94.9999974632263,14|2,0:2|0:2,0:2:0:0:
419,310,35169,1,10,0:2:0:0:
464,216,35488,2,0,L|527:216,2,47.4999987316131,2|2|2,3:2|0:2|3:2,0:0:0:0:
428,177,35967,2,0,B|448:133|448:133|417:89,1,94.9999974632263,10|10,0:2|0:2,0:2:0:0:
320,99,36605,1,10,3:3:0:0:
320,99,36765,2,0,L|256:99,1,47.4999987316131,2|8,3:2|3:3,0:0:0:0:
220,99,37084,1,10,3:3:0:0:
115,99,37403,6,0,P|73:81|23:109,1,94.9999974632263,2|8,3:2|0:2,0:2:0:0:
0,142,37882,1,2,0:2:0:0:
0,142,38041,2,0,L|0:238,1,94.9999974632263,2|8,3:2|0:0,0:2:0:0:
30,279,38520,2,0,P|72:297|122:269,1,94.9999974632263,10|0,0:2|0:2,0:0:0:0:
157,248,38999,1,8,0:2:0:0:
229,322,39318,2,0,P|256:329|286:317,1,47.4999987316131,2|2,3:2|0:2,0:2:0:0:
321,300,39637,2,0,P|340:280|345:248,1,47.4999987316131,10|8,0:2|0:2,0:2:0:0:
346,209,39956,6,0,P|326:165|270:147,1,94.9999974632263,6|10,3:2|0:2,0:2:0:0:
232,145,40435,1,8,0:2:0:0:
232,145,40595,2,0,L|177:145,1,47.4999987316131,10|8,0:2|0:2,0:0:0:0:
132,143,40914,1,10,0:2:0:0:
98,44,41233,2,0,L|153:44,1,47.4999987316131,10|8,0:2|0:2,0:0:0:0:
193,23,41552,2,0,L|248:23,1,47.4999987316131,10|8,0:2|0:2,0:0:0:0:
283,53,41871,2,0,L|338:53,1,47.4999987316131,10|0,0:2|3:0,0:0:0:0:
370,19,42190,1,2,3:0:0:0:
457,75,42510,5,6,3:2:0:0:
256,192,42669,12,0,45063,0:0:0:0:
457,75,46339,6,0,L|459:189,1,94.9999974632263
366,219,46978,2,0,L|366:151,1,47.4999987316131
366,119,47297,1,0,0:0:0:0:
304,34,47616,6,0,B|363:-4|363:-4|425:31,2,142.499996194839,2|10|10,3:0|0:0|0:0,0:0:0:0:
244,120,48893,2,0,L|245:283,2,142.499996194839,2|8|10,3:0|0:0|0:0,0:0:0:0:
153,57,50169,6,0,P|103:37|58:70,1,99.9999999999999,6|10,3:2|0:0,0:0:0:0:
25,95,50648,1,8,0:0:0:0:
25,95,50807,2,0,L|25:210,1,99.9999999999999,10|8,0:0|0:0,0:0:0:0:
23,305,51446,2,0,L|80:306,1,50,2|2,3:2|3:2,0:0:0:0:
128,307,51765,2,0,L|185:308,1,50,10|2,0:2|0:0,0:0:0:0:
233,307,52084,1,2,0:0:0:0:
301,221,52403,1,2,0:0:0:0:
219,139,52722,6,0,P|201:81|242:49,1,104.999996795654,6|10,3:2|0:2,0:2:0:0:
285,46,53201,1,2,0:2:0:0:
285,46,53361,2,0,L|407:46,1,104.999996795654,2|10,3:2|0:2,0:2:0:0:
447,47,53839,1,2,0:2:0:0:
447,47,53999,2,0,P|472:91|449:141,1,104.999996795654,2|8,3:2|0:2,0:2:0:0:
414,181,54478,2,0,P|389:225|412:275,1,104.999996795654,2|2,0:2|3:2,0:0:0:0:
447,314,54956,1,8,0:2:0:0:
339,355,55276,6,0,L|224:355,1,104.999996795654,2|8,3:2|0:2,0:2:0:0:
176,355,55754,1,2,0:2:0:0:
176,355,55914,2,0,L|176:240,1,104.999996795654,2|8,3:2|0:2,0:2:0:0:
175,192,56393,1,2,0:2:0:0:
175,192,56552,2,0,P|148:149|170:103,1,104.999996795654,2|8,3:2|0:2,0:2:0:0:
227,92,57031,2,0,L|292:92,1,52.4999983978271,2|8,3:2|0:2,0:0:0:0:
337,93,57350,1,8,3:3:0:0:
452,95,57669,1,0,3:2:0:0:
452,95,57829,6,0,L|452:169,1,52.4999983978271,14|0,0:2|3:2,0:0:0:0:
455,205,58148,2,0,L|455:279,1,52.4999983978271,10|0,0:2|3:2,0:0:0:0:
460,319,58467,1,10,0:2:0:0:
460,319,58627,1,0,3:2:0:0:
353,363,58946,2,0,L|353:289,1,52.4999983978271,0|10,3:2|0:2,0:0:0:0:
350,253,59265,2,0,L|350:179,1,52.4999983978271,0|10,3:2|0:2,0:0:0:0:
350,146,59584,1,0,3:2:0:0:
350,146,59744,2,0,L|350:72,1,52.4999983978271,10|0,0:2|3:2,0:0:0:0:
350,35,60063,1,14,0:2:0:0:
234,41,60382,6,0,L|125:41,1,104.999996795654,14|10,0:2|0:2,0:2:0:0:
75,42,60861,1,10,0:2:0:0:
75,42,61020,2,0,L|75:96,1,52.4999983978271,10|8,0:2|0:2,0:0:0:0:
75,152,61339,2,0,L|75:206,1,52.4999983978271,8|10,0:2|0:2,0:0:0:0:
75,262,61659,2,0,B|36:248|36:248|2:267,2,78.7499975967407,10|10|10,3:3|3:3|0:0,0:0:0:0:
188,302,62456,1,8,0:0:0:0:
188,302,62616,2,0,L|255:302,1,52.4999983978271,8|8,0:2|0:2,0:0:0:0:
298,302,62935,6,0,P|336:330|390:302,1,104.999996795654,6|10,3:2|0:2,0:2:0:0:
432,275,63414,1,0,3:2:0:0:
432,275,63573,2,0,L|432:152,1,104.999996795654,2|10,3:2|0:2,0:2:0:0:
393,135,64052,1,2,3:2:0:0:
393,135,64212,2,0,P|355:107|301:135,1,104.999996795654,2|8,3:2|0:2,0:2:0:0:
262,165,64690,2,0,P|224:193|170:165,1,104.999996795654,2|2,3:2|3:2,0:0:0:0:
137,128,65169,1,8,0:2:0:0:
30,171,65488,6,0,L|30:292,1,104.999996795654,2|8,3:2|0:2,0:2:0:0:
37,337,65967,1,2,3:2:0:0:
37,337,66127,2,0,B|88:311|88:311|141:339,1,104.999996795654,2|10,3:2|0:2,0:2:0:0:
190,326,66605,1,2,3:2:0:0:
190,326,66765,2,0,B|239:350|239:350|290:318,1,104.999996795654,2|8,3:2|0:2,0:2:0:0:
328,288,67244,2,0,L|328:228,1,52.4999983978271,2|8,3:2|0:2,0:0:0:0:
329,177,67563,1,2,3:2:0:0:
213,182,67882,1,2,3:2:0:0:
213,182,68041,6,0,L|149:182,1,52.4999983978271,10|0,0:2|0:2,0:2:0:0:
102,184,68361,1,8,0:2:0:0:
50,80,68680,2,0,L|114:80,1,52.4999983978271,10|8,0:2|0:2,0:0:0:0:
160,79,68999,2,0,L|224:79,1,52.4999983978271,10|8,0:2|0:2,0:0:0:0:
259,44,69318,2,0,L|323:44,1,52.4999983978271,10|8,0:2|0:2,0:0:0:0:
369,43,69637,2,0,L|433:43,1,52.4999983978271,10|8,0:2|0:2,0:0:0:0:
476,45,69956,1,14,0:2:0:0:
483,155,70276,1,0,0:0:0:0:
486,270,70595,6,0,L|422:270,1,52.4999983978271,6|0,3:2|0:2,0:2:0:0:
375,271,70914,2,0,L|311:271,1,52.4999983978271,10|0,0:2|0:2,0:2:0:0:
268,274,71233,1,2,3:2:0:0:
268,274,71393,1,0,0:0:0:0:
152,269,71712,2,0,L|152:205,1,52.4999983978271,2|0,0:2|3:2,0:2:0:0:
151,158,72031,2,0,L|151:94,1,52.4999983978271,2|8,0:2|0:2,0:2:0:0:
148,51,72350,1,2,0:2:0:0:
148,51,72510,2,0,L|95:51,1,52.4999983978271,0|0,3:2|0:2,0:0:0:0:
37,52,72829,1,10,0:2:0:0:
3,162,73148,6,0,P|-21:211|11:258,1,104.999996795654,2|8,3:2|0:2,0:2:0:0:
47,286,73627,1,2,0:2:0:0:
47,286,73786,2,0,B|96:264|96:264|152:286,1,104.999996795654,2|8,3:2|0:2,0:2:0:0:
200,311,74265,1,2,0:2:0:0:
200,311,74424,2,0,B|249:333|249:333|302:309,1,104.999996795654,2|8,3:2|0:2,0:2:0:0:
340,275,74903,1,2,0:2:0:0:
340,275,75063,2,0,L|417:275,1,52.4999983978271,10|8,0:2|0:2,0:0:0:0:
450,276,75382,1,10,0:2:0:0:
493,168,75701,6,0,L|416:168,1,52.4999983978271,6|0,3:2|0:2,0:2:0:0:
382,168,76020,2,0,L|305:168,1,52.4999983978271,10|0,0:2|0:2,0:2:0:0:
271,169,76339,1,2,3:2:0:0:
271,169,76499,1,0,0:2:0:0:
184,92,76818,2,0,P|153:79|130:82,1,52.4999983978271,2|0,0:2|3:2,0:2:0:0:
79,98,77137,2,0,P|52:118|43:139,1,52.4999983978271,2|8,0:2|0:2,0:2:0:0:
37,192,77456,1,0,0:2:0:0:
37,192,77616,2,0,P|41:225|55:243,1,52.4999983978271,2|0,3:2|0:2,0:2:0:0:
95,278,77935,1,8,0:2:0:0:
210,283,78254,6,0,L|316:283,1,104.999996795654,2|8,3:2|0:2,0:2:0:0:
370,314,78733,1,2,0:2:0:0:
370,314,78893,2,0,B|415:337|415:337|470:309,1,104.999996795654,2|8,3:2|0:2,0:2:0:0:
511,280,79371,1,2,0:2:0:0:
511,280,79531,2,0,L|511:171,1,104.999996795654,2|8,3:2|0:2,0:2:0:0:
509,117,80010,2,0,P|470:151|416:123,1,104.999996795654,2|2,0:2|3:2,0:0:0:0:
350,46,80648,1,0,3:2:0:0:
350,46,80807,6,0,L|278:46,1,52.4999983978271,14|0,0:2|3:2,0:0:0:0:
239,45,81127,2,0,L|167:45,1,52.4999983978271,10|0,0:2|3:2,0:0:0:0:
128,46,81446,1,10,0:2:0:0:
128,46,81605,1,0,3:2:0:0:
64,142,81924,2,0,L|136:142,1,52.4999983978271,0|10,3:2|0:2,0:0:0:0:
175,143,82244,2,0,L|247:143,1,52.4999983978271,0|10,3:2|0:2,0:0:0:0:
286,142,82563,1,0,3:2:0:0:
286,142,82722,2,0,L|286:214,1,52.4999983978271,10|0,0:2|3:2,0:0:0:0:
288,252,83041,1,10,0:2:0:0:
289,367,83361,6,0,L|182:367,1,104.999996795654,14|8,0:2|0:2,0:2:0:0:
138,342,83839,1,2,3:2:0:0:
138,342,83999,2,0,B|90:370|90:370|31:341,1,104.999996795654,10|8,0:2|0:2,0:2:0:0:
5,315,84478,1,2,3:2:0:0:
5,315,84637,2,0,L|5:207,1,104.999996795654,10|8,0:2|0:2,0:0:0:0:
6,156,85116,1,2,3:2:0:0:
6,156,85276,1,10,0:2:0:0:
121,151,85595,2,0,L|183:151,1,52.4999983978271,8|8,0:2|0:2,0:0:0:0:
228,150,85914,6,0,B|279:112|336:157|315:159|370:215|424:162,1,200,6|0,3:2|0:0,0:0:0:0:
505,238,86871,1,0,3:0:0:0:
505,238,87031,1,10,0:0:0:0:
443,329,87350,1,10,0:0:0:0:
353,265,87669,1,2,0:0:0:0:
353,265,87829,2,0,P|308:261|273:307,1,99.9999999999999,2|2,0:0|0:0,0:0:0:0:
