osu file format v14

[General]
AudioFilename: audio.mp3
AudioLeadIn: 0
PreviewTime: 70176
Countdown: 0
SampleSet: Soft
StackLeniency: 0.7
Mode: 0
LetterboxInBreaks: 0
WidescreenStoryboard: 0

[Editor]
DistanceSpacing: 1.2
BeatDivisor: 4
GridSize: 8
TimelineZoom: 1.599999

[Metadata]
Title:Livelock Art
TitleUnicode:リブロックアート
Artist:THE ORAL CIGARETTES
ArtistUnicode:THE ORAL CIGARETTES
Creator:SMOKELIND
Version:Extra
Source:
Tags:あきらかにあきら Akira Akirakani 山中拓也 Takuya Yamanaka 鈴木重伸 Shigenobu Suzuki 中西雅哉 Masaya Nakanishi oral cigs j-rock
BeatmapID:1840045
BeatmapSetID:879904

[Difficulty]
HPDrainRate:5.2
CircleSize:4
OverallDifficulty:8.7
ApproachRate:9.2
SliderMultiplier:1.67
SliderTickRate:1

[Events]
//Background and Video events
0,0,"65655271_p0.jpg",0,0
//Break Periods
//Storyboard Layer 0 (Background)
//Storyboard Layer 1 (Fail)
//Storyboard Layer 2 (Pass)
//Storyboard Layer 3 (Foreground)
//Storyboard Sound Samples

[TimingPoints]
-876,315.789473684211,4,2,7,77,1,0
70,-103.092783505155,4,2,7,77,0,0
9859,-129.87012987013,4,2,7,87,0,0
10333,-85.4700854700855,4,2,7,87,0,0
28017,-103.092783505155,4,2,7,87,0,0
30543,-93.4579439252339,4,2,7,77,0,0
50912,-129.87012987013,4,2,7,57,0,0
61017,-85.4700854700855,4,2,7,77,0,0
68438,-78.7401574803149,4,2,7,87,0,0
73491,-93.4579439252336,4,2,7,87,0,0
73728,-93.4579439252336,4,2,7,5,0,0
73807,-72.992700729927,4,2,7,87,0,0
74043,-93.4579439252336,4,2,7,5,0,0
74122,-93.4579439252336,4,2,7,87,0,0
74359,-93.4579439252336,4,2,7,5,0,0
74438,-72.992700729927,4,2,7,87,0,0
74675,-93.4579439252336,4,2,7,5,0,0
74754,-93.4579439252336,4,2,7,87,0,0
74991,-93.4579439252336,4,2,7,5,0,0
75070,-72.992700729927,4,2,7,87,0,0
75307,-93.4579439252336,4,2,7,5,0,0
75386,-93.4579439252336,4,2,7,87,0,0
75622,-93.4579439252336,4,2,7,5,0,0
75701,-78.7401574803149,4,2,7,87,0,0
83596,-93.4579439252336,4,2,7,87,0,0
83833,-93.4579439252336,4,2,7,5,0,0
83912,-72.992700729927,4,2,7,87,0,0
84148,-93.4579439252336,4,2,7,5,0,0
84227,-93.4579439252336,4,2,7,87,0,0
84464,-93.4579439252336,4,2,7,5,0,0
84543,-72.992700729927,4,2,7,87,0,0
84859,-93.4579439252336,4,2,7,87,0,0
85096,-93.4579439252336,4,2,7,5,0,0
85175,-72.992700729927,4,2,7,87,0,0
85412,-93.4579439252336,4,2,7,5,0,0
85491,-93.4579439252336,4,2,7,87,0,0
85729,-93.4579439252336,4,2,7,5,0,0
85806,-72.992700729927,4,2,7,87,0,0
86123,-78.7401574803149,4,2,7,87,0,0
91018,-93.4579439252336,4,2,7,77,0,0
91255,-93.4579439252336,4,2,7,5,0,0
91334,-78.7401574803149,4,2,7,77,0,0
93544,-103.092783505155,4,2,7,77,0,0
103807,-78.7401574803149,4,2,7,97,0,0
113281,-212.765957446809,4,2,7,77,0,0
115176,-212.765957446809,4,2,7,47,0,0
117702,-212.765957446809,4,2,7,27,0,0
118808,-212.765957446809,4,2,7,5,0,0

[Colours]
Combo1 : 255,112,43
Combo2 : 149,149,255
Combo3 : 255,202,149
Combo4 : 43,43,255

[HitObjects]
440,272,71,5,8,0:0:0:0:
440,272,229,2,0,P|383:260|338:260,1,80.9950019156228,2|0,1:0|1:0,0:0:0:0:
220,258,544,1,2,1:0:0:0:
318,181,702,1,10,0:0:0:0:
318,181,860,1,2,1:0:0:0:
232,88,1018,2,0,P|230:144|238:183,1,80.9950019156228,2|0,1:0|1:0,0:0:0:0:
298,22,1334,1,10,0:0:0:0:
298,22,1492,5,2,1:0:0:0:
164,36,1650,1,2,1:0:0:0:
164,36,1808,1,2,1:0:0:0:
311,100,1966,1,10,0:0:0:0:
141,122,2123,2,0,P|105:108|51:102,2,80.9950019156228,2|2|0,1:0|1:0|1:0,0:0:0:0:
289,174,2597,1,8,0:0:0:0:
209,281,2755,6,0,P|195:343|196:386,1,80.9950019156228,2|0,1:0|1:0,0:0:0:0:
271,205,3071,1,2,1:0:0:0:
371,332,3229,1,10,0:0:0:0:
277,241,3387,1,2,1:0:0:0:
352,355,3544,2,0,P|363:312|385:274,1,80.9950019156228,2|0,1:0|1:0,0:0:0:0:
495,159,3860,1,10,0:0:0:0:
495,159,4018,5,2,1:0:0:0:
335,154,4176,1,2,1:0:0:0:
335,154,4334,1,2,1:0:0:0:
390,51,4492,2,0,P|377:90|371:130,1,80.9950019156228,10|2,0:0|1:0,0:0:0:0:
265,16,4808,1,2,1:0:0:0:
189,130,4966,1,2,1:0:0:0:
293,43,5123,1,10,0:0:0:0:
134,44,5281,6,0,P|93:55|48:76,1,80.9950019156228,2|0,1:0|1:0,0:0:0:0:
53,250,5597,1,2,1:0:0:0:
164,152,5755,1,10,0:0:0:0:
2,165,5913,1,2,1:0:0:0:
162,241,6071,2,0,P|195:266|227:304,1,80.9950019156228,2|0,1:0|1:0,0:0:0:0:
293,141,6387,1,10,0:0:0:0:
293,141,6544,5,2,1:0:0:0:
319,272,6702,1,2,1:0:0:0:
376,121,6860,1,2,1:0:0:0:
295,250,7018,1,10,0:0:0:0:
207,121,7176,2,0,P|182:73|133:33,2,80.9950019156228,2|2|0,1:0|1:0|1:0,0:0:0:0:
203,291,7650,1,8,0:0:0:0:
58,150,7808,6,0,B|47:220|104:198|86:299,1,121.492502873434,6|0,1:0|0:0,0:0:0:0:
80,334,8123,1,8,0:0:0:0:
217,211,8281,1,8,0:0:0:0:
14,257,8439,1,8,0:0:0:0:
194,371,8597,1,10,0:0:0:0:
450,205,8913,5,8,0:0:0:0:
343,30,9071,1,8,0:0:0:0:
326,235,9229,1,8,0:0:0:0:
419,62,9387,1,8,0:0:0:0:
262,179,9544,1,10,0:0:0:0:
262,179,9860,6,0,P|244:117|216:71,1,96.4424980869256,2|0,0:0|0:0,0:0:0:0:
199,53,10176,1,8,0:0:0:0:
65,202,10334,6,0,P|82:143|103:96,1,97.6950003726768,6|0,1:0|0:0,0:0:0:0:
183,286,10650,1,2,1:0:0:0:
32,196,10808,1,10,0:0:0:0:
101,359,10966,1,2,1:0:0:0:
175,193,11123,1,2,1:0:0:0:
191,371,11281,1,2,1:0:0:0:
55,274,11439,1,10,0:0:0:0:
252,324,11597,6,0,P|301:309|359:309,1,97.6950003726768,2|0,1:0|1:0,0:0:0:0:
512,231,11913,1,2,1:0:0:0:
411,362,12071,1,10,0:0:0:0:
411,362,12150,1,0,1:0:0:0:
411,362,12229,1,2,1:0:0:0:
395,205,12387,1,2,1:0:0:0:
489,334,12544,1,2,1:0:0:0:
444,150,12702,1,10,0:0:0:0:
258,239,12860,6,0,B|154:257|185:166|50:191,1,195.390000745354,6|2,1:0|1:0,0:0:0:0:
230,95,13334,1,10,0:0:0:0:
73,32,13492,1,2,1:0:0:0:
217,131,13650,1,2,1:0:0:0:
88,244,13808,1,2,1:0:0:0:
140,88,13966,1,10,0:0:0:0:
250,239,14123,6,0,P|266:315|263:372,1,97.6950003726768,2|0,1:0|1:0,0:0:0:0:
300,170,14439,1,2,1:0:0:0:
410,309,14597,1,10,0:0:0:0:
410,309,14676,1,0,1:0:0:0:
410,309,14755,1,2,1:0:0:0:
484,154,14913,1,2,1:0:0:0:
357,240,15071,1,2,1:0:0:0:
448,84,15229,1,10,0:0:0:0:
275,155,15387,6,0,B|175:191|192:109|71:138,1,195.390000745354,6|2,1:0|1:0,0:0:0:0:
3,0,15860,1,10,0:0:0:0:
16,175,16018,1,2,1:0:0:0:
120,39,16176,1,2,1:0:0:0:
117,209,16334,1,2,1:0:0:0:
4,86,16492,1,10,0:0:0:0:
53,267,16650,6,0,P|71:328|76:376,1,97.6950003726768,2|0,1:0|1:0,0:0:0:0:
131,180,16966,1,2,1:0:0:0:
201,355,17123,1,10,0:0:0:0:
201,355,17202,1,0,1:0:0:0:
201,355,17281,1,2,1:0:0:0:
270,194,17439,1,2,1:0:0:0:
144,296,17597,1,2,1:0:0:0:
328,270,17755,1,10,0:0:0:0:
168,171,17913,6,0,P|121:161|62:157,1,97.6950003726768,6|0,1:0|0:0,0:0:0:0:
245,69,18229,1,2,1:0:0:0:
257,227,18387,1,10,0:0:0:0:
168,87,18544,1,2,1:0:0:0:
285,210,18702,2,0,P|299:249|304:307,1,97.6950003726768,2|0,1:0|1:0,0:0:0:0:
379,128,19018,1,10,0:0:0:0:
474,294,19176,5,2,1:0:0:0:
474,294,19255,1,0,1:0:0:0:
474,294,19334,1,2,1:0:0:0:
456,139,19492,1,2,1:0:0:0:
372,320,19650,1,8,3:2:0:0:
353,348,19729,1,0,3:0:0:0:
325,366,19808,1,0,3:0:0:0:
291,371,19887,1,0,3:0:0:0:
259,361,19966,5,2,1:0:0:0:
153,218,20123,1,8,3:0:0:0:
298,293,20281,1,8,3:0:0:0:
257,140,20439,6,0,P|237:208|234:252,1,97.6950003726768,6|0,1:0|0:0,0:0:0:0:
174,42,20755,1,2,1:0:0:0:
78,185,20913,1,10,0:0:0:0:
78,185,20992,1,0,1:0:0:0:
78,185,21071,1,2,1:0:0:0:
96,33,21229,1,2,1:0:0:0:
157,192,21387,1,2,1:0:0:0:
38,84,21544,1,10,0:0:0:0:
231,117,21702,6,0,P|282:106|339:110,1,97.6950003726768,2|0,1:0|1:0,0:0:0:0:
433,249,22018,1,2,1:0:0:0:
268,197,22176,1,10,0:0:0:0:
268,197,22255,1,0,1:0:0:0:
268,197,22334,1,2,1:0:0:0:
436,160,22492,1,2,1:0:0:0:
340,295,22650,1,2,1:0:0:0:
406,143,22808,1,10,0:0:0:0:
310,292,22966,6,0,P|245:296|212:305,1,97.6950003726768,6|0,1:0|0:0,0:0:0:0:
60,335,23281,1,2,1:0:0:0:
204,279,23439,1,10,0:0:0:0:
204,279,23518,1,0,1:0:0:0:
204,279,23597,1,2,1:0:0:0:
49,193,23755,2,0,P|28:124|15:95,1,97.6950003726768,2|2,1:0|1:0,0:0:0:0:
43,310,24071,1,10,0:0:0:0:
163,214,24229,6,0,P|207:183|251:163,1,97.6950003726768,2|0,1:0|1:0,0:0:0:0:
374,52,24544,1,2,1:0:0:0:
191,86,24702,1,10,0:0:0:0:
191,86,24781,1,0,1:0:0:0:
191,86,24860,1,2,1:0:0:0:
366,22,25018,1,2,1:0:0:0:
309,192,25176,1,2,1:0:0:0:
284,15,25334,1,10,0:0:0:0:
392,168,25492,6,0,P|399:231|395:280,1,97.6950003726768,6|0,1:0|0:0,0:0:0:0:
259,381,25808,1,2,1:0:0:0:
287,217,25966,1,10,0:0:0:0:
287,217,26044,1,0,1:0:0:0:
287,217,26123,1,2,1:0:0:0:
341,371,26281,1,2,1:0:0:0:
191,324,26439,1,2,1:0:0:0:
346,337,26597,1,10,0:0:0:0:
189,293,26755,6,0,P|131:282|75:282,1,97.6950003726768,2|0,1:0|1:0,0:0:0:0:
237,153,27071,1,2,1:0:0:0:
29,143,27229,1,0,3:0:0:0:
49,169,27308,1,0,3:0:0:0:
79,185,27387,1,0,3:0:0:0:
113,188,27466,1,0,3:0:0:0:
145,177,27544,5,2,1:0:0:0:
219,20,27702,1,2,1:0:0:0:
78,80,27860,1,10,0:0:0:0:
271,77,28018,6,0,P|311:117|298:207,1,121.492502873434,12|0,1:0|0:0,0:0:0:0:
308,209,28334,1,8,0:0:0:0:
393,41,28492,1,8,0:0:0:0:
472,227,28650,1,8,0:0:0:0:
372,60,28808,1,10,0:0:0:0:
54,342,29123,5,8,0:0:0:0:
163,175,29281,1,8,0:0:0:0:
166,368,29439,1,8,0:0:0:0:
81,188,29597,1,8,0:0:0:0:
47,373,29755,1,10,0:0:0:0:
447,115,30387,5,8,0:0:0:0:
470,291,30544,2,0,B|367:272|416:343|281:316,1,178.689994546814,4|0,0:0|1:0,0:0:0:0:
232,216,31018,2,0,P|320:229|344:237,1,89.3449972734071,10|0,0:0|0:0,0:0:0:0:
428,139,31334,2,0,P|340:152|316:160,1,89.3449972734071,2|0,1:0|1:0,0:0:0:0:
212,240,31650,1,10,0:0:0:0:
230,61,31808,2,0,P|210:124|106:124,1,178.689994546814,2|0,1:0|1:0,0:0:0:0:
16,8,32281,1,8,0:0:0:0:
14,141,32439,5,2,1:0:0:0:
159,71,32597,1,2,1:0:0:0:
23,104,32755,1,2,1:0:0:0:
111,215,32913,2,0,P|125:273|126:324,1,89.3449972734071,10|2,0:0|1:0,0:0:0:0:
247,372,33229,6,0,P|251:327|263:284,1,89.3449972734071,2|0,1:0|1:0,0:0:0:0:
298,156,33544,1,8,0:0:0:0:
352,281,33702,1,2,1:0:0:0:
394,137,33860,2,0,P|389:78|375:41,1,89.3449972734071,2|0,1:0|1:0,0:0:0:0:
357,209,34176,1,8,0:0:0:0:
265,76,34334,1,2,1:0:0:0:
173,191,34492,6,0,P|183:140|195:97,1,89.3449972734071,2|0,1:0|1:0,0:0:0:0:
53,236,34808,2,0,P|43:185|31:142,1,89.3449972734071,10|0,0:0|1:0,0:0:0:0:
109,313,35123,1,2,1:0:0:0:
147,175,35281,1,0,1:0:0:0:
194,314,35439,2,0,B|292:354|283:255|404:303,1,178.689994546814,10|0,0:0|1:0,0:0:0:0:
236,237,35913,1,0,1:0:0:0:
357,181,36071,5,10,0:0:0:0:
224,157,36229,1,2,1:0:0:0:
340,91,36387,2,0,P|405:69|438:70,1,89.3449972734071,2|0,1:0|1:0,0:0:0:0:
266,18,36702,1,10,0:0:0:0:
200,135,36860,2,0,P|150:124|103:122,1,89.3449972734071,2|0,1:0|1:0,0:0:0:0:
0,161,37176,1,0,1:0:0:0:
89,23,37334,1,8,0:0:0:0:
184,165,37492,5,2,1:0:0:0:
60,268,37650,1,2,1:0:0:0:
103,107,37808,1,2,1:0:0:0:
204,237,37966,2,0,P|219:293|223:340,1,89.3449972734071,10|2,0:0|1:0,0:0:0:0:
306,173,38281,6,0,P|319:130|339:90,1,89.3449972734071,2|0,1:0|1:0,0:0:0:0:
470,20,38597,1,8,0:0:0:0:
398,151,38755,1,2,1:0:0:0:
289,37,38913,2,0,P|230:18|188:13,1,89.3449972734071,2|0,1:0|1:0,0:0:0:0:
61,59,39229,1,8,0:0:0:0:
161,166,39387,5,2,3:0:0:0:
169,150,39702,5,0,3:0:0:0:
177,134,40018,5,0,3:0:0:0:
79,257,40176,1,0,3:0:0:0:
97,272,40255,1,0,3:0:0:0:
119,282,40334,1,0,3:0:0:0:
142,287,40413,1,0,3:0:0:0:
166,287,40492,1,0,3:0:0:0:
189,281,40571,1,0,3:0:0:0:
211,270,40650,6,0,P|262:264|305:273,1,89.3449972734071,6|0,1:0|0:0,0:0:0:0:
442,219,40966,1,0,1:0:0:0:
442,219,41044,1,0,1:0:0:0:
442,219,41123,2,0,P|392:214|348:222,1,89.3449972734071,10|0,0:0|0:0,0:0:0:0:
220,145,41439,2,0,P|270:140|314:148,1,89.3449972734071,2|0,1:0|1:0,0:0:0:0:
148,194,41755,1,10,0:0:0:0:
62,46,41913,6,0,B|70:139|16:102|34:239,1,178.689994546814,2|0,1:0|1:0,0:0:0:0:
70,351,42387,1,8,0:0:0:0:
137,223,42544,1,2,1:0:0:0:
176,361,42702,1,2,1:0:0:0:
112,231,42860,1,2,1:0:0:0:
240,295,43018,2,0,P|302:280|344:280,1,89.3449972734071,10|2,0:0|1:0,0:0:0:0:
241,124,43334,6,0,P|227:185|223:222,1,89.3449972734071,2|0,1:0|1:0,0:0:0:0:
324,65,43650,1,8,0:0:0:0:
202,48,43808,1,2,1:0:0:0:
327,112,43966,2,0,P|385:96|423:94,1,89.3449972734071,2|0,1:0|1:0,0:0:0:0:
471,234,44281,1,8,0:0:0:0:
486,106,44439,1,2,1:0:0:0:
430,237,44597,2,0,P|417:294|414:334,1,89.3449972734071,2|0,1:0|1:0,0:0:0:0:
311,221,44913,2,0,P|267:212|222:209,1,89.3449972734071,10|0,0:0|1:0,0:0:0:0:
141,331,45229,2,0,P|185:322|230:319,1,89.3449972734071,2|0,1:0|1:0,0:0:0:0:
91,203,45544,6,0,P|42:220|19:336,1,178.689994546814,10|0,0:0|1:0,0:0:0:0:
11,150,46018,1,0,1:0:0:0:
85,285,46176,1,10,0:0:0:0:
84,126,46334,1,2,1:0:0:0:
156,252,46492,2,0,P|182:194|204:156,1,89.3449972734071,2|0,1:0|1:0,0:0:0:0:
273,67,46808,1,10,0:0:0:0:
429,129,46966,2,0,B|335:121|390:195|241:180,1,178.689994546814,2|0,1:0|1:0,0:0:0:0:
419,207,47439,1,8,0:0:0:0:
296,268,47597,5,2,1:0:0:0:
403,363,47755,1,0,1:0:0:0:
390,220,47913,1,2,1:0:0:0:
329,373,48071,1,10,0:0:0:0:
284,236,48229,1,2,1:0:0:0:
205,360,48387,2,0,P|208:305|214:267,1,89.3449972734071,2|0,1:0|1:0,0:0:0:0:
265,95,48702,5,8,0:0:0:0:
144,226,48860,1,10,0:0:0:0:
65,48,49018,1,2,1:0:0:0:
194,171,49176,1,8,0:0:0:0:
17,109,49334,1,0,1:0:0:0:
198,54,49492,2,0,P|255:42|301:42,1,89.3449972734071,10|2,0:0|1:0,0:0:0:0:
315,40,49729,1,0,0:0:0:0:
315,40,49808,1,8,0:0:0:0:
399,209,49966,5,10,0:0:0:0:
487,53,50123,1,8,0:0:0:0:
499,237,50281,1,10,3:0:0:0:
383,93,50439,1,8,3:0:0:0:
415,292,50597,1,6,3:0:0:0:
456,132,50755,1,4,3:0:0:0:
330,159,50913,6,0,P|293:178|280:198,1,64.294998724617,4|0,0:0|0:0,0:0:0:0:
273,309,51229,2,0,P|213:299|189:299,1,64.294998724617,2|0,0:2|0:2,0:2:0:0:
121,278,51544,1,0,0:2:0:0:
79,358,51702,1,2,0:2:0:0:
36,278,51860,1,2,0:2:0:0:
51,366,52018,1,2,0:2:0:0:
116,251,52176,6,0,P|135:211|156:187,1,64.294998724617,2|0,0:2|0:2,0:2:0:0:
167,81,52492,1,2,0:2:0:0:
236,121,52650,2,0,P|291:104|315:101,1,64.294998724617,2|0,0:2|0:2,0:2:0:0:
349,198,52966,2,0,P|294:181|270:178,1,64.294998724617,2|0,0:2|0:2,0:2:0:0:
219,250,53281,1,0,0:2:0:0:
377,277,53439,6,0,P|422:240|424:167,1,128.589997449234,2|0,0:2|0:2,0:2:0:0:
392,95,53913,1,0,0:2:0:0:
347,31,54071,2,0,P|314:32|283:41,1,64.294998724617,2|0,0:2|0:2,0:2:0:0:
252,123,54387,2,0,P|219:122|188:113,1,64.294998724617,2|0,0:2|0:2,0:2:0:0:
129,9,54702,6,0,B|62:10|86:57|10:49,1,128.589997449234,2|0,0:2|0:2,0:2:0:0:
7,156,55176,2,0,P|15:204|108:236,1,128.589997449234,2|2,0:2|0:2,0:2:0:0:
194,206,55650,2,0,P|193:238|186:269,1,64.294998724617,2|0,0:2|0:2,0:2:0:0:
163,310,55887,1,0,0:2:0:0:
163,310,55966,2,0,B|235:293|220:351|301:332,1,128.589997449234,2|0,1:2|0:2,0:2:0:0:
369,375,56439,2,0,P|419:358|456:356,1,64.294998724617,0|2,0:2|0:2,0:2:0:0:
486,279,56755,1,2,0:2:0:0:
371,254,56913,1,2,0:2:0:0:
470,249,57071,1,2,0:2:0:0:
364,221,57229,6,0,P|313:207|283:207,1,64.294998724617,2|0,0:2|0:2,0:2:0:0:
188,155,57544,1,2,0:2:0:0:
258,101,57702,2,0,P|288:90|320:86,1,64.294998724617,2|0,0:2|0:2,0:2:0:0:
184,75,58018,2,0,P|153:64|121:60,1,64.294998724617,2|0,0:2|0:2,0:2:0:0:
52,118,58334,1,2,0:2:0:0:
138,162,58492,1,2,0:2:0:0:
26,138,58650,1,2,0:2:0:0:
101,236,58808,6,0,B|197:271|190:174|288:217,1,192.884996173851,2|0,0:2|0:2,0:2:0:0:
364,269,59439,1,2,0:2:0:0:
406,70,59755,5,0,1:0:0:0:
419,56,59992,5,0,1:0:0:0:
432,42,60229,5,0,1:0:0:0:
251,75,60544,5,2,3:0:0:0:
251,75,60623,1,0,3:0:0:0:
251,75,60702,2,0,P|203:48|155:48,1,96.4424980869256,10|0,0:0|0:0,0:0:0:0:
117,105,61018,6,0,P|131:154|131:215,1,97.6950003726768,4|0,1:0|0:0,0:0:0:0:
83,343,61334,1,2,1:0:0:0:
210,260,61492,2,0,P|268:248|311:248,1,97.6950003726768,2|0,1:0|1:0,0:0:0:0:
392,360,61808,2,0,P|343:358|295:347,1,97.6950003726768,2|0,0:0|1:0,0:0:0:0:
452,296,62123,1,2,1:0:0:0:
401,152,62281,6,0,P|385:225|380:268,1,97.6950003726768,2|0,1:0|0:0,0:0:0:0:
280,122,62597,2,0,P|272:73|260:26,2,97.6950003726768,0|0|0,1:0|1:0|1:0,0:0:0:0:
190,276,63071,1,2,1:0:0:0:
319,192,63229,1,2,1:0:0:0:
159,206,63387,1,2,1:0:0:0:
305,307,63544,6,0,P|238:280|196:275,1,97.6950003726768,2|0,1:0|0:0,0:0:0:0:
65,335,63860,1,2,1:0:0:0:
65,162,64018,2,0,P|81:226|84:267,1,97.6950003726768,2|0,1:0|1:0,0:0:0:0:
149,105,64334,2,0,P|154:56|167:9,1,97.6950003726768,2|0,1:0|1:0,0:0:0:0:
219,166,64650,1,2,1:0:0:0:
340,77,64808,6,0,P|265:81|217:96,1,97.6950003726768,2|0,1:0|1:0,0:0:0:0:
372,170,65123,1,0,1:0:0:0:
415,35,65281,1,0,1:0:0:0:
451,184,65439,2,0,P|439:238|434:296,1,97.6950003726768,2|2,1:0|1:0,0:0:0:0:
305,377,65755,1,0,1:0:0:0:
438,368,65913,1,2,1:0:0:0:
332,244,66071,6,0,P|358:297|368:340,1,97.6950003726768,2|2,1:0|1:0,0:0:0:0:
250,243,66387,1,2,3:0:0:0:
218,230,66466,1,0,3:0:0:0:
184,230,66544,1,0,3:0:0:0:
152,243,66623,1,0,3:0:0:0:
128,266,66702,1,2,3:0:0:0:
96,277,66781,1,0,3:0:0:0:
62,276,66860,1,0,3:0:0:0:
31,262,66939,1,0,3:0:0:0:
11,236,67018,5,2,3:0:0:0:
0,204,67097,1,0,3:0:0:0:
1,170,67176,1,0,3:0:0:0:
15,139,67255,1,0,3:0:0:0:
40,115,67334,2,0,P|68:102|97:95,1,48.8475001863384,2|0,3:0|3:0,0:0:0:0:
211,149,67492,2,0,P|186:156|162:159,1,48.8475001863384,0|0,3:0|3:0,0:0:0:0:
272,50,67650,2,0,P|291:63|309:78,1,48.8475001863384,2|0,3:0|3:0,0:0:0:0:
165,59,67808,2,0,P|165:35|172:6,1,48.8475001863384,0|0,3:0|3:0,0:0:0:0:
253,220,67966,5,10,3:2:0:0:
272,24,68123,1,10,3:0:0:0:
337,205,68281,1,8,3:2:0:0:
434,29,68439,2,0,P|419:92|419:171,1,106.044999190941,14|0,3:0|1:0,0:0:0:0:
443,319,68755,1,2,1:0:0:0:
323,168,68913,5,8,0:0:0:0:
235,365,69071,1,8,0:0:0:0:
393,260,69229,1,8,0:0:0:0:
214,157,69387,1,8,0:0:0:0:
302,328,69544,1,8,0:0:0:0:
278,95,69702,5,2,1:0:0:0:
279,79,70018,5,2,1:0:0:0:
30,88,70808,21,10,0:0:0:0:
30,88,70966,2,0,B|126:66|99:140|195:109,1,159.067498786411,6|0,1:0|0:0,0:0:0:0:
208,105,71281,1,2,1:0:0:0:
216,290,71439,1,10,0:0:0:0:
73,195,71597,1,2,1:0:0:0:
259,223,71755,1,2,1:0:0:0:
117,319,71913,1,2,1:0:0:0:
132,127,72071,1,10,0:0:0:0:
280,243,72229,6,0,P|333:225|387:218,1,106.044999190941,2|0,1:0|1:0,0:0:0:0:
155,202,72544,1,2,1:0:0:0:
296,319,72702,1,10,0:0:0:0:
328,150,72860,2,0,P|360:101|390:63,1,106.044999190941,2|0,1:0|1:0,0:0:0:0:
353,272,73176,1,0,1:0:0:0:
260,115,73334,1,8,0:0:0:0:
422,234,73492,6,0,P|426:304|378:346,1,134.017495910111,2|0,3:2|0:0,0:0:0:0:
307,338,73808,2,0,P|227:301|140:301,1,171.592504843844,2|0,3:0|0:0,0:0:0:0:
94,358,74123,6,0,P|66:299|99:239,1,134.017495910111,2|0,3:0|0:0,0:0:0:0:
173,222,74439,2,0,B|179:142|97:151|139:46,1,171.592504843844,2|0,3:0|0:0,0:0:0:0:
86,5,74755,6,0,P|143:-11|204:43,1,134.017495910111,2|0,3:0|0:0,0:0:0:0:
206,103,75071,2,0,B|313:127|266:58|376:72,1,171.592504843844,2|0,3:0|0:0,0:0:0:0:
441,48,75387,6,0,P|434:112|374:145,1,134.017495910111,2|0,3:0|0:0,0:0:0:0:
309,167,75702,1,2,3:0:0:0:
461,240,75860,1,10,0:0:0:0:
296,281,76018,2,0,P|359:233|394:214,1,106.044999190941,6|0,1:0|0:0,0:0:0:0:
273,361,76334,1,2,1:0:0:0:
165,217,76492,2,0,P|92:185|53:175,1,106.044999190941,10|0,0:0|1:0,0:0:0:0:
218,277,76808,1,0,1:0:0:0:
150,113,76966,1,2,1:0:0:0:
138,290,77123,1,10,0:0:0:0:
229,131,77281,6,0,P|267:96|335:64,1,106.044999190941,2|0,1:0|1:0,0:0:0:0:
464,35,77597,1,0,1:0:0:0:
430,208,77755,1,8,0:0:0:0:
387,46,77913,1,2,1:0:0:0:
281,201,78071,1,2,1:0:0:0:
432,113,78229,1,2,1:0:0:0:
425,290,78387,1,10,0:0:0:0:
259,192,78544,6,0,P|205:179|146:173,1,106.044999190941,2|0,1:0|0:0,0:0:0:0:
35,322,78860,2,0,P|89:309|148:303,1,106.044999190941,2|8,1:0|0:0,0:0:0:0:
316,325,79176,1,0,1:0:0:0:
244,161,79334,1,0,1:0:0:0:
242,319,79492,1,0,1:0:0:0:
155,174,79650,1,8,0:0:0:0:
320,295,79808,6,0,P|371:265|417:248,1,106.044999190941,0|0,1:0|0:0,0:0:0:0:
243,241,80123,1,0,1:0:0:0:
378,149,80281,1,10,0:0:0:0:
391,120,80360,1,8,0:0:0:0:
391,88,80439,1,8,0:0:0:0:
379,59,80518,1,8,0:0:0:0:
357,37,80597,2,0,P|293:24|282:24,1,53.0224995954704,6|0,3:0|3:0,0:0:0:0:
184,106,80755,2,0,P|248:119|259:119,1,53.0224995954704,4|0,3:0|3:0,0:0:0:0:
121,15,80913,1,6,3:0:0:0:
49,181,81071,6,0,P|73:261|76:342,1,159.067498786411,4|0,1:0|0:0,0:0:0:0:
77,375,81387,1,2,1:0:0:0:
202,224,81544,1,10,0:0:0:0:
287,384,81702,1,2,1:0:0:0:
146,271,81860,1,2,1:0:0:0:
294,175,82018,1,2,1:0:0:0:
220,343,82176,1,10,0:0:0:0:
261,159,82334,6,0,P|270:101|286:46,1,106.044999190941,2|0,1:0|0:0,0:0:0:0:
273,255,82650,1,2,1:0:0:0:
375,115,82808,1,10,0:0:0:0:
200,59,82966,2,0,P|149:50|90:47,1,106.044999190941,2|0,1:0|1:0,0:0:0:0:
21,211,83281,1,0,1:0:0:0:
15,30,83439,1,8,0:0:0:0:
97,202,83597,6,0,P|143:186|245:202,1,134.017495910111,2|0,3:2|0:0,0:0:0:0:
240,273,83913,2,0,P|294:235|281:136,1,171.592504843844,2|0,3:0|0:0,0:0:0:0:
221,96,84229,6,0,P|276:63|344:93,1,134.017495910111,2|0,3:0|0:0,0:0:0:0:
370,151,84544,1,2,3:0:0:0:
469,0,84702,1,2,1:0:0:0:
441,189,84860,6,0,P|428:246|422:333,1,134.017495910111,2|0,3:0|0:0,0:0:0:0:
365,375,85176,2,0,P|319:327|214:292,1,171.592504843844,2|0,3:0|0:0,0:0:0:0:
156,334,85492,6,0,P|161:245|193:220,1,134.017495910111,2|0,3:0|0:0,0:0:0:0:
261,189,85808,1,2,3:0:0:0:
97,123,85966,1,10,0:0:0:0:
275,91,86123,6,0,P|345:83|404:87,1,106.044999190941,4|0,1:0|0:0,0:0:0:0:
467,248,86439,1,2,1:0:0:0:
467,70,86597,2,0,P|441:149|436:180,1,106.044999190941,10|0,0:0|0:0,0:0:0:0:
383,333,86913,1,0,1:0:0:0:
363,185,87071,1,2,1:0:0:0:
281,343,87229,1,10,0:0:0:0:
211,171,87387,6,0,P|165:136|101:112,1,106.044999190941,2|0,1:0|0:0,0:0:0:0:
242,277,87702,1,0,1:0:0:0:
282,100,87860,1,8,0:0:0:0:
327,279,88018,1,8,0:0:0:0:
161,326,88176,1,10,3:0:0:0:
137,314,88255,1,8,3:0:0:0:
112,305,88334,1,8,3:0:0:0:
86,298,88413,1,8,3:0:0:0:
60,294,88492,5,8,0:0:0:0:
216,273,88650,1,2,0:0:0:0:
29,218,88808,2,0,P|101:208|145:211,1,106.044999190941,8|0,0:0|1:0,0:0:0:0:
316,238,89123,1,0,1:0:0:0:
187,94,89281,2,0,P|245:137|272:170,1,106.044999190941,8|0,0:0|0:0,0:0:0:0:
361,322,89597,1,0,1:0:0:0:
391,136,89755,6,0,P|397:208|390:250,1,106.044999190941,8|0,0:0|1:0,0:0:0:0:
471,45,90071,1,0,1:0:0:0:
298,118,90229,2,0,P|232:97|183:92,1,106.044999190941,8|2,0:0|1:0,0:0:0:0:
43,146,90544,1,0,1:0:0:0:
192,174,90702,1,10,0:0:0:0:
64,71,90860,1,0,1:0:0:0:
132,241,91018,2,0,P|158:306|159:384,1,134.017495910111,10|0,0:0|0:0,0:0:0:0:
197,363,91334,5,2,3:0:0:0:
219,341,91413,1,0,3:0:0:0:
247,327,91492,1,2,3:0:0:0:
277,321,91571,1,0,3:0:0:0:
308,324,91650,5,2,3:0:0:0:
351,343,91729,1,0,3:0:0:0:
388,347,91808,1,0,3:0:0:0:
423,338,91887,1,0,3:0:0:0:
454,317,91966,1,0,3:0:0:0:
469,283,92044,1,0,3:0:0:0:
473,246,92123,1,2,3:0:0:0:
464,211,92202,1,0,3:0:0:0:
443,181,92281,2,0,P|395:157|373:154,1,53.0224995954704,2|0,3:0|3:0,0:0:0:0:
275,226,92439,2,0,P|301:223|326:214,1,53.0224995954704,0|0,3:0|3:0,0:0:0:0:
445,95,92597,5,10,3:0:0:0:
72,61,93544,5,8,0:0:0:0:
72,61,93702,2,0,P|54:119|52:157,1,80.9950019156228,6|0,1:0|1:0,0:0:0:0:
118,251,94018,1,2,1:0:0:0:
160,122,94176,1,8,0:0:0:0:
160,122,94334,1,2,1:0:0:0:
222,244,94492,2,0,P|260:220|298:206,1,80.9950019156228,2|0,1:0|1:0,0:0:0:0:
439,238,94808,1,8,0:0:0:0:
439,238,94966,5,2,1:0:0:0:
333,135,95123,1,0,1:0:0:0:
333,135,95281,1,2,1:0:0:0:
351,276,95439,1,8,0:0:0:0:
435,159,95597,2,0,P|489:163|530:188,2,80.9950019156228,2|2|2,1:0|1:0|1:0,0:0:0:0:
310,209,96071,1,8,0:0:0:0:
303,55,96229,6,0,P|252:16|212:0,1,80.9950019156228,2|0,1:0|1:0,0:0:0:0:
196,154,96544,1,2,1:0:0:0:
144,38,96702,1,10,0:0:0:0:
220,137,96860,1,2,1:0:0:0:
119,52,97018,2,0,P|76:38|34:30,1,80.9950019156228,2|0,1:0|1:0,0:0:0:0:
117,176,97334,1,8,0:0:0:0:
117,176,97492,5,0,1:0:0:0:
0,93,97650,1,2,1:0:0:0:
0,93,97808,1,2,1:0:0:0:
53,231,97966,2,0,P|65:282|66:318,1,80.9950019156228,10|2,0:0|1:0,0:0:0:0:
211,253,98281,1,2,1:0:0:0:
135,372,98439,1,2,1:0:0:0:
178,234,98597,1,8,0:0:0:0:
254,368,98755,6,0,P|281:309|299:282,1,80.9950019156228,2|0,1:0|1:0,0:0:0:0:
404,191,99071,1,2,1:0:0:0:
252,222,99229,1,10,0:0:0:0:
403,276,99387,1,2,1:0:0:0:
329,117,99544,2,0,P|324:178|324:219,1,80.9950019156228,2|0,1:0|1:0,0:0:0:0:
237,73,99860,1,8,0:0:0:0:
237,73,100018,5,2,1:0:0:0:
159,205,100176,1,2,1:0:0:0:
163,47,100334,1,2,1:0:0:0:
160,182,100492,1,10,0:0:0:0:
89,50,100650,2,0,P|75:34|23:2,2,80.9950019156228,2|2|2,1:0|1:0|1:0,0:0:0:0:
9,174,101123,1,8,0:0:0:0:
161,160,101281,6,0,P|228:151|273:153,1,80.9950019156228,2|2,1:0|1:0,0:0:0:0:
398,172,101597,1,2,1:0:0:0:
264,228,101755,1,10,0:0:0:0:
348,93,101913,1,2,1:0:0:0:
338,256,102071,1,2,1:0:0:0:
42,30,102387,5,10,0:0:0:0:
72,185,102544,1,2,1:0:0:0:
142,34,102702,1,8,0:0:0:0:
171,20,102781,1,8,0:0:0:0:
203,20,102860,1,8,0:0:0:0:
232,33,102939,1,8,0:0:0:0:
254,57,103018,1,8,0:0:0:0:
254,89,103097,1,8,0:0:0:0:
266,119,103176,1,8,0:0:0:0:
290,141,103255,1,8,0:0:0:0:
320,152,103334,5,0,3:0:0:0:
479,89,103492,1,8,3:0:0:0:
334,72,103650,1,4,3:0:0:0:
444,209,103808,6,0,P|437:295|311:321,1,212.089998381882,6|0,1:0|1:0,0:0:0:0:
123,267,104281,5,10,0:0:0:0:
355,237,104439,1,0,1:0:0:0:
225,36,104597,5,10,0:0:0:0:
254,252,104755,1,0,1:0:0:0:
62,125,104913,5,10,0:0:0:0:
258,168,105071,1,2,1:0:0:0:
109,298,105229,5,8,0:0:0:0:
191,113,105387,1,2,1:0:0:0:
336,279,105544,5,10,0:0:0:0:
147,209,105702,1,2,1:0:0:0:
369,136,105860,5,10,0:0:0:0:
257,291,106018,1,2,1:0:0:0:
312,73,106176,5,10,0:0:0:0:
415,271,106334,2,0,P|434:183|489:69,1,212.089998381882,6|0,0:0|1:0,0:0:0:0:
258,8,106808,5,10,0:0:0:0:
349,207,106966,1,0,1:0:0:0:
122,158,107123,5,10,0:0:0:0:
292,81,107281,1,0,1:0:0:0:
257,291,107439,5,10,0:0:0:0:
191,125,107597,1,2,1:0:0:0:
85,323,107755,5,8,0:0:0:0:
219,195,107913,1,2,1:0:0:0:
6,121,108071,5,10,0:0:0:0:
144,268,108229,1,2,1:0:0:0:
217,45,108387,5,10,0:0:0:0:
84,210,108544,1,2,1:0:0:0:
127,4,108702,5,10,0:0:0:0:
288,174,108860,2,0,B|387:126|378:218|501:174,1,212.089998381882,6|0,1:0|1:0,0:0:0:0:
337,280,109334,1,10,0:0:0:0:
314,309,109413,1,8,0:0:0:0:
283,329,109492,1,8,0:0:0:0:
247,337,109571,1,8,0:0:0:0:
210,334,109650,1,10,0:0:0:0:
187,304,109729,1,8,0:0:0:0:
156,284,109808,1,8,0:0:0:0:
120,276,109887,1,8,0:0:0:0:
83,279,109966,6,0,P|57:296|21:302,1,53.0224995954704,10|8,0:0|0:0,0:0:0:0:
157,181,110124,2,0,P|177:198|190:220,1,53.0224995954704,8|8,0:0|0:0,0:0:0:0:
39,135,110281,1,10,0:0:0:0:
63,104,110360,1,8,0:0:0:0:
94,84,110439,1,8,0:0:0:0:
130,76,110518,1,8,0:0:0:0:
167,79,110597,5,14,2:3:0:0:
204,82,110676,1,12,2:3:0:0:
240,74,110755,1,12,2:3:0:0:
271,54,110834,1,12,2:3:0:0:
295,23,110913,2,0,P|338:0|359:-1,1,53.0224995954704,10|8,2:3|2:3,0:0:0:0:
410,148,111071,2,0,P|384:140|363:124,1,53.0224995954704,8|8,2:3|2:3,0:0:0:0:
374,262,111229,1,8,0:0:0:0:
437,71,111387,6,0,P|492:124|470:208,1,159.067498786411,4|0,0:0|0:0,0:0:0:0:
456,231,111702,1,10,0:0:0:0:
368,81,111860,1,10,0:0:0:0:
290,290,112018,1,10,0:0:0:0:
335,84,112176,1,10,0:0:0:0:
68,329,112492,5,10,0:0:0:0:
168,165,112650,1,10,0:0:0:0:
142,353,112808,1,10,0:0:0:0:
84,149,112966,1,10,0:0:0:0:
213,322,113123,1,10,0:0:0:0:
88,120,113281,1,6,1:0:0:0:
256,192,113439,12,0,118808,0:0:0:0:
