osu file format v14

[General]
AudioFilename: audio.mp3
AudioLeadIn: 0
PreviewTime: 70176
Countdown: 0
SampleSet: Soft
StackLeniency: 0.7
Mode: 0
LetterboxInBreaks: 0
WidescreenStoryboard: 0

[Editor]
DistanceSpacing: 1.2
BeatDivisor: 4
GridSize: 32
TimelineZoom: 1.399999

[Metadata]
Title:Livelock Art
TitleUnicode:リブロックアート
Artist:THE ORAL CIGARETTES
ArtistUnicode:THE ORAL CIGARETTES
Creator:SMOKELIND
Version:Eternity
Source:
Tags:あきらかにあきら Akira Akirakani 山中拓也 Takuya Yamanaka 鈴木重伸 Shigenobu Suzuki 中西雅哉 Masaya Nakanishi oral cigs j-rock
BeatmapID:1840044
BeatmapSetID:879904

[Difficulty]
HPDrainRate:5.4
CircleSize:4.2
OverallDifficulty:9.2
ApproachRate:9.4
SliderMultiplier:1.77
SliderTickRate:1

[Events]
//Background and Video events
0,0,"65655271_p0.jpg",0,0
//Break Periods
//Storyboard Layer 0 (Background)
//Storyboard Layer 1 (Fail)
//Storyboard Layer 2 (Pass)
//Storyboard Layer 3 (Foreground)
//Storyboard Sound Samples

[TimingPoints]
-876,315.789473684211,4,2,7,77,1,0
70,-103.092783505155,4,2,7,77,0,0
9859,-129.87012987013,4,2,7,87,0,0
10333,-85.4700854700855,4,2,7,87,0,0
28017,-103.092783505155,4,2,7,87,0,0
30543,-93.4579439252339,4,2,7,77,0,0
50912,-129.87012987013,4,2,7,57,0,0
60939,-93.4579439252336,4,2,7,5,0,0
61017,-85.4700854700855,4,2,7,77,0,0
68438,-78.7401574803149,4,2,7,87,0,0
73491,-93.4579439252336,4,2,7,87,0,0
73728,-93.4579439252336,4,2,7,5,0,0
73807,-72.992700729927,4,2,7,87,0,0
74043,-93.4579439252336,4,2,7,5,0,0
74122,-93.4579439252336,4,2,7,87,0,0
74359,-93.4579439252336,4,2,7,5,0,0
74438,-72.992700729927,4,2,7,87,0,0
74675,-93.4579439252336,4,2,7,5,0,0
74754,-93.4579439252336,4,2,7,87,0,0
74991,-93.4579439252336,4,2,7,5,0,0
75070,-72.992700729927,4,2,7,87,0,0
75307,-93.4579439252336,4,2,7,5,0,0
75386,-93.4579439252336,4,2,7,87,0,0
75622,-93.4579439252336,4,2,7,5,0,0
75701,-78.7401574803149,4,2,7,87,0,0
83596,-93.4579439252336,4,2,7,87,0,0
83833,-93.4579439252336,4,2,7,5,0,0
83912,-72.992700729927,4,2,7,87,0,0
84148,-93.4579439252336,4,2,7,5,0,0
84227,-93.4579439252336,4,2,7,87,0,0
84464,-93.4579439252336,4,2,7,5,0,0
84543,-72.992700729927,4,2,7,87,0,0
84859,-93.4579439252336,4,2,7,87,0,0
85096,-93.4579439252336,4,2,7,5,0,0
85175,-72.992700729927,4,2,7,87,0,0
85412,-93.4579439252336,4,2,7,5,0,0
85491,-93.4579439252336,4,2,7,87,0,0
85729,-93.4579439252336,4,2,7,5,0,0
85806,-72.992700729927,4,2,7,87,0,0
86122,-78.7401574803149,4,2,7,87,0,0
91018,-93.4579439252336,4,2,7,77,0,0
91255,-93.4579439252336,4,2,7,5,0,0
91334,-78.7401574803149,4,2,7,77,0,0
93544,-103.092783505155,4,2,7,77,0,0
103807,-78.7401574803149,4,2,7,97,0,0
113281,-212.765957446809,4,2,7,77,0,0
113439,-212.765957446809,4,2,7,5,0,0

[Colours]
Combo1 : 255,112,43
Combo2 : 149,149,255
Combo3 : 255,202,149
Combo4 : 43,43,255

[HitObjects]
56,55,71,5,8,0:0:0:0:
56,55,229,2,0,P|73:123|74:170,1,85.8450020303307,2|0,1:0|1:0,0:0:0:0:
97,271,544,1,2,1:0:0:0:
156,146,702,1,10,0:0:0:0:
156,146,860,1,2,1:0:0:0:
191,294,1018,2,0,P|202:252|220:213,1,85.8450020303307,2|0,1:0|1:0,0:0:0:0:
311,83,1334,1,10,0:0:0:0:
311,83,1492,5,2,1:0:0:0:
305,247,1650,1,2,1:0:0:0:
305,247,1808,1,2,1:0:0:0:
235,97,1966,1,10,0:0:0:0:
179,270,2123,1,2,1:0:0:0:
320,166,2281,2,0,P|393:149|425:150,1,85.8450020303307,2|0,1:0|1:0,0:0:0:0:
451,291,2597,1,8,0:0:0:0:
290,262,2755,6,0,P|228:250|186:252,1,85.8450020303307,2|0,1:0|1:0,0:0:0:0:
83,296,3071,1,2,1:0:0:0:
103,137,3229,1,10,0:0:0:0:
118,276,3387,1,2,1:0:0:0:
187,126,3544,2,0,P|231:97|272:81,1,85.8450020303307,2|0,1:0|1:0,0:0:0:0:
418,49,3860,1,10,0:0:0:0:
418,49,4018,5,2,1:0:0:0:
376,197,4176,1,2,1:0:0:0:
376,197,4334,1,2,1:0:0:0:
334,48,4492,1,10,0:0:0:0:
279,214,4650,1,2,1:0:0:0:
187,55,4808,1,2,1:0:0:0:
243,218,4966,1,2,1:0:0:0:
159,75,5123,1,10,0:0:0:0:
119,243,5281,6,0,P|109:201|95:160,1,85.8450020303307,2|0,1:0|1:0,0:0:0:0:
39,332,5597,1,2,1:0:0:0:
155,255,5755,1,10,0:0:0:0:
4,215,5913,1,2,1:0:0:0:
155,348,6071,2,0,P|215:317|239:311,1,85.8450020303307,2|0,1:0|1:0,0:0:0:0:
415,315,6387,1,10,0:0:0:0:
415,315,6544,5,2,1:0:0:0:
286,211,6702,1,2,1:0:0:0:
286,211,6860,1,2,1:0:0:0:
354,359,7018,1,10,0:0:0:0:
366,174,7176,1,2,1:0:0:0:
283,328,7334,2,0,P|220:323|184:311,1,85.8450020303307,2|0,1:0|1:0,0:0:0:0:
398,242,7650,1,8,0:0:0:0:
292,96,7808,6,0,P|246:73|150:68,1,128.767503045496,6|0,1:0|0:0,0:0:0:0:
146,94,8123,1,8,0:0:0:0:
99,335,8281,1,8,0:0:0:0:
285,207,8439,1,8,0:0:0:0:
25,264,8597,1,10,0:0:0:0:
25,264,8913,5,8,0:0:0:0:
247,270,9071,1,8,0:0:0:0:
38,186,9229,1,8,0:0:0:0:
188,355,9387,1,8,0:0:0:0:
328,143,9544,1,10,0:0:0:0:
328,143,9860,6,0,P|378:110|432:100,1,102.21749797237,2|0,0:0|0:0,0:0:0:0:
447,98,10176,1,8,0:0:0:0:
276,37,10334,6,0,P|206:20|152:23,1,103.545000394993,6|0,1:0|0:0,0:0:0:0:
69,204,10650,1,2,1:0:0:0:
29,36,10808,1,10,0:0:0:0:
224,113,10966,1,2,1:0:0:0:
33,67,11123,1,2,1:0:0:0:
77,231,11281,1,2,1:0:0:0:
138,79,11439,1,10,0:0:0:0:
220,284,11597,6,0,P|213:232|197:183,1,103.545000394993,2|0,1:0|1:0,0:0:0:0:
274,18,11913,1,2,1:0:0:0:
293,199,12071,1,10,0:0:0:0:
293,199,12150,1,0,1:0:0:0:
293,199,12229,1,2,1:0:0:0:
403,42,12387,1,2,1:0:0:0:
232,127,12544,1,2,1:0:0:0:
429,167,12702,1,10,0:0:0:0:
279,311,12860,6,0,B|151:337|207:250|64:277,1,207.090000789986,6|2,1:0|1:0,0:0:0:0:
70,89,13334,1,10,0:0:0:0:
238,235,13492,1,2,1:0:0:0:
58,125,13650,1,2,1:0:0:0:
227,14,13808,1,2,1:0:0:0:
143,192,13966,1,10,0:0:0:0:
344,83,14123,6,0,P|278:92|228:106,1,103.545000394993,2|0,1:0|1:0,0:0:0:0:
377,240,14439,1,2,1:0:0:0:
453,64,14597,1,10,0:0:0:0:
453,64,14676,1,0,1:0:0:0:
453,64,14755,1,2,1:0:0:0:
295,180,14913,1,2,1:0:0:0:
483,216,15071,1,2,1:0:0:0:
324,63,15229,1,10,0:0:0:0:
275,262,15387,6,0,P|252:162|209:64,1,207.090000789986,6|2,1:0|1:0,0:0:0:0:
129,271,15860,1,10,0:0:0:0:
39,96,16018,1,2,1:0:0:0:
271,134,16176,1,2,1:0:0:0:
41,138,16334,1,2,1:0:0:0:
231,272,16492,1,10,0:0:0:0:
214,43,16650,6,0,P|190:116|181:167,1,103.545000394993,2|0,1:0|1:0,0:0:0:0:
331,26,16966,1,2,1:0:0:0:
377,250,17123,1,10,0:0:0:0:
377,250,17202,1,0,1:0:0:0:
377,250,17281,1,2,1:0:0:0:
429,60,17439,1,2,1:0:0:0:
272,164,17597,1,2,1:0:0:0:
478,130,17755,1,10,0:0:0:0:
352,277,17913,6,0,P|289:261|248:260,1,103.545000394993,6|0,1:0|0:0,0:0:0:0:
8,240,18229,1,2,1:0:0:0:
198,140,18387,1,10,0:0:0:0:
79,315,18544,1,2,1:0:0:0:
123,94,18702,2,0,P|142:38|169:-9,1,103.545000394993,2|0,1:0|1:0,0:0:0:0:
213,219,19018,1,10,0:0:0:0:
278,42,19176,5,2,1:0:0:0:
278,42,19255,1,0,1:0:0:0:
278,42,19334,1,2,1:0:0:0:
313,234,19492,1,2,1:0:0:0:
434,52,19650,1,8,3:2:0:0:
429,83,19729,1,0,3:0:0:0:
425,115,19808,1,0,3:0:0:0:
421,147,19887,1,0,3:0:0:0:
418,178,19966,5,2,1:0:0:0:
246,110,20123,1,8,3:0:0:0:
313,264,20281,1,8,3:0:0:0:
123,126,20439,6,0,P|111:194|106:248,1,103.545000394993,6|0,1:0|0:0,0:0:0:0:
143,43,20755,1,2,1:0:0:0:
231,246,20913,1,10,0:0:0:0:
231,246,20992,1,0,1:0:0:0:
231,246,21071,1,2,1:0:0:0:
329,71,21229,1,2,1:0:0:0:
149,221,21387,1,2,1:0:0:0:
397,144,21544,1,10,0:0:0:0:
143,129,21702,6,0,P|83:106|31:99,1,103.545000394993,2|0,1:0|1:0,0:0:0:0:
256,106,22018,1,2,1:0:0:0:
109,290,22176,1,10,0:0:0:0:
109,290,22255,1,0,1:0:0:0:
109,290,22334,1,2,1:0:0:0:
160,109,22492,1,2,1:0:0:0:
284,276,22650,1,2,1:0:0:0:
77,257,22808,1,10,0:0:0:0:
279,184,22966,6,0,P|355:167|417:164,1,103.545000394993,6|0,1:0|0:0,0:0:0:0:
205,48,23281,1,2,1:0:0:0:
189,254,23439,1,10,0:0:0:0:
189,254,23518,1,0,1:0:0:0:
189,254,23597,1,2,1:0:0:0:
328,89,23755,1,2,1:0:0:0:
190,217,23913,1,2,1:0:0:0:
397,133,24071,1,10,0:0:0:0:
269,285,24229,6,0,P|244:346|237:386,1,103.545000394993,2|0,1:0|1:0,0:0:0:0:
258,158,24544,1,2,1:0:0:0:
87,281,24702,1,10,0:0:0:0:
87,281,24781,1,0,1:0:0:0:
87,281,24860,1,2,1:0:0:0:
192,82,25018,1,2,1:0:0:0:
271,258,25176,1,2,1:0:0:0:
55,190,25334,1,10,0:0:0:0:
278,149,25492,6,0,P|345:146|395:150,1,103.545000394993,6|0,1:0|0:0,0:0:0:0:
212,215,25808,1,2,1:0:0:0:
400,339,25966,1,10,0:0:0:0:
400,339,26044,1,0,1:0:0:0:
400,339,26123,1,2,1:0:0:0:
278,171,26281,1,2,1:0:0:0:
228,375,26439,1,2,1:0:0:0:
418,249,26597,1,10,0:0:0:0:
177,304,26755,6,0,P|126:291|66:281,1,103.545000394993,2|0,1:0|1:0,0:0:0:0:
169,67,27071,1,2,1:0:0:0:
257,229,27229,1,0,3:0:0:0:
304,247,27308,1,0,3:0:0:0:
354,236,27387,1,0,3:0:0:0:
390,200,27466,1,0,3:0:0:0:
401,150,27544,1,2,1:0:0:0:
217,162,27702,1,2,1:0:0:0:
309,344,27860,1,10,0:0:0:0:
306,139,28018,6,0,P|338:73|392:29,1,128.767503045496,12|0,1:0|0:0,0:0:0:0:
408,20,28334,1,8,0:0:0:0:
452,247,28492,1,8,0:0:0:0:
494,42,28650,1,8,0:0:0:0:
297,177,28808,1,10,0:0:0:0:
297,177,29123,5,8,0:0:0:0:
40,111,29281,1,8,0:0:0:0:
265,87,29439,1,8,0:0:0:0:
108,247,29597,1,8,0:0:0:0:
217,11,29755,1,10,0:0:0:0:
252,178,30387,5,8,0:0:0:0:
326,348,30544,2,0,B|313:238|377:277|371:153,1,189.389994220276,4|0,0:0|1:0,0:0:0:0:
291,41,31018,2,0,P|269:97|263:150,1,94.694997110138,10|0,0:0|0:0,0:0:0:0:
167,240,31334,2,0,P|158:193|139:150,1,94.694997110138,2|0,1:0|1:0,0:0:0:0:
51,338,31650,1,10,0:0:0:0:
191,231,31808,2,0,P|248:215|344:298,1,189.389994220276,2|0,1:0|1:0,0:0:0:0:
323,115,32281,1,8,0:0:0:0:
173,56,32439,5,2,1:0:0:0:
306,156,32597,1,2,1:0:0:0:
229,5,32755,1,2,1:0:0:0:
212,200,32913,1,10,0:0:0:0:
151,43,33071,1,2,1:0:0:0:
91,242,33229,6,0,P|104:165|108:110,1,94.694997110138,2|0,1:0|1:0,0:0:0:0:
203,311,33544,1,8,0:0:0:0:
236,118,33702,1,2,1:0:0:0:
318,274,33860,2,0,P|326:320|332:367,1,94.694997110138,2|0,1:0|1:0,0:0:0:0:
384,162,34176,1,8,0:0:0:0:
210,228,34334,1,2,1:0:0:0:
359,61,34492,6,0,P|351:105|348:156,1,94.694997110138,2|0,1:0|1:0,0:0:0:0:
181,15,34808,2,0,P|189:59|192:110,1,94.694997110138,10|0,0:0|1:0,0:0:0:0:
155,287,35123,1,2,1:0:0:0:
64,129,35281,1,0,1:0:0:0:
238,268,35439,2,0,P|169:202|82:240,1,189.389994220276,10|0,0:0|1:0,0:0:0:0:
198,130,35913,1,0,1:0:0:0:
213,338,36071,5,10,0:0:0:0:
288,177,36229,1,2,1:0:0:0:
371,343,36387,2,0,P|384:270|393:235,1,94.694997110138,2|0,1:0|1:0,0:0:0:0:
446,78,36702,1,10,0:0:0:0:
275,149,36860,2,0,P|229:137|182:131,1,94.694997110138,2|0,1:0|1:0,0:0:0:0:
397,132,37176,1,0,1:0:0:0:
253,257,37334,1,8,0:0:0:0:
145,114,37492,5,2,1:0:0:0:
99,283,37650,1,2,1:0:0:0:
237,133,37808,1,2,1:0:0:0:
193,317,37966,1,10,0:0:0:0:
143,146,38123,1,2,1:0:0:0:
333,265,38281,6,0,P|379:242|427:227,1,94.694997110138,2|0,1:0|1:0,0:0:0:0:
221,171,38597,1,8,0:0:0:0:
292,350,38755,1,2,1:0:0:0:
315,143,38913,2,0,P|329:98|351:55,1,94.694997110138,2|0,1:0|1:0,0:0:0:0:
465,292,39229,1,8,0:0:0:0:
202,241,39387,5,2,3:0:0:0:
188,237,39702,5,0,3:0:0:0:
174,234,40018,5,0,3:0:0:0:
40,217,40176,1,0,3:0:0:0:
44,198,40255,1,0,3:0:0:0:
44,174,40334,1,0,3:0:0:0:
40,150,40413,1,0,3:0:0:0:
34,128,40492,1,0,3:0:0:0:
24,106,40571,1,0,3:0:0:0:
15,90,40650,6,0,P|52:49|115:40,1,94.694997110138,6|0,1:0|0:0,0:0:0:0:
288,39,40966,1,0,1:0:0:0:
288,39,41044,1,0,1:0:0:0:
288,39,41123,2,0,P|231:60|206:125,1,94.694997110138,10|0,0:0|0:0,0:0:0:0:
336,248,41439,2,0,P|332:200|323:154,1,94.694997110138,2|0,1:0|1:0,0:0:0:0:
427,341,41755,1,10,0:0:0:0:
251,251,41913,2,0,B|138:222|175:301|53:268,1,189.389994220276,2|0,1:0|1:0,0:0:0:0:
214,335,42387,1,8,0:0:0:0:
94,192,42544,5,2,1:0:0:0:
267,145,42702,1,2,1:0:0:0:
205,303,42860,1,2,1:0:0:0:
296,128,43018,1,10,0:0:0:0:
343,300,43176,1,2,1:0:0:0:
430,146,43334,6,0,P|407:219|402:255,1,94.694997110138,2|0,1:0|1:0,0:0:0:0:
377,33,43650,1,8,0:0:0:0:
321,221,43808,1,2,1:0:0:0:
206,47,43966,2,0,P|229:120|234:156,1,94.694997110138,2|0,1:0|1:0,0:0:0:0:
93,253,44281,1,8,0:0:0:0:
126,103,44439,1,2,1:0:0:0:
216,313,44597,2,0,P|214:265|204:219,1,94.694997110138,2|0,1:0|1:0,0:0:0:0:
331,104,44913,2,0,P|321:150|319:197,1,94.694997110138,10|0,0:0|1:0,0:0:0:0:
451,311,45229,2,0,P|449:263|439:217,1,94.694997110138,2|0,1:0|1:0,0:0:0:0:
294,348,45544,6,0,B|188:377|210:296|97:327,1,189.389994220276,10|0,0:0|1:0,0:0:0:0:
269,210,46018,1,0,1:0:0:0:
112,154,46176,1,10,0:0:0:0:
224,300,46334,1,2,1:0:0:0:
247,118,46492,2,0,P|256:71|269:26,1,94.694997110138,2|0,1:0|1:0,0:0:0:0:
164,216,46808,1,10,0:0:0:0:
367,168,46966,2,0,P|413:177|476:310,1,189.389994220276,2|0,1:0|1:0,0:0:0:0:
442,99,47439,1,8,0:0:0:0:
365,256,47597,5,2,1:0:0:0:
302,72,47755,1,0,1:0:0:0:
279,250,47913,1,2,1:0:0:0:
333,94,48071,1,10,0:0:0:0:
202,211,48229,1,2,1:0:0:0:
171,28,48387,2,0,P|216:101|218:141,1,94.694997110138,2|0,1:0|1:0,0:0:0:0:
124,287,48702,5,8,0:0:0:0:
108,108,48860,1,10,0:0:0:0:
212,220,49018,1,2,1:0:0:0:
266,21,49176,1,8,0:0:0:0:
192,190,49334,1,0,1:0:0:0:
398,121,49492,2,0,P|341:107|272:128,1,94.694997110138,10|2,0:0|1:0,0:0:0:0:
288,142,49729,1,0,0:0:0:0:
288,142,49808,1,8,0:0:0:0:
276,339,49966,5,10,0:0:0:0:
102,216,50123,1,8,0:0:0:0:
283,241,50281,1,10,3:0:0:0:
132,363,50439,1,8,3:0:0:0:
94,174,50597,1,6,3:0:0:0:
196,312,50755,1,4,3:0:0:0:
188,101,50913,6,0,P|208:45|233:19,1,68.1449986482468,4|0,0:2|0:2,0:2:0:0:
307,163,51229,2,0,P|299:129|282:100,1,68.1449986482468,2|0,0:2|0:2,0:2:0:0:
250,222,51544,1,0,0:2:0:0:
333,162,51702,1,2,0:2:0:0:
360,258,51860,1,2,0:2:0:0:
277,318,52018,1,2,0:2:0:0:
179,288,52176,6,0,P|144:271|112:266,1,68.1449986482468,2|0,0:2|0:2,0:2:0:0:
23,184,52492,1,2,0:2:0:0:
96,142,52650,2,0,P|131:125|163:120,1,68.1449986482468,2|0,0:2|0:2,0:2:0:0:
297,53,52966,2,0,P|262:36|230:31,1,68.1449986482468,2|0,0:2|0:2,0:2:0:0:
294,139,53281,1,0,0:2:0:0:
439,73,53439,6,0,P|411:130|405:166,1,68.1449986482468,2|0,0:2|0:2,0:2:0:0:
498,247,53755,1,0,0:2:0:0:
498,247,53913,1,0,0:2:0:0:
467,318,54071,2,0,P|427:318|401:305,1,68.1449986482468,2|0,0:2|0:2,0:2:0:0:
369,235,54387,2,0,P|335:238|304:252,1,68.1449986482468,2|0,0:2|0:2,0:2:0:0:
234,334,54702,6,0,P|186:344|115:277,1,136.289997296494,2|0,0:2|0:2,0:2:0:0:
168,149,55176,2,0,P|208:223|182:281,1,136.289997296494,2|2,0:2|0:2,0:2:0:0:
93,117,55650,2,0,P|131:76|142:70,1,68.1449986482468,2|0,0:2|0:2,0:2:0:0:
180,65,55887,1,0,0:2:0:0:
180,65,55966,2,0,B|255:86|245:27|328:37,1,136.289997296494,2|0,1:2|0:2,0:2:0:0:
424,67,56439,6,0,P|395:99|379:127,1,68.1449986482468,0|2,0:2|0:2,0:2:0:0:
344,187,56755,1,2,0:2:0:0:
265,231,56913,1,2,0:2:0:0:
174,197,57071,1,2,0:2:0:0:
224,84,57229,6,0,P|238:134|234:171,1,68.1449986482468,2|0,0:2|0:2,0:2:0:0:
150,40,57544,1,2,0:2:0:0:
69,144,57702,2,0,P|58:176|53:209,1,68.1449986482468,2|0,0:2|0:2,0:2:0:0:
185,293,58018,2,0,P|179:259|168:227,1,68.1449986482468,2|0,0:2|0:2,0:2:0:0:
128,352,58334,1,2,0:2:0:0:
228,363,58492,1,2,0:2:0:0:
315,311,58650,1,2,0:2:0:0:
411,203,58808,6,0,B|401:287|454:263|428:359,1,136.289997296494,2|2,0:2|0:2,0:2:0:0:
367,378,59281,1,0,0:2:0:0:
485,229,59439,1,2,0:2:0:0:
75,54,59755,5,0,1:0:0:0:
289,173,59992,5,0,1:0:0:0:
11,268,60229,5,0,1:0:0:0:
307,269,60544,5,2,3:0:0:0:
307,269,60623,1,0,3:0:0:0:
307,269,60702,2,0,P|357:271|406:286,1,102.21749797237,10|0,0:0|0:0,0:0:0:0:
474,324,61018,6,0,P|491:248|526:182,1,103.545000394993,4|0,1:0|0:0,0:0:0:0:
437,45,61334,1,2,1:0:0:0:
287,161,61492,2,0,P|238:143|187:134,1,103.545000394993,2|0,1:0|1:0,0:0:0:0:
71,303,61808,2,0,P|121:294|170:276,1,103.545000394993,2|0,0:0|1:0,0:0:0:0:
286,191,62123,1,2,1:0:0:0:
244,371,62281,6,0,P|249:319|260:269,1,103.545000394993,2|0,1:0|0:0,0:0:0:0:
396,161,62597,2,0,P|407:211|412:262,2,103.545000394993,0|0|0,1:0|1:0|1:0,0:0:0:0:
325,14,63071,1,2,1:0:0:0:
295,206,63229,1,2,1:0:0:0:
187,29,63387,1,2,1:0:0:0:
81,180,63544,6,0,P|163:152|201:147,1,103.545000394993,2|0,1:0|0:0,0:0:0:0:
361,149,63860,1,2,1:0:0:0:
230,274,64018,2,0,P|145:256|106:255,1,103.545000394993,2|0,1:0|1:0,0:0:0:0:
305,365,64334,2,0,P|355:351|407:346,1,103.545000394993,2|0,1:0|1:0,0:0:0:0:
253,256,64650,1,2,1:0:0:0:
469,200,64808,6,0,P|384:182|345:181,1,103.545000394993,2|0,1:0|1:0,0:0:0:0:
176,163,65123,1,0,1:0:0:0:
349,262,65281,1,0,1:0:0:0:
331,60,65439,1,2,1:0:0:0:
259,236,65597,2,0,P|271:185|291:138,1,103.545000394993,2|0,1:0|1:0,0:0:0:0:
174,281,65913,1,2,1:0:0:0:
27,89,66071,6,0,P|56:170|62:212,1,103.545000394993,2|2,1:0|1:0,0:0:0:0:
125,360,66387,1,2,3:0:0:0:
159,371,66466,1,0,3:0:0:0:
195,371,66544,1,0,3:0:0:0:
229,358,66623,1,0,3:0:0:0:
260,331,66702,1,2,3:0:0:0:
290,302,66781,1,0,3:0:0:0:
329,288,66860,1,0,3:0:0:0:
369,297,66939,1,0,3:0:0:0:
405,317,67018,2,0,P|425:350|433:375,1,51.7725001974964,2|0,3:0|3:0,3:0:0:0:
458,190,67176,2,0,P|470:167|487:148,1,51.7725001974964,2|0,3:0|3:0,3:0:0:0:
301,209,67334,5,2,3:0:0:0:
301,209,67413,1,0,3:0:0:0:
301,209,67492,2,0,P|278:196|259:179,1,51.7725001974964,0|0,3:0|3:0,3:0:0:0:
382,66,67650,1,2,3:0:0:0:
382,66,67729,1,0,3:0:0:0:
382,66,67808,2,0,P|379:91|371:116,1,51.7725001974964,0|0,3:0|3:0,3:0:0:0:
218,274,67966,5,10,3:2:0:0:
100,106,68123,1,10,3:0:0:0:
100,326,68281,1,8,3:2:0:0:
221,132,68439,2,0,P|280:123|333:165,1,112.394999142494,14|0,3:0|1:0,0:0:0:0:
354,318,68755,1,2,1:0:0:0:
460,84,68913,5,8,0:0:0:0:
174,198,69071,1,8,0:0:0:0:
410,383,69229,1,8,0:0:0:0:
390,105,69387,1,8,0:0:0:0:
297,383,69544,1,8,0:0:0:0:
297,95,69702,5,2,1:0:0:0:
40,313,70018,5,2,1:0:0:0:
301,142,70808,5,10,0:0:0:0:
455,331,70966,2,0,B|428:229|493:257|473:127,1,168.592498713741,6|0,1:0|0:0,0:0:0:0:
465,90,71281,1,2,1:0:0:0:
202,165,71439,1,10,0:0:0:0:
374,339,71597,1,2,1:0:0:0:
373,116,71755,1,2,1:0:0:0:
185,285,71913,1,2,1:0:0:0:
442,174,72071,1,10,0:0:0:0:
208,76,72229,6,0,P|136:65|81:65,1,112.394999142494,2|0,1:0|1:0,0:0:0:0:
349,148,72544,1,2,1:0:0:0:
123,218,72702,1,10,0:0:0:0:
385,314,72860,2,0,P|457:303|512:303,1,112.394999142494,2|0,1:0|1:0,0:0:0:0:
342,123,73176,1,0,1:0:0:0:
386,347,73334,1,8,0:0:0:0:
243,116,73492,6,0,P|218:213|218:265,1,142.042495665207,2|0,3:2|0:0,0:0:0:0:
235,326,73808,2,0,B|152:336|170:264|51:287,1,181.867505133894,2|0,3:0|0:0,0:0:0:0:
5,335,74123,6,0,P|-8:258|44:211,1,142.042495665207,2|0,3:0|0:0,0:0:0:0:
108,208,74439,2,0,P|148:162|63:66,1,181.867505133894,2|0,3:0|0:0,0:0:0:0:
20,58,74755,6,0,P|64:-1|155:15,1,142.042495665207,2|0,3:0|0:0,0:0:0:0:
185,43,75071,2,0,B|291:76|260:-7|360:18,1,181.867505133894,2|0,3:0|0:0,0:0:0:0:
436,35,75387,6,0,P|396:88|319:88,1,142.042495665207,2|0,3:0|0:0,0:0:0:0:
257,32,75702,1,2,3:0:0:0:
307,263,75860,1,10,0:0:0:0:
66,161,76018,2,0,P|134:129|222:126,1,112.394999142494,6|0,1:0|0:0,0:0:0:0:
71,322,76334,1,2,1:0:0:0:
280,226,76492,2,0,P|335:222|390:233,1,112.394999142494,10|0,0:0|1:0,0:0:0:0:
248,115,76808,1,0,1:0:0:0:
315,342,76966,1,2,1:0:0:0:
425,125,77123,1,10,0:0:0:0:
206,252,77281,6,0,P|166:303|144:352,1,112.394999142494,2|0,1:0|1:0,0:0:0:0:
167,134,77597,1,0,1:0:0:0:
293,318,77755,1,8,0:0:0:0:
350,88,77913,1,2,1:0:0:0:
216,271,78071,1,2,1:0:0:0:
154,46,78229,1,2,1:0:0:0:
357,174,78387,1,10,0:0:0:0:
127,232,78544,6,0,P|44:265|6:285,1,112.394999142494,2|0,1:0|0:0,0:0:0:0:
172,61,78860,2,0,P|220:124|230:198,1,112.394999142494,2|8,1:0|0:0,0:0:0:0:
253,384,79176,1,0,1:0:0:0:
352,135,79334,1,0,1:0:0:0:
435,384,79492,1,0,1:0:0:0:
328,163,79650,1,8,0:0:0:0:
168,358,79808,6,0,P|165:283|154:225,1,112.394999142494,0|0,1:0|0:0,0:0:0:0:
95,31,80123,1,0,1:0:0:0:
228,161,80281,1,10,0:0:0:0:
265,185,80360,1,8,0:0:0:0:
308,195,80439,1,8,0:0:0:0:
352,188,80518,1,8,0:0:0:0:
391,165,80597,2,0,P|423:110|426:98,1,56.1974995712471,6|0,3:0|3:0,0:0:0:0:
289,281,80755,2,0,P|289:309|296:336,1,56.1974995712471,4|0,3:0|3:0,0:0:0:0:
314,107,80913,1,6,3:0:0:0:
167,254,81071,6,0,P|95:218|89:133,1,168.592498713741,4|0,1:0|0:0,0:0:0:0:
129,77,81387,1,2,1:0:0:0:
187,337,81544,1,10,0:0:0:0:
305,126,81702,1,2,1:0:0:0:
41,217,81860,1,2,1:0:0:0:
268,118,82018,1,2,1:0:0:0:
265,379,82176,1,10,0:0:0:0:
180,124,82334,6,0,P|206:218|207:255,1,112.394999142494,2|0,1:0|0:0,0:0:0:0:
299,41,82650,1,2,1:0:0:0:
345,288,82808,1,10,0:0:0:0:
432,42,82966,2,0,P|394:132|389:168,1,112.394999142494,2|0,1:0|1:0,0:0:0:0:
347,316,83281,1,0,1:0:0:0:
209,112,83439,1,8,0:0:0:0:
156,322,83597,6,0,P|94:345|45:284,1,142.042495665207,2|0,3:2|0:0,0:0:0:0:
72,228,83913,2,0,B|118:118|33:136|69:37,1,181.867505133894,2|0,3:0|0:0,0:0:0:0:
138,79,84229,6,0,P|205:59|298:57,1,142.042495665207,2|0,3:0|0:0,0:0:0:0:
355,74,84544,1,2,3:0:0:0:
185,186,84702,1,2,1:0:0:0:
414,135,84860,6,0,P|387:196|372:278,1,142.042495665207,2|0,3:0|0:0,0:0:0:0:
399,345,85176,2,0,P|318:325|301:237,1,181.867505133894,2|0,3:0|0:0,0:0:0:0:
324,160,85492,6,0,B|240:140|263:221|148:192,1,142.042495665207,2|0,3:0|0:0,0:0:0:0:
111,203,85808,1,2,3:0:0:0:
279,325,85966,1,10,0:0:0:0:
196,121,86123,6,0,P|231:40|296:16,1,112.394999142494,4|0,1:0|0:0,0:0:0:0:
46,124,86439,1,2,1:0:0:0:
304,81,86597,2,0,P|365:90|419:116,1,112.394999142494,10|0,0:0|0:0,0:0:0:0:
208,146,86913,1,0,1:0:0:0:
291,296,87071,1,2,1:0:0:0:
307,52,87229,1,10,0:0:0:0:
156,230,87387,6,0,P|126:287|110:337,1,112.394999142494,2|0,1:0|0:0,0:0:0:0:
316,206,87702,1,0,1:0:0:0:
99,175,87860,1,8,0:0:0:0:
210,29,88018,1,8,0:0:0:0:
241,222,88176,1,10,3:0:0:0:
248,249,88255,1,8,3:0:0:0:
253,276,88334,1,8,3:0:0:0:
257,303,88413,1,8,3:0:0:0:
260,332,88492,5,8,0:0:0:0:
411,188,88650,1,2,0:0:0:0:
152,124,88808,2,0,P|86:119|36:122,1,112.394999142494,8|0,0:0|1:0,0:0:0:0:
275,45,89123,1,0,1:0:0:0:
156,208,89281,2,0,P|127:269|112:324,1,112.394999142494,8|0,0:0|0:0,0:0:0:0:
190,46,89597,1,0,1:0:0:0:
314,243,89755,6,0,P|335:307|343:363,1,112.394999142494,8|0,0:0|1:0,0:0:0:0:
337,95,90071,1,0,1:0:0:0:
231,276,90229,2,0,P|209:340|201:396,1,112.394999142494,8|2,0:0|1:0,0:0:0:0:
382,176,90544,1,0,1:0:0:0:
173,151,90702,1,10,0:0:0:0:
347,276,90860,1,0,1:0:0:0:
255,88,91018,2,0,P|206:51|124:65,1,142.042495665207,10|0,0:0|0:0,0:0:0:0:
73,142,91334,5,0,3:0:0:0:
73,142,91413,1,0,3:0:0:0:
73,142,91492,2,0,P|82:178|82:208,1,56.1974995712471,2|0,3:0|3:0,3:0:0:0:
81,349,91650,5,2,3:0:0:0:
120,368,91729,1,0,3:0:0:0:
165,368,91808,1,0,3:0:0:0:
202,344,91887,1,0,3:0:0:0:
219,302,91966,1,0,3:0:0:0:
210,256,92045,1,0,3:0:0:0:
189,226,92124,2,0,P|187:180|192:162,1,56.1974995712471,2|0,3:0|3:0,3:0:0:0:
346,159,92281,2,0,P|336:203|327:220,1,56.1974995712471,2|0,3:0|3:0,3:0:0:0:
231,85,92439,1,0,3:0:0:0:
237,46,92518,1,0,3:0:0:0:
261,16,92597,1,2,3:0:0:0:
427,330,93544,5,8,0:0:0:0:
427,330,93702,2,0,P|374:306|329:298,1,85.8450020303307,6|0,1:0|1:0,0:0:0:0:
182,283,94018,1,2,1:0:0:0:
330,202,94176,1,8,0:0:0:0:
330,202,94334,1,2,1:0:0:0:
161,162,94492,2,0,P|118:162|76:171,1,85.8450020303307,2|0,1:0|1:0,0:0:0:0:
228,27,94808,1,8,0:0:0:0:
228,27,94966,5,2,1:0:0:0:
242,208,95123,1,0,1:0:0:0:
309,68,95281,1,2,1:0:0:0:
233,237,95439,1,8,0:0:0:0:
373,119,95597,1,2,1:0:0:0:
431,279,95755,2,0,P|437:340|437:372,1,85.8450020303307,2|2,1:0|1:0,0:0:0:0:
512,246,96071,1,8,0:0:0:0:
336,232,96229,6,0,P|276:209|226:197,1,85.8450020303307,2|0,1:0|1:0,0:0:0:0:
172,45,96544,1,2,1:0:0:0:
185,200,96702,1,10,0:0:0:0:
205,45,96860,1,2,1:0:0:0:
117,229,97018,2,0,P|104:313|103:335,1,85.8450020303307,2|0,1:0|1:0,0:0:0:0:
237,124,97334,1,8,0:0:0:0:
237,124,97492,5,0,1:0:0:0:
301,288,97650,1,2,1:0:0:0:
333,106,97808,1,2,1:0:0:0:
331,271,97966,1,10,0:0:0:0:
451,134,98123,1,2,1:0:0:0:
470,298,98281,1,2,1:0:0:0:
352,139,98439,1,2,1:0:0:0:
374,335,98597,1,8,0:0:0:0:
264,159,98755,6,0,P|200:141|145:137,1,85.8450020303307,2|0,1:0|1:0,0:0:0:0:
314,30,99071,1,2,1:0:0:0:
317,218,99229,1,10,0:0:0:0:
242,69,99387,1,2,1:0:0:0:
186,239,99544,2,0,P|176:301|174:356,1,85.8450020303307,2|0,1:0|1:0,0:0:0:0:
105,134,99860,1,8,0:0:0:0:
105,134,100018,5,2,1:0:0:0:
35,286,100176,1,2,1:0:0:0:
35,286,100334,1,2,1:0:0:0:
9,96,100492,1,10,0:0:0:0:
108,258,100650,1,2,1:0:0:0:
185,88,100808,2,0,P|213:55|245:27,1,85.8450020303307,2|2,1:0|1:0,0:0:0:0:
303,206,101123,1,8,0:0:0:0:
414,49,101281,6,0,P|390:133|388:153,1,85.8450020303307,2|2,1:0|1:0,0:0:0:0:
421,333,101597,1,2,1:0:0:0:
314,181,101755,1,10,0:0:0:0:
472,260,101913,1,2,1:0:0:0:
304,295,102071,6,0,P|362:264|394:257,1,85.8450020303307,2|0,1:0|1:0,0:0:0:0:
184,275,102387,1,10,0:0:0:0:
288,384,102544,1,2,1:0:0:0:
125,336,102702,1,8,0:0:0:0:
107,307,102781,1,8,0:0:0:0:
101,273,102860,1,8,0:0:0:0:
109,240,102939,1,8,0:0:0:0:
130,212,103018,1,8,0:0:0:0:
159,196,103097,1,8,0:0:0:0:
193,193,103176,1,8,0:0:0:0:
226,204,103255,1,8,0:0:0:0:
251,227,103334,5,0,3:0:0:0:
341,328,103492,1,8,3:0:0:0:
184,275,103650,1,4,3:0:0:0:
361,177,103808,6,0,P|376:90|272:17,1,224.789998284988,6|0,1:0|1:0,0:0:0:0:
36,74,104281,5,10,0:0:0:0:
300,117,104439,1,0,1:0:0:0:
118,330,104597,5,10,0:0:0:0:
132,73,104755,1,0,1:0:0:0:
334,319,104913,5,10,0:0:0:0:
99,242,105071,1,2,1:0:0:0:
333,82,105229,5,8,0:0:0:0:
247,334,105387,1,2,1:0:0:0:
228,70,105544,5,10,0:0:0:0:
456,280,105702,1,2,1:0:0:0:
170,293,105860,5,10,0:0:0:0:
397,183,106018,1,2,1:0:0:0:
140,72,106176,5,10,0:0:0:0:
255,308,106334,2,0,P|177:382|81:285,1,224.789998284988,6|0,0:0|1:0,0:0:0:0:
228,70,106808,5,10,0:0:0:0:
71,250,106966,1,0,1:0:0:0:
357,260,107123,5,10,0:0:0:0:
160,145,107281,1,0,1:0:0:0:
324,366,107439,5,10,0:0:0:0:
400,110,107597,1,2,1:0:0:0:
166,235,107755,5,8,0:0:0:0:
410,331,107913,1,2,1:0:0:0:
301,113,108071,5,10,0:0:0:0:
192,361,108229,1,2,1:0:0:0:
145,107,108387,5,10,0:0:0:0:
324,366,108544,1,2,1:0:0:0:
235,68,108702,5,10,0:0:0:0:
53,347,108860,2,0,B|38:212|107:275|72:116,1,224.789998284988,6|0,1:0|1:0,0:0:0:0:
266,310,109334,1,10,0:0:0:0:
307,328,109413,1,8,0:0:0:0:
352,328,109492,1,8,0:0:0:0:
391,308,109571,1,8,0:0:0:0:
419,273,109650,1,10,0:0:0:0:
438,232,109729,1,8,0:0:0:0:
438,187,109808,1,8,0:0:0:0:
418,148,109887,1,8,0:0:0:0:
387,114,109966,6,0,P|380:81|377:53,1,56.1974995712471,10|8,0:0|0:0,0:0:0:0:
336,202,110124,2,0,P|332:226|329:260,1,56.1974995712471,8|8,0:0|0:0,0:0:0:0:
284,83,110281,5,10,0:0:0:0:
244,60,110360,1,8,0:0:0:0:
196,57,110439,1,8,0:0:0:0:
160,88,110518,1,8,0:0:0:0:
119,117,110597,6,0,L|107:42,1,56.1974995712471,14|12,2:3|2:3,2:3:0:0:
137,272,110755,2,0,L|143:337,1,56.1974995712471,12|12,2:3|2:3,2:3:0:0:
49,162,110913,6,0,L|29:98,1,56.1974995712471,10|8,2:3|2:3,2:3:0:0:
49,314,111071,2,0,P|47:346|48:382,1,56.1974995712471,8|8,2:3|2:3,2:3:0:0:
129,144,111229,1,8,0:0:0:0:
239,306,111387,1,4,0:0:0:0:
239,306,111702,5,10,0:0:0:0:
326,101,111860,1,10,0:0:0:0:
366,384,112018,1,10,0:0:0:0:
124,230,112176,1,10,0:0:0:0:
124,230,112492,5,10,0:0:0:0:
388,64,112650,1,10,0:0:0:0:
239,306,112808,1,10,0:0:0:0:
186,26,112966,1,10,0:0:0:0:
352,291,113123,1,10,0:0:0:0:
411,45,113281,6,0,B|220:5|318:156|140:156|88:66|88:66|174:227|1:182|64:371|64:371|331:255|270:450|446:331|446:331|414:231|509:218|443:115|399:98|355:98|319:98|299:150|325:168,1,1455.82497778587,6|0,1:0|0:0,0:0:0:0:
