osu file format v14

[General]
AudioFilename: audio.mp3
AudioLeadIn: 0
PreviewTime: 225369
Countdown: 0
SampleSet: Soft
StackLeniency: 0.7
Mode: 0
LetterboxInBreaks: 0
WidescreenStoryboard: 0

[Editor]
Bookmarks: 62350,95180,134802,169897,225369,240085,243482,256784,257067,267255
DistanceSpacing: 0.8
BeatDivisor: 6
GridSize: 4
TimelineZoom: 1.6

[Metadata]
Title:LIPS
TitleUnicode:LIPS
Artist:THE ORAL CIGARETTES
ArtistUnicode:THE ORAL CIGARETTES
Creator:Nevo
Version:Rain
Source:
Tags:japanese rock swing one-third 1/3 alt alternator toc insane another stixy
BeatmapID:2289992
BeatmapSetID:1095684

[Difficulty]
HPDrainRate:6
CircleSize:4
OverallDifficulty:9
ApproachRate:9.3
SliderMultiplier:1.7
SliderTickRate:1

[Events]
//Background and Video events
0,0,"71801159_p0.jpg",0,0
//Break Periods
2,208524,223619
//Storyboard Layer 0 (Background)
//Storyboard Layer 1 (Fail)
//Storyboard Layer 2 (Pass)
//Storyboard Layer 3 (Foreground)
//Storyboard Layer 4 (Overlay)
//Storyboard Sound Samples

[TimingPoints]
-4506,283.018867924528,4,2,1,50,1,0
22,-399.999999999997,4,2,1,50,0,0
305,-133.333333333333,4,2,1,50,0,0
2287,-399.999999999997,4,2,1,50,0,0
2570,-133.333333333333,4,2,1,50,0,0
4551,-399.999999999997,4,2,1,50,0,0
4834,-133.333333333333,4,2,1,50,0,0
6956,-100,4,2,1,50,0,0
9173,-100,4,2,1,70,0,0
27286,-133.333333333333,4,2,1,60,0,0
45305,-100,4,2,1,60,0,0
62281,-200,4,2,1,60,0,0
62564,-133.333333333333,4,2,1,60,0,0
62847,-100,4,2,1,60,0,0
63418,-83.3333333333333,4,2,1,80,0,1
76998,-100,4,2,1,80,0,1
80394,-200,4,2,1,80,0,1
80677,-133.333333333333,4,2,1,80,0,1
80960,-100,4,2,1,80,0,1
81526,-83.3333333333333,4,2,1,80,0,1
95111,-100,4,2,1,80,0,1
96305,-83.3333333333333,4,2,1,5,0,1
96431,-100,4,2,1,80,0,1
99644,-133.333333333333,4,2,1,50,0,0
117752,-133.333333333333,4,2,1,60,0,0
126809,-100,4,2,1,60,0,0
134733,-200,4,2,1,60,0,0
135016,-133.333333333333,4,2,1,60,0,0
135299,-100,4,2,1,60,0,0
135871,-83.3333333333333,4,2,1,80,0,1
149450,-100,4,2,1,80,0,1
152847,-200,4,2,1,80,0,1
153130,-133.333333333333,4,2,1,80,0,1
153413,-100,4,2,1,80,0,1
153979,-83.3333333333333,4,2,1,80,0,1
168601,-100,4,2,1,80,0,1
168757,-83.3333333333333,4,2,1,5,0,1
168883,-100,4,2,1,80,0,1
172097,-133.333333333333,4,2,1,70,0,0
190205,-133.333333333333,4,2,1,50,0,0
194733,-100,4,2,1,60,0,0
208318,-100,4,2,2,40,0,0
224167,-200,4,2,1,60,0,0
224733,-100,4,2,1,60,0,0
225016,-333.333333333333,4,2,1,60,0,0
225300,-133.333333333333,4,2,1,60,0,0
225583,-100,4,2,1,60,0,0
225866,-83.3333333333333,4,2,1,60,0,0
226149,-66.6666666666667,4,2,1,60,0,0
226437,-76.9230769230769,4,2,1,80,0,1
243319,-181.818181818181,4,2,1,80,0,1
243418,-181.818181818181,4,2,1,80,0,0
243602,-100,4,2,1,80,0,0
243696,-76.9230769230769,4,2,1,80,0,0
244550,-76.9230769230769,4,2,1,80,0,1
253513,-100,4,2,1,80,0,1
253607,-100,4,2,1,80,0,0
256998,-76.9230769230769,4,2,1,80,0,0
258041,-76.9230769230769,4,2,1,80,0,0
258135,-76.9230769230769,4,2,1,70,0,1
263602,-83.3333333333333,4,2,1,70,0,1
267192,-100,4,2,1,70,0,0
286998,-100,4,2,1,5,0,0

[Colours]
Combo1 : 192,192,192
Combo2 : 106,106,255
Combo3 : 7,170,248
Combo4 : 233,164,1

[HitObjects]
311,106,22,6,0,P|295:127|292:140,1,28.3333333333333,4|2,1:2|0:2,0:0:0:0:
331,198,305,2,0,P|278:173|198:174,1,127.500004863739,10|0,0:2|0:0,0:0:0:0:
55,215,776,1,8,0:2:0:0:
55,215,871,2,0,L|61:305,1,85.0000032424928
102,378,1154,6,0,P|153:354|229:362,1,127.500004863739,8|0,0:2|0:0,0:0:0:0:
368,331,1625,1,8,0:2:0:0:
368,331,1720,2,0,P|310:318|281:285,1,85.0000032424928,0|8,1:2|0:2,0:0:0:0:
211,241,2003,2,0,P|269:254|298:287,1,85.0000032424928,0|8,1:2|0:0,0:0:0:0:
66,206,2287,6,0,L|59:170,1,28.3333333333333,4|2,1:2|0:2,0:0:0:0:
41,101,2570,2,0,L|11:245,1,127.500004863739,10|0,0:2|0:0,0:0:0:0:
155,104,3040,1,8,0:2:0:0:
155,104,3135,2,0,P|211:90|255:95,1,85.0000032424928
371,164,3418,6,0,P|435:177|493:120,1,127.500004863739,8|0,0:2|0:0,0:0:0:0:
333,70,3889,1,8,0:2:0:0:
323,94,3984,1,0,1:2:0:0:
239,190,4172,1,8,0:2:0:0:
249,214,4267,1,0,1:2:0:0:
333,310,4455,1,8,0:0:0:0:
323,332,4551,6,0,P|301:319|288:317,1,28.3333333333333,4|2,1:2|0:2,0:0:0:0:
223,349,4834,2,0,B|172:341|172:341|128:354|128:354|82:347,1,127.500004863739,10|0,0:2|0:0,0:0:0:0:
111,192,5305,1,8,0:2:0:0:
111,192,5399,2,0,P|130:238|120:274,1,85.0000032424928
77,106,5682,6,0,P|161:109|203:158,1,127.500004863739,8|0,0:2|0:0,0:0:0:0:
222,227,6154,1,8,0:2:0:0:
250,221,6248,1,0,1:2:0:0:
317,132,6437,1,8,0:2:0:0:
345,138,6531,1,0,1:2:0:0:
468,381,6814,5,10,0:2:0:0:
405,247,6956,2,0,P|394:285|391:334,1,85,2|0,1:2|0:0,0:0:0:0:
187,355,7238,5,8,0:0:0:0:
250,221,7381,2,0,P|261:273|266:322,1,85,2|0,1:2|0:0,0:0:0:0:
482,207,7663,5,8,0:0:0:0:
418,73,7805,2,0,P|404:113|402:174,1,85,2|0,1:2|0:0,0:0:0:0:
181,168,8088,5,8,0:0:0:0:
264,47,8230,2,0,P|273:86|280:148,1,85,2|0,1:2|0:0,0:0:0:0:
390,304,8513,5,10,0:3:0:0:
352,262,8607,1,8,0:0:0:0:
299,243,8702,1,10,0:0:0:0:
244,252,8796,1,10,0:0:0:0:
206,293,8890,1,8,0:0:0:0:
153,312,8985,1,10,0:0:0:0:
98,303,9079,6,0,P|77:241|101:148,1,113.333333333333,6|0,1:2|0:0,0:0:0:0:
0,152,9362,2,0,P|28:93|111:44,1,113.333333333333,10|0,0:2|0:0,0:0:0:0:
132,0,9645,1,2,1:2:0:0:
172,147,9834,1,2,1:2:0:0:
179,176,9928,1,8,0:2:0:0:
273,275,10117,6,0,P|278:218|291:163,1,113.333333333333,2|0,1:2|0:0,0:0:0:0:
377,124,10400,1,2,1:2:0:0:
377,124,10494,2,0,P|371:67|358:12,1,113.333333333333,10|0,0:2|0:0,0:0:0:0:
182,74,10777,2,0,P|247:93|291:60,1,113.333333333333,2|2,1:2|1:2,0:0:0:0:
81,76,11060,2,0,P|130:52|181:73,1,113.333333333333,10|0,0:2|0:0,0:0:0:0:
123,249,11343,6,0,L|2:240,1,113.333333333333,2|0,1:2|0:0,0:0:0:0:
171,344,11626,2,0,L|50:335,1,113.333333333333,10|0,0:2|0:0,0:0:0:0:
78,163,11909,1,2,1:2:0:0:
237,274,12098,1,2,1:2:0:0:
266,266,12192,1,8,0:2:0:0:
373,93,12381,6,0,B|339:134|339:134|370:272,1,170,2|2,1:2|1:2,0:0:0:0:
512,376,12758,2,0,P|457:351|388:369,1,113.333333333333,10|0,0:2|0:0,0:0:0:0:
297,331,13041,2,0,P|346:295|365:227,1,113.333333333333,2|2,1:2|1:2,0:0:0:0:
444,170,13324,2,0,P|449:230|499:280,1,113.333333333333,10|0,0:2|0:0,0:0:0:0:
505,83,13607,5,0,1:2:0:0:
505,83,13890,2,0,L|376:70,1,113.333333333333,10|0,0:2|0:0,0:0:0:0:
303,20,14173,1,2,1:2:0:0:
209,96,14362,1,2,1:2:0:0:
177,91,14456,1,8,0:2:0:0:
86,16,14645,6,0,B|112:66|71:85|110:145,1,113.333333333333,2|0,1:2|0:0,0:0:0:0:
158,202,14928,1,2,1:2:0:0:
158,202,15022,2,0,P|215:180|277:186,1,113.333333333333,10|0,0:2|0:0,0:0:0:0:
277,88,15306,2,0,P|332:112|372:160,1,113.333333333333,2|0,1:2|1:2,0:0:0:0:
441,91,15589,2,0,P|462:148|456:210,1,113.333333333333,10|0,0:2|0:0,0:0:0:0:
395,359,15872,6,0,L|381:241,1,113.333333333333,2|0,1:2|0:0,0:0:0:0:
313,384,16155,2,0,L|299:271,1,113.333333333333,10|0,0:2|0:0,0:0:0:0:
314,180,16438,1,2,1:2:0:0:
221,234,16626,1,2,1:2:0:0:
212,271,16721,1,8,0:2:0:0:
117,359,16909,6,0,L|130:246,1,113.333333333333,2|0,1:2|0:0,0:0:0:0:
112,163,17192,1,0,1:2:0:0:
112,163,17287,2,0,P|47:181|-12:143,1,113.333333333333,10|0,0:2|0:0,0:0:0:0:
152,76,17570,1,2,1:2:0:0:
252,163,17758,1,2,1:2:0:0:
280,189,17853,2,0,P|332:206|384:188,1,113.333333333333,10|10,0:2|0:2,0:0:0:0:
471,63,18136,5,4,1:2:0:0:
471,63,18419,2,0,L|492:185,1,113.333333333333,10|0,0:2|0:0,0:0:0:0:
486,273,18702,1,2,1:2:0:0:
350,255,18890,1,2,1:2:0:0:
328,264,18985,1,8,0:2:0:0:
224,360,19173,6,0,P|150:362|111:329,1,113.333333333333,2|0,1:2|0:0,0:0:0:0:
67,250,19456,1,0,1:2:0:0:
67,250,19551,2,0,L|83:374,1,113.333333333333,10|0,0:2|0:0,0:0:0:0:
186,274,19834,1,2,1:2:0:0:
145,165,20022,1,2,1:2:0:0:
145,165,20117,2,0,L|159:52,1,113.333333333333,10|2,0:2|0:0,0:0:0:0:
62,95,20400,5,0,1:2:0:0:
239,127,20683,2,0,P|308:131|354:105,1,113.333333333333,10|0,0:2|0:0,0:0:0:0:
424,39,20966,1,2,1:2:0:0:
459,188,21155,1,2,1:2:0:0:
467,215,21249,1,8,0:2:0:0:
415,336,21438,6,0,P|369:296|235:310,1,170,2|2,1:2|1:2,0:0:0:0:
213,353,21815,2,0,L|229:233,1,113.333333333333,10|0,0:2|0:0,0:0:0:0:
121,259,22098,2,0,L|105:139,1,113.333333333333,2|0,1:2|1:2,0:0:0:0:
197,117,22381,2,0,L|213:-3,1,113.333333333333,10|0,0:2|0:0,0:0:0:0:
314,77,22664,5,2,1:2:0:0:
102,41,22947,1,10,0:2:0:0:
219,206,23230,2,0,P|270:189|361:186,1,113.333333333333,14|2,0:2|0:0,0:0:0:0:
415,207,23513,1,0,1:2:0:0:
305,309,23702,1,10,0:2:0:0:
197,113,23985,5,2,1:2:0:0:
204,85,24079,1,10,0:2:0:0:
408,179,24268,5,2,0:0:0:0:
415,207,24362,1,2,1:2:0:0:
197,301,24551,5,2,1:2:0:0:
204,273,24645,1,10,0:2:0:0:
406,373,24928,5,2,1:2:0:0:
105,271,25211,1,14,0:2:0:0:
302,169,25494,2,0,P|356:156|407:178,1,113.333333333333,14|2,0:2|0:0,0:0:0:0:
466,241,25777,1,0,1:2:0:0:
409,63,25966,1,14,0:2:0:0:
184,189,26249,5,2,1:2:0:0:
181,158,26343,1,10,0:2:0:0:
333,285,26532,1,0,0:0:0:0:
328,315,26626,1,8,1:2:0:0:
322,341,26721,1,8,0:0:0:0:
269,359,26815,1,8,0:0:0:0:
216,344,26909,1,8,0:0:0:0:
166,328,27004,1,10,0:0:0:0:
112,344,27098,1,8,0:0:0:0:
75,384,27192,6,0,P|85:306|66:263,1,113.333333333333,6|8,1:2|0:2,0:0:0:0:
12,216,27475,1,10,0:2:0:0:
58,122,27758,1,0,1:2:0:0:
142,182,27947,1,0,1:2:0:0:
142,182,28041,2,0,P|203:186|240:165,1,85.0000032424928,10|0,0:2|1:2,0:0:0:0:
314,127,28324,6,0,L|300:235,1,85.0000032424928,2|2,0:0|1:2,0:0:0:0:
389,184,28607,2,0,L|375:292,1,85.0000032424928,8|0,0:2|0:0,0:0:0:0:
428,376,28890,2,0,P|380:354|343:352,1,85.0000032424928,0|0,1:2|1:2,0:0:0:0:
266,296,29173,2,0,P|216:314|188:339,1,85.0000032424928,8|0,0:2|0:0,0:0:0:0:
91,346,29456,6,0,L|81:247,1,85.0000032424928,0|0,1:2|0:0,0:0:0:0:
0,176,29739,1,8,0:2:0:0:
55,29,30022,1,2,1:2:0:0:
154,121,30211,1,2,1:2:0:0:
180,113,30306,1,10,0:2:0:0:
263,29,30494,6,0,B|294:16|329:30|329:30|366:45|397:28,1,127.500004863739,2|0,1:2|1:2,0:0:0:0:
512,134,30872,2,0,P|472:119|423:121,1,85.0000032424928,10|0,0:2|0:0,0:0:0:0:
390,220,31155,2,0,P|372:181|336:147,1,85.0000032424928,2|0,1:2|1:2,0:0:0:0:
242,194,31438,2,0,P|257:154|255:105,1,85.0000032424928,10|0,0:2|0:0,0:0:0:0:
156,238,31721,6,0,L|168:375,1,127.500004863739,2|8,1:2|0:2,0:0:0:0:
387,254,32192,1,2,0:0:0:0:
387,254,32287,2,0,P|341:234|274:253,1,85.0000032424928,2|0,1:2|1:2,0:0:0:0:
249,294,32570,2,0,L|263:198,1,85.0000032424928,8|0,0:2|1:2,0:0:0:0:
121,126,32853,6,0,P|166:142|225:126,1,85.0000032424928,0|0,0:0|1:2,0:0:0:0:
330,73,33136,2,0,P|375:57|434:73,1,85.0000032424928,8|0,0:2|0:0,0:0:0:0:
479,114,33419,1,0,1:2:0:0:
385,229,33607,1,0,1:2:0:0:
385,229,33702,2,0,L|380:139,1,85.0000032424928,8|0,0:2|0:0,0:0:0:0:
217,184,33985,6,0,P|267:199|307:183,1,85.0000032424928,0|0,1:2|0:0,0:0:0:0:
259,114,34268,1,8,0:2:0:0:
57,90,34551,1,0,1:2:0:0:
128,182,34739,1,0,1:2:0:0:
121,215,34834,1,8,0:2:0:0:
205,333,35022,6,0,P|261:305|318:310,1,85.0000032424928,0|0,1:2|0:0,0:0:0:0:
280,212,35306,1,0,1:2:0:0:
280,212,35400,2,0,P|339:231|376:275,1,85.0000032424928,8|0,0:2|0:0,0:0:0:0:
418,310,35683,1,0,1:2:0:0:
465,179,35872,1,0,1:2:0:0:
465,179,35966,2,0,L|452:88,1,85.0000032424928,10|0,0:2|0:0,0:0:0:0:
374,14,36249,6,0,B|366:45|366:45|316:23|263:46,1,127.500004863739,6|8,1:2|0:2,0:0:0:0:
119,109,36721,1,0,0:0:0:0:
119,108,36814,2,0,P|76:108|39:90,1,85.0000032424928,0|0,1:2|1:2,0:0:0:0:
205,83,37097,2,0,L|192:167,1,85.0000032424928,10|0,0:2|1:2,0:0:0:0:
39,264,37380,6,0,P|84:248|143:264,1,85.0000032424928,2|2,0:0|1:2,0:0:0:0:
335,339,37663,2,0,P|290:355|231:339,1,85.0000032424928,8|0,0:2|0:0,0:0:0:0:
187,297,37946,1,0,1:2:0:0:
292,178,38135,1,0,1:2:0:0:
292,178,38229,2,0,L|287:268,1,85.0000032424928,8|0,0:2|0:0,0:0:0:0:
211,139,38512,6,0,P|233:103|271:86,1,85.0000032424928,6|0,1:2|0:0,0:0:0:0:
145,214,38795,2,0,P|122:178|84:161,1,85.0000032424928,8|0,0:2|0:0,0:0:0:0:
5,206,39078,1,0,1:2:0:0:
26,65,39267,1,0,1:2:0:0:
33,38,39361,1,10,0:2:0:0:
211,139,39550,5,0,1:2:0:0:
211,139,39644,2,0,P|257:156|306:145,1,85.0000032424928,2|0,0:0|1:2,0:0:0:0:
358,97,39928,1,10,0:2:0:0:
353,237,40116,2,0,P|256:279|216:265,1,127.500004863739,2|0,0:0|1:2,0:0:0:0:
201,355,40494,2,0,P|167:329|149:291,1,85.0000032424928,10|2,0:2|0:0,0:0:0:0:
34,120,40778,6,0,L|51:262,1,127.500004863739,2|8,1:2|0:2,0:0:0:0:
267,15,41343,2,0,L|247:141,1,127.500004863739,2|8,1:2|0:2,0:0:0:0:
465,163,41814,2,0,L|482:305,1,127.500004863739,0|0,1:2|0:2,0:0:0:0:
339,365,42192,2,0,P|384:322|389:294,1,85.0000032424928,8|0,0:2|0:0,0:0:0:0:
277,214,42475,2,0,P|291:274|313:292,1,85.0000032424928,0|0,1:2|1:2,0:0:0:0:
326,153,42758,2,0,P|266:135|239:145,1,85.0000032424928,8|0,0:2|0:0,0:0:0:0:
72,192,43041,5,0,1:2:0:0:
277,214,43324,1,8,0:2:0:0:
16,288,43607,1,0,1:2:0:0:
178,193,43796,1,0,1:2:0:0:
175,216,43890,1,8,0:2:0:0:
165,347,44079,6,0,P|215:368|301:319,1,127.500004863739,0|0,1:2|1:2,0:0:0:0:
319,150,44456,2,0,P|314:214|330:252,1,85.0000032424928,8|0,0:2|0:0,0:0:0:0:
375,56,44739,1,8,0:3:0:0:
335,41,44833,1,8,0:0:0:0:
293,42,44927,1,8,0:0:0:0:
254,58,45022,1,10,0:0:0:0:
214,73,45117,1,8,0:0:0:0:
172,72,45211,1,8,0:0:0:0:
133,56,45306,6,0,P|157:121|118:198,1,113.333333333333,6|0,1:2|0:0,0:0:0:0:
47,247,45589,2,0,P|91:193|177:188,1,113.333333333333,10|0,0:2|0:0,0:0:0:0:
265,302,45872,2,0,L|143:285,1,113.333333333333,2|0,1:2|1:2,0:0:0:0:
225,202,46155,1,10,0:2:0:0:
341,358,46343,6,0,P|403:364|404:242,1,170,2|0,1:2|1:2,0:0:0:0:
348,133,46721,2,0,P|409:187|459:188,1,113.333333333333,10|0,0:2|0:0,0:0:0:0:
477,12,47004,2,0,P|421:3|371:26,1,113.333333333333,2|0,1:2|1:2,0:0:0:0:
432,94,47287,1,10,0:2:0:0:
255,75,47570,6,0,L|124:81,1,113.333333333333,4|0,1:2|0:0,0:0:0:0:
55,208,47853,2,0,P|45:268|74:319,1,113.333333333333,8|0,0:2|0:0,0:0:0:0:
146,355,48136,1,0,1:2:0:0:
199,169,48324,1,0,1:2:0:0:
199,169,48419,2,0,P|149:204|133:260,1,113.333333333333,8|0,0:2|1:2,0:0:0:0:
340,371,48702,6,0,L|332:243,1,113.333333333333,0|0,0:0|1:2,0:0:0:0:
282,185,48985,1,8,0:2:0:0:
449,117,49268,1,0,1:2:0:0:
243,96,49456,1,0,1:2:0:0:
243,96,49551,2,0,P|182:57|154:10,1,113.333333333333,10|0,0:2|0:0,0:0:0:0:
364,11,49834,6,0,L|350:123,1,113.333333333333,6|0,1:2|0:0,0:0:0:0:
486,225,50117,2,0,P|435:201|379:205,1,113.333333333333,10|0,0:2|0:0,0:0:0:0:
287,256,50400,1,2,1:2:0:0:
110,213,50589,1,0,1:2:0:0:
106,180,50683,1,10,0:2:0:0:
200,72,50872,2,0,P|199:165|197:248,1,170,2|0,1:2|1:2,0:0:0:0:
103,329,51249,6,0,P|57:288|-12:274,1,113.333333333333,10|0,0:2|0:0,0:0:0:0:
287,256,51532,2,0,P|333:215|402:201,1,113.333333333333,2|0,1:2|0:0,0:0:0:0:
507,268,51815,1,10,0:2:0:0:
507,268,52098,5,6,1:2:0:0:
376,118,52287,5,0,1:2:0:0:
402,111,52381,1,10,0:2:0:0:
282,65,52570,1,2,0:0:0:0:
308,72,52664,1,0,1:2:0:0:
188,118,52853,1,0,1:2:0:0:
214,111,52947,1,8,0:2:0:0:
116,287,53136,5,0,0:0:0:0:
81,277,53230,1,0,1:2:0:0:
239,217,53419,1,0,1:2:0:0:
205,226,53513,1,8,0:2:0:0:
362,287,53702,1,0,0:0:0:0:
328,277,53796,1,0,1:2:0:0:
453,112,53985,5,0,1:2:0:0:
453,112,54079,2,0,P|469:174|454:227,1,113.333333333333,10|0,0:2|0:0,0:0:0:0:
368,172,54362,6,0,B|328:153|289:175|289:175|247:194|200:175,1,170,6|10,1:2|0:2,0:0:0:0:
100,2,54834,1,0,0:0:0:0:
100,2,54928,2,0,P|122:57|124:112,1,113.333333333333,2|0,1:2|1:2,0:0:0:0:
56,176,55211,1,10,0:2:0:0:
216,65,55400,6,0,P|213:147|195:192,1,113.333333333333,2|0,1:2|0:0,0:0:0:0:
153,267,55683,1,0,1:2:0:0:
153,267,55777,2,0,L|270:257,1,113.333333333333,10|0,0:2|0:0,0:0:0:0:
337,369,56060,2,0,L|220:359,1,113.333333333333,2|0,1:2|1:2,0:0:0:0:
124,351,56343,1,10,0:2:0:0:
362,211,56626,6,0,P|397:276|396:326,1,113.333333333333,4|0,1:2|0:0,0:0:0:0:
337,369,56909,1,8,0:2:0:0:
128,109,57192,2,0,P|93:174|94:224,1,113.333333333333,4|0,1:2|1:2,0:0:0:0:
153,267,57475,1,10,0:2:0:0:
393,16,57758,6,0,P|428:81|427:131,1,113.333333333333,4|0,1:2|0:0,0:0:0:0:
338,245,58041,2,0,P|264:242|221:216,1,113.333333333333,8|0,0:2|0:0,0:0:0:0:
167,82,58325,1,0,1:2:0:0:
305,115,58512,1,8,0:2:0:0:
305,115,58607,1,0,1:2:0:0:
121,181,58796,5,8,0:2:0:0:
121,181,58890,2,0,B|72:145|11:166|11:166|36:183|58:213,1,170,6|8,1:2|0:2,0:0:0:0:
8,336,59456,2,0,P|67:290|174:308,1,170,0|8,1:2|0:2,0:0:0:0:
398,294,60022,6,0,P|315:304|248:255,1,170,0|8,1:2|0:2,0:0:0:0:
181,109,60589,1,2,1:2:0:0:
358,103,60777,1,0,1:2:0:0:
358,103,60872,2,0,L|337:217,1,113.333333333333,8|0,0:2|0:0,0:0:0:0:
102,45,61155,6,0,P|151:13|218:11,1,113.333333333333,10|0,0:2|1:2,0:0:0:0:
81,146,61438,2,0,P|114:192|165:217,1,113.333333333333,8|0,0:2|1:2,0:0:0:0:
282,76,61721,2,0,P|285:134|253:193,1,113.333333333333,8|0,0:2|1:2,0:0:0:0:
181,109,62004,1,8,0:2:0:0:
361,271,62287,6,0,L|345:365,1,56.6666666666667,6|0,1:2|0:0,0:0:0:0:
379,354,62570,6,0,L|360:270,1,85.0000032424928,14|0,0:0|0:0,0:0:0:0:
309,202,62853,5,10,1:2:0:0:
262,183,62947,1,8,0:2:0:0:
213,190,63041,1,8,0:2:0:0:
173,221,63136,1,10,1:2:0:0:
130,242,63230,1,8,0:2:0:0:
81,235,63324,1,8,0:2:0:0:
41,204,63418,6,0,P|57:278|-10:226,1,203.999993774414,6|8,1:2|0:2,0:0:0:0:
45,107,63890,1,0,0:0:0:0:
73,112,63985,1,2,1:2:0:0:
210,47,64173,1,0,1:2:0:0:
180,57,64268,1,10,0:2:0:0:
304,148,64456,6,0,B|358:97|441:116|441:116|422:136|413:172,1,203.999993774414,2|0,1:2|1:2,0:0:0:0:
480,251,64834,2,0,P|531:201|484:184,1,135.99999584961,10|0,0:2|0:0,0:0:0:0:
362,249,65117,2,0,P|325:295|379:318,1,135.99999584961,2|0,1:2|1:2,0:0:0:0:
304,148,65400,2,0,P|236:129|166:154,1,135.99999584961,10|0,0:2|0:0,0:0:0:0:
52,235,65683,6,0,P|37:316|111:280,1,203.999993774414,2|8,1:2|0:2,0:0:0:0:
95,110,66155,1,0,0:0:0:0:
88,84,66249,1,2,1:2:0:0:
229,218,66438,1,0,1:2:0:0:
222,244,66532,1,10,0:2:0:0:
373,365,66721,6,0,P|360:290|352:161,1,203.999993774414,2|0,1:2|1:2,0:0:0:0:
477,71,67098,2,0,B|437:69|418:100|418:100|390:76|355:77,1,135.99999584961,10|0,0:2|0:0,0:0:0:0:
232,156,67381,2,0,B|272:154|291:185|291:185|319:161|354:162,1,135.99999584961,2|0,1:2|1:2,0:0:0:0:
149,57,67664,2,0,P|79:52|12:78,1,135.99999584961,10|0,0:2|0:0,0:0:0:0:
124,229,67947,6,0,P|135:155|70:228,1,203.999993774414,2|8,1:2|0:2,0:0:0:0:
132,344,68419,1,0,0:0:0:0:
157,337,68513,1,2,1:2:0:0:
286,261,68702,1,0,1:2:0:0:
262,253,68796,1,10,0:2:0:0:
385,336,68985,6,0,B|408:282|408:282|378:134,1,203.999993774414,2|0,1:2|1:2,0:0:0:0:
144,153,69362,2,0,B|162:173|195:174|195:174|235:151|279:156,1,135.99999584961,10|0,0:2|0:0,0:0:0:0:
498,43,69645,2,0,B|480:63|447:64|447:64|407:41|371:45,1,135.99999584961,2|0,1:2|1:2,0:0:0:0:
495,271,69928,2,0,P|501:193|471:136,1,135.99999584961,10|0,0:2|0:0,0:0:0:0:
317,329,70211,6,0,B|272:364|214:339|214:339|157:314|113:342,1,203.999993774414,2|8,1:2|0:2,0:0:0:0:
271,166,70683,1,0,0:0:0:0:
271,166,70777,2,0,P|310:226|217:190,1,203.999993774414,2|8,1:2|0:2,0:0:0:0:
233,70,71249,1,0,1:2:0:0:
233,70,71343,2,0,B|300:17|371:40|371:40|337:56|316:99,1,203.999993774414,2|8,0:0|0:2,0:0:0:0:
406,249,71815,1,0,0:0:0:0:
415,227,71909,1,2,1:2:0:0:
264,297,72098,1,8,0:2:0:0:
273,319,72192,1,0,1:2:0:0:
106,241,72381,1,8,0:2:0:0:
116,219,72475,6,0,P|146:139|161:26,1,135.99999584961,6|0,1:2|0:0,0:0:0:0:
102,27,72758,1,8,0:2:0:0:
222,179,72947,1,0,0:0:0:0:
226,183,73041,2,0,P|310:182|375:113,1,135.99999584961,2|2,1:2|1:2,0:0:0:0:
420,57,73324,1,8,0:2:0:0:
498,275,73513,6,0,B|432:289|368:256|368:256|411:297|409:369,1,203.999993774414,2|0,1:2|1:2,0:0:0:0:
185,352,73890,2,0,P|248:318|322:336,1,135.99999584961,10|0,0:2|0:0,0:0:0:0:
80,281,74173,2,0,P|148:301|188:366,1,135.99999584961,2|0,1:2|1:2,0:0:0:0:
56,156,74456,2,0,P|89:218|72:293,1,135.99999584961,10|0,0:2|0:0,0:0:0:0:
22,55,74739,6,0,B|106:30|151:109|151:109|206:106|213:41,1,203.999993774414,2|8,1:2|0:2,0:0:0:0:
310,24,75211,1,0,0:0:0:0:
314,28,75306,2,0,P|283:98|286:162,1,135.99999584961,2|2,1:2|1:2,0:0:0:0:
319,257,75589,1,8,0:2:0:0:
457,236,75777,6,0,B|394:217|394:217|321:258|321:258|259:245,1,203.999993774414,2|0,1:2|1:2,0:0:0:0:
62,336,76155,2,0,L|196:316,1,135.99999584961,10|0,0:2|0:0,0:0:0:0:
21,253,76438,2,0,L|155:233,1,135.99999584961,2|0,1:2|1:2,0:0:0:0:
78,155,76721,2,0,P|70:88|99:27,1,135.99999584961,10|0,0:2|0:0,0:0:0:0:
308,153,77004,6,0,P|385:172|458:120,1,170,2|10,1:2|0:2,0:0:0:0:
260,82,77475,1,0,0:0:0:0:
264,86,77570,2,0,P|272:128|279:208,1,113.333333333333,10|0,0:2|0:0,0:0:0:0:
202,243,77853,1,0,1:2:0:0:
340,340,78041,6,0,P|402:333|441:301,1,113.333333333333,8|0,0:2|0:0,0:0:0:0:
468,218,78324,1,0,1:2:0:0:
468,218,78419,2,0,L|451:103,1,113.333333333333,8|0,0:2|0:0,0:0:0:0:
350,143,78702,2,0,L|366:30,1,113.333333333333,0|0,1:2|1:2,0:0:0:0:
265,57,78985,1,8,0:2:0:0:
131,182,79268,6,0,P|66:209|19:191,1,113.333333333333,0|0,1:2|0:0,0:0:0:0:
202,115,79551,2,0,P|256:103|305:130,1,113.333333333333,8|0,0:2|0:0,0:0:0:0:
346,202,79834,1,8,0:2:0:0:
186,249,80117,1,0,1:2:0:0:
358,374,80306,1,8,0:2:0:0:
358,374,80400,6,0,L|374:280,1,56.6666666666667,0|0,0:0|1:2,0:0:0:0:
340,291,80683,6,0,L|359:375,1,85.0000032424928,8|0,0:2|0:0,0:0:0:0:
445,306,80966,5,8,1:2:0:0:
464,259,81060,1,8,0:2:0:0:
457,210,81154,1,8,0:2:0:0:
426,170,81249,1,8,1:2:0:0:
405,127,81343,1,8,0:2:0:0:
412,78,81437,1,8,0:2:0:0:
439,36,81532,6,0,P|372:13|272:106,1,203.999993774414,6|8,1:2|0:2,0:0:0:0:
338,228,82003,1,0,0:0:0:0:
343,200,82098,1,2,1:2:0:0:
180,282,82286,1,0,1:2:0:0:
190,312,82381,1,10,0:2:0:0:
223,183,82569,6,0,B|169:132|86:151|86:151|105:171|114:207,1,203.999993774414,2|0,1:2|1:2,0:0:0:0:
20,344,82947,2,0,P|9:314|28:211,1,135.99999584961,10|0,0:2|0:0,0:0:0:0:
293,228,83230,2,0,P|313:292|298:357,1,135.99999584961,2|0,1:2|1:2,0:0:0:0:
95,138,83513,2,0,P|165:123|233:155,1,135.99999584961,10|0,0:2|0:0,0:0:0:0:
419,270,83796,6,0,P|393:142|474:44,1,203.999993774414,2|8,1:2|0:2,0:0:0:0:
512,170,84268,1,0,0:0:0:0:
486,177,84362,1,2,1:2:0:0:
295,289,84551,1,0,1:2:0:0:
269,282,84645,1,10,0:2:0:0:
146,185,84834,6,0,P|205:214|184:352,1,203.999993774414,2|0,1:2|1:2,0:0:0:0:
0,285,85211,2,0,B|66:263|66:263|139:279,1,135.99999584961,10|0,0:2|0:0,0:0:0:0:
423,186,85494,2,0,B|357:208|357:208|284:192,1,135.99999584961,2|0,1:2|1:2,0:0:0:0:
316,0,85777,2,0,P|355:45|350:125,1,135.99999584961,10|0,0:2|0:0,0:0:0:0:
56,80,86060,6,0,B|105:53|159:68|159:68|219:89|280:68,1,203.999993774414,2|8,1:2|0:2,0:0:0:0:
121,166,86532,1,0,0:0:0:0:
128,191,86626,1,2,1:2:0:0:
282,282,86815,1,0,1:2:0:0:
290,258,86909,1,10,0:2:0:0:
151,329,87098,6,0,B|205:306|205:306|353:336,1,203.999993774414,2|0,1:2|1:2,0:0:0:0:
344,115,87475,2,0,P|298:162|301:230,1,135.99999584961,10|0,0:2|0:0,0:0:0:0:
137,60,87758,2,0,P|200:76|258:39,1,135.99999584961,2|0,1:2|1:2,0:0:0:0:
192,266,88041,2,0,P|174:202|113:171,1,135.99999584961,10|0,0:2|0:0,0:0:0:0:
53,357,88324,6,0,B|120:347|120:347|190:371|190:371|310:349,1,203.999993774414,2|8,1:2|0:2,0:0:0:0:
474,269,88796,1,0,0:0:0:0:
474,269,88890,2,0,B|407:259|407:259|337:283|337:283|217:261,1,203.999993774414,2|8,1:2|0:2,0:0:0:0:
46,102,89362,1,0,1:2:0:0:
46,102,89456,2,0,B|113:49|184:72|184:72|150:88|129:131,1,203.999993774414,2|8,0:0|0:2,0:0:0:0:
213,188,89928,1,0,0:0:0:0:
222,166,90022,1,2,1:2:0:0:
387,78,90211,1,8,0:2:0:0:
396,100,90305,1,0,1:2:0:0:
363,289,90494,1,8,0:2:0:0:
353,266,90588,6,0,P|323:186|308:73,1,135.99999584961,6|0,1:2|0:0,0:0:0:0:
456,91,90871,1,8,0:2:0:0:
250,273,91060,1,0,0:0:0:0:
250,273,91154,2,0,P|166:272|101:203,1,135.99999584961,2|2,1:2|1:2,0:0:0:0:
67,140,91437,1,8,0:2:0:0:
237,48,91626,6,0,L|206:189,1,135.99999584961,2|0,1:2|0:0,0:0:0:0:
250,273,91909,1,0,1:2:0:0:
250,273,92003,2,0,P|316:263|374:296,1,135.99999584961,10|0,0:2|0:0,0:0:0:0:
478,225,92286,2,0,P|410:245|370:310,1,135.99999584961,2|0,1:2|1:2,0:0:0:0:
344,164,92570,2,0,L|373:296,1,135.99999584961,10|0,0:2|0:0,0:0:0:0:
376,69,92852,6,0,B|292:44|247:123|247:123|192:120|185:55,1,203.999993774414,2|8,1:2|0:2,0:0:0:0:
92,31,93324,1,0,0:0:0:0:
92,31,93419,2,0,P|123:101|120:165,1,135.99999584961,2|2,1:2|1:2,0:0:0:0:
69,262,93702,1,8,0:2:0:0:
227,239,93890,6,0,B|290:220|290:220|363:261|363:261|425:248,1,203.999993774414,2|0,1:2|1:2,0:0:0:0:
225,142,94268,2,0,L|89:181,1,135.99999584961,10|0,0:2|0:0,0:0:0:0:
231,47,94551,2,0,L|95:86,1,135.99999584961,2|0,1:2|1:2,0:0:0:0:
227,239,94834,2,0,P|302:214|321:120,1,135.99999584961,10|0,0:2|0:0,0:0:0:0:
376,88,95117,6,0,P|378:171|387:216,1,113.333333333333,2|0,1:2|0:2,0:0:0:0:
464,191,95399,2,0,P|419:225|382:271,1,113.333333333333,12|0,0:2|0:2,0:0:0:0:
457,322,95683,2,0,P|400:315|344:319,1,113.333333333333,12|0,0:2|0:2,0:0:0:0:
277,378,95966,1,0,1:2:0:0:
231,248,96154,6,0,P|169:255|130:287,1,113.333333333333,8|0,0:2|2:0,0:0:0:0:
86,364,96437,1,0,1:2:0:0:
86,364,96532,2,0,L|103:249,1,113.333333333333,8|0,0:2|0:0,0:0:0:0:
179,193,96815,2,0,L|162:80,1,113.333333333333,0|0,1:2|0:0,0:0:0:0:
86,31,97098,1,8,0:2:0:0:
292,131,97381,6,0,P|357:158|404:140,1,113.333333333333,0|0,1:2|0:0,0:0:0:0:
189,16,97664,2,0,P|134:4|85:31,1,113.333333333333,12|0,0:2|0:0,0:0:0:0:
35,106,97947,1,12,0:2:0:0:
302,232,98230,1,0,1:2:0:0:
219,158,98419,1,8,0:2:0:0:
219,158,98513,6,0,L|211:243,2,56.6666666666667,8|8|8,0:0|0:0|0:0,0:0:0:0:
98,218,98796,2,0,L|106:303,2,56.6666666666667,8|8|8,0:0|0:0|0:0,0:0:0:0:
189,341,99079,5,8,0:3:0:0:
238,362,99173,1,8,0:3:0:0:
291,356,99268,1,8,0:3:0:0:
338,329,99362,1,8,0:3:0:0:
387,307,99456,1,8,0:3:0:0:
440,313,99551,1,8,0:3:0:0:
486,345,99645,5,6,1:2:0:0:
391,108,100211,1,8,0:2:0:0:
144,304,101060,1,2,1:2:0:0:
124,226,101343,1,8,0:2:0:0:
206,51,101909,5,0,1:2:0:0:
403,248,102475,1,10,0:2:0:0:
130,175,103041,1,0,1:2:0:0:
207,143,103324,1,2,1:2:0:0:
323,186,103607,1,10,0:2:0:0:
62,333,104173,5,2,1:2:0:0:
17,103,104739,1,10,0:0:0:0:
202,256,105589,1,0,1:0:0:0:
114,235,105872,1,8,0:0:0:0:
270,126,106438,5,0,1:0:0:0:
370,345,107004,1,8,0:0:0:0:
468,241,107570,1,0,1:0:0:0:
386,201,107853,1,0,1:0:0:0:
249,255,108136,1,8,0:0:0:0:
79,101,108702,5,6,1:2:0:0:
254,135,109268,1,8,0:2:0:0:
77,354,110117,1,0,1:2:0:0:
89,274,110400,1,8,0:2:0:0:
192,57,110966,5,2,1:2:0:0:
257,233,111532,1,8,0:2:0:0:
404,113,112098,1,2,1:2:0:0:
365,42,112381,1,2,1:2:0:0:
260,153,112664,1,8,0:2:0:0:
63,227,113230,5,2,1:2:0:0:
361,169,113796,1,10,0:0:0:0:
196,27,114645,1,0,1:0:0:0:
172,120,114928,1,8,0:0:0:0:
289,332,115494,5,0,1:0:0:0:
309,100,116060,1,8,0:0:0:0:
177,247,116532,1,8,0:2:0:0:
191,243,116626,1,4,1:2:0:0:
362,203,116909,1,12,0:0:0:0:
260,131,117192,5,8,1:2:0:0:
221,114,117286,1,8,0:2:0:0:
179,118,117380,1,8,0:2:0:0:
142,135,117475,1,10,1:2:0:0:
103,135,117569,1,8,0:2:0:0:
68,116,117664,1,8,0:2:0:0:
59,75,117758,6,0,L|41:178,1,85.0000032424928,6|0,1:2|0:0,0:0:0:0:
32,266,118041,2,0,P|73:241|140:237,1,85.0000032424928,10|0,0:2|0:0,0:0:0:0:
189,343,118324,2,0,L|86:327,1,85.0000032424928,2|0,1:2|1:2,0:0:0:0:
243,257,118607,1,10,0:2:0:0:
332,368,118796,6,0,P|401:364|431:289,1,127.500004863739,2|0,0:0|0:0,0:0:0:0:
345,210,119173,2,0,L|358:304,1,85.0000032424928,10|0,0:2|0:0,0:0:0:0:
434,228,119456,2,0,L|422:143,1,85.0000032424928,2|0,1:2|1:2,0:0:0:0:
475,76,119739,2,0,P|420:58|370:81,1,85.0000032424928,10|0,0:2|0:0,0:0:0:0:
334,119,120022,1,6,1:2:0:0:
234,66,120305,6,0,L|115:73,1,85.0000032424928,8|0,0:2|0:0,0:0:0:0:
24,149,120589,2,0,L|108:144,1,85.0000032424928,0|0,1:2|1:2,0:0:0:0:
302,242,120872,2,0,L|421:249,1,85.0000032424928,8|0,0:2|0:0,0:0:0:0:
512,325,121154,2,0,L|427:320,1,85.0000032424928,0|0,1:2|0:0,0:0:0:0:
221,311,121437,6,0,P|198:249|200:199,1,85.0000032424928,8|0,0:2|0:0,0:0:0:0:
255,151,121720,1,0,1:2:0:0:
209,41,121909,1,0,1:2:0:0:
185,52,122004,1,10,0:2:0:0:
88,122,122191,1,0,0:0:0:0:
88,122,122286,2,0,L|95:227,1,85.0000032424928,6|0,1:2|0:0,0:0:0:0:
221,311,122570,6,0,P|267:318|320:296,1,85.0000032424928,10|0,0:2|0:0,0:0:0:0:
432,223,122853,2,0,P|386:216|333:238,1,85.0000032424928,2|0,1:2|1:2,0:0:0:0:
396,298,123136,1,10,0:2:0:0:
457,141,123324,1,2,0:0:0:0:
457,141,123419,6,0,P|458:86|434:39,1,85.0000032424928,0|0,1:2|0:0,0:0:0:0:
376,16,123702,1,10,0:2:0:0:
255,151,123984,6,0,P|212:158|160:147,1,85.0000032424928,2|0,1:2|1:2,0:0:0:0:
26,215,124268,2,0,P|67:208|109:215,1,85.0000032424928,10|0,0:2|0:0,0:0:0:0:
250,327,124550,1,2,1:2:0:0:
250,327,124833,5,8,0:2:0:0:
323,224,125022,5,0,0:0:0:0:
330,250,125116,1,0,1:2:0:0:
423,190,125305,1,0,1:2:0:0:
416,216,125399,1,8,0:2:0:0:
505,140,125588,1,0,0:0:0:0:
512,166,125682,1,0,1:2:0:0:
360,109,125872,5,0,1:2:0:0:
353,135,125966,1,8,0:2:0:0:
250,69,126155,1,0,0:0:0:0:
255,94,126249,2,0,L|266:146,2,42.5000016212464,8|8|8,1:2|0:2|0:2,0:0:0:0:
165,175,126532,2,0,L|173:133,2,42.5000016212464,10|8|8,1:2|0:2|0:2,0:0:0:0:
220,255,126815,6,0,P|162:224|69:263,1,170,6|10,1:2|0:2,0:0:0:0:
216,353,127287,1,0,0:0:0:0:
246,345,127381,1,2,1:2:0:0:
365,293,127569,1,0,1:2:0:0:
365,293,127664,2,0,P|387:238|389:183,1,113.333333333333,10|2,0:2|0:0,0:0:0:0:
295,62,127947,6,0,L|182:78,1,113.333333333333,0|0,1:2|0:0,0:0:0:0:
120,17,128230,2,0,P|96:77|120:143,1,113.333333333333,10|0,0:2|0:0,0:0:0:0:
153,208,128513,2,0,P|113:157|43:145,1,113.333333333333,2|0,1:2|1:2,0:0:0:0:
67,229,128796,1,10,0:2:0:0:
258,167,129079,6,0,B|305:148|305:148|372:176|372:176|392:223,1,170,6|10,1:2|0:2,0:0:0:0:
328,307,129551,1,0,0:0:0:0:
328,307,129645,2,0,P|261:295|226:245,1,113.333333333333,2|0,1:2|1:2,0:0:0:0:
138,271,129928,2,0,P|150:204|199:168,1,113.333333333333,10|0,0:2|0:0,0:0:0:0:
356,33,130211,6,0,L|375:157,1,113.333333333333,6|0,1:2|0:0,0:0:0:0:
492,101,130494,2,0,L|473:225,1,113.333333333333,10|0,0:2|0:0,0:0:0:0:
307,224,130777,2,0,L|297:161,2,56.6666666666667,10|8|8,0:3|0:3|0:3,0:0:0:0:
397,317,131060,2,0,L|407:254,2,56.6666666666667,6|4|4,0:3|0:3|0:3,0:0:0:0:
282,354,131343,6,0,B|230:333|191:367|191:367|142:376|88:329,1,170,6|8,1:2|0:0,0:0:0:0:
147,166,131815,1,0,0:0:0:0:
147,166,131909,2,0,P|166:215|165:286,1,113.333333333333,0|0,1:0|1:0,0:0:0:0:
31,190,132192,2,0,P|31:133|51:80,1,113.333333333333,8|0,0:0|0:0,0:0:0:0:
261,199,132475,6,0,P|331:209|404:139,1,170,0|8,1:2|0:0,0:0:0:0:
310,49,132947,1,0,0:0:0:0:
300,74,133041,1,2,1:2:0:0:
165,157,133230,1,2,1:2:0:0:
155,132,133324,1,10,0:2:0:0:
40,58,133512,1,0,0:0:0:0:
40,58,133607,2,0,L|19:172,1,113.333333333333,2|0,1:2|1:0,0:0:0:0:
0,288,133890,6,0,P|49:256|116:254,1,113.333333333333,8|0,0:0|0:0,0:0:0:0:
234,314,134173,2,0,P|267:360|318:385,1,113.333333333333,0|0,1:0|1:0,0:0:0:0:
238,92,134456,2,0,P|241:148|218:199,1,113.333333333333,8|0,0:0|0:0,0:0:0:0:
86,126,134739,6,0,L|70:32,1,56.6666666666667,4|0,1:2|0:0,0:0:0:0:
104,43,135022,6,0,L|85:127,1,85.0000032424928,12|0,0:0|0:0,0:0:0:0:
130,238,135305,5,10,1:2:0:0:
177,257,135399,1,8,0:2:0:0:
226,250,135493,1,8,0:2:0:0:
266,219,135588,1,10,1:2:0:0:
309,198,135682,1,8,0:2:0:0:
358,205,135776,1,8,0:2:0:0:
398,236,135872,6,0,P|424:245|433:109,1,203.999993774414,6|8,1:2|0:2,0:0:0:0:
375,34,136342,1,0,0:0:0:0:
347,39,136437,1,2,1:2:0:0:
245,126,136625,1,0,1:2:0:0:
275,136,136720,1,10,0:2:0:0:
164,45,136908,6,0,B|134:94|134:94|158:258,1,203.999993774414,2|0,1:2|1:2,0:0:0:0:
371,342,137287,2,0,P|310:291|227:299,1,135.99999584961,10|0,0:2|0:0,0:0:0:0:
480,376,137570,2,0,P|472:296|408:243,1,135.99999584961,2|0,1:2|1:2,0:0:0:0:
238,181,137852,2,0,P|306:200|376:175,1,135.99999584961,10|0,0:2|0:0,0:0:0:0:
293,24,138135,6,0,P|278:105|352:69,1,203.999993774414,2|8,1:2|0:2,0:0:0:0:
151,25,138607,1,0,0:0:0:0:
158,51,138701,1,2,1:2:0:0:
238,181,138890,1,0,1:2:0:0:
231,207,138984,1,10,0:2:0:0:
81,355,139173,6,0,P|64:254|59:152,1,203.999993774414,2|0,1:2|1:2,0:0:0:0:
285,305,139550,2,0,B|252:304|224:328|224:328|205:297|165:299,1,135.99999584961,10|0,0:2|0:0,0:0:0:0:
357,232,139833,2,0,B|380:254|383:291|383:291|419:282|446:312,1,135.99999584961,2|0,1:2|1:2,0:0:0:0:
369,67,140117,2,0,B|339:94|348:130|348:130|311:133|289:156,1,135.99999584961,10|0,0:2|0:0,0:0:0:0:
97,137,140399,6,0,P|86:63|151:136,1,203.999993774414,2|8,1:2|0:2,0:0:0:0:
61,251,140871,1,0,0:0:0:0:
36,244,140965,1,2,1:2:0:0:
250,202,141154,1,0,1:2:0:0:
274,194,141248,1,10,0:2:0:0:
159,380,141437,6,0,B|136:326|136:326|166:178,1,203.999993774414,2|0,1:2|1:2,0:0:0:0:
360,311,141815,2,0,B|342:331|309:332|309:332|269:309|225:314,1,135.99999584961,10|0,0:2|0:0,0:0:0:0:
49,92,142098,2,0,B|67:112|100:113|100:113|140:90|176:94,1,135.99999584961,2|0,1:2|1:2,0:0:0:0:
401,203,142381,2,0,P|427:141|419:74,1,135.99999584961,10|0,0:2|0:0,0:0:0:0:
165,303,142663,6,0,B|210:338|268:313|268:313|325:288|369:316,1,203.999993774414,2|8,1:2|0:2,0:0:0:0:
211,140,143135,1,0,0:0:0:0:
211,140,143229,2,0,P|172:200|265:164,1,203.999993774414,2|8,1:2|0:2,0:0:0:0:
271,60,143701,1,0,1:2:0:0:
271,60,143795,2,0,B|221:37|221:37|69:76,1,203.999993774414,2|8,0:0|0:2,0:0:0:0:
28,197,144267,1,0,0:0:0:0:
37,219,144361,1,2,1:2:0:0:
196,309,144550,1,8,0:2:0:0:
205,287,144644,1,0,1:2:0:0:
391,171,144833,1,8,0:2:0:0:
381,193,144928,6,0,P|351:273|336:386,1,135.99999584961,6|0,1:2|0:0,0:0:0:0:
380,1,145210,1,8,0:2:0:0:
256,157,145399,1,0,0:0:0:0:
256,157,145494,2,0,P|172:156|107:87,1,135.99999584961,2|2,1:2|1:2,0:0:0:0:
62,31,145776,1,8,0:2:0:0:
14,275,145965,6,0,B|80:289|144:256|144:256|101:297|103:369,1,203.999993774414,2|0,1:2|1:2,0:0:0:0:
327,352,146343,2,0,P|264:318|190:336,1,135.99999584961,10|0,0:2|0:0,0:0:0:0:
320,150,146626,2,0,P|257:184|183:166,1,135.99999584961,2|0,1:2|1:2,0:0:0:0:
369,250,146909,2,0,P|432:216|506:234,1,135.99999584961,10|0,0:2|0:0,0:0:0:0:
327,352,147192,6,0,P|311:246|333:104,1,203.999993774414,2|8,1:2|0:2,0:0:0:0:
174,26,147663,1,0,0:0:0:0:
174,26,147758,2,0,P|205:96|202:160,1,135.99999584961,2|2,1:2|1:2,0:0:0:0:
154,246,148041,1,8,0:2:0:0:
47,114,148229,6,0,B|79:176|79:176|135:121|219:161,1,203.999993774414,2|0,1:2|1:2,0:0:0:0:
283,231,148607,2,0,L|417:211,1,135.99999584961,10|0,0:2|0:0,0:0:0:0:
507,378,148890,2,0,L|373:358,1,135.99999584961,2|0,1:2|1:2,0:0:0:0:
507,165,149173,2,0,P|515:231|486:292,1,135.99999584961,10|0,0:2|0:0,0:0:0:0:
259,105,149456,6,0,P|326:57|406:75,1,170,2|10,1:2|0:2,0:0:0:0:
360,264,149927,1,0,0:0:0:0:
360,264,150022,2,0,P|352:222|345:142,1,113.333333333333,10|0,0:2|0:0,0:0:0:0:
406,75,150305,1,0,1:2:0:0:
267,217,150494,6,0,P|205:210|166:178,1,113.333333333333,8|0,0:2|0:0,0:0:0:0:
76,114,150776,1,0,1:2:0:0:
76,114,150871,2,0,L|93:229,1,113.333333333333,8|0,0:2|0:0,0:0:0:0:
15,326,151154,2,0,L|-1:213,1,113.333333333333,0|0,1:2|1:2,0:0:0:0:
106,359,151437,1,8,0:2:0:0:
244,279,151720,6,0,P|309:252|356:270,1,113.333333333333,0|0,1:2|0:0,0:0:0:0:
512,332,152003,2,0,P|458:344|409:317,1,113.333333333333,8|0,0:2|0:0,0:0:0:0:
418,236,152286,1,8,0:2:0:0:
301,342,152569,1,0,1:2:0:0:
263,160,152758,1,8,0:2:0:0:
263,160,152853,6,0,L|247:66,1,56.6666666666667,0|0,0:0|1:2,0:0:0:0:
281,77,153136,6,0,L|262:161,1,85.0000032424928,8|0,0:2|0:0,0:0:0:0:
206,252,153418,5,8,1:2:0:0:
253,271,153512,1,8,0:2:0:0:
302,264,153606,1,8,0:2:0:0:
342,233,153701,1,8,1:2:0:0:
385,212,153795,1,8,0:2:0:0:
434,219,153889,1,8,0:2:0:0:
476,246,153985,6,0,P|499:179|406:79,1,203.999993774414,6|8,1:2|0:2,0:0:0:0:
245,28,154455,1,0,0:0:0:0:
217,33,154550,1,2,1:2:0:0:
95,152,154738,1,0,1:2:0:0:
125,162,154833,1,10,0:2:0:0:
293,291,155022,6,0,P|374:275|286:212,1,203.999993774414,2|0,1:2|1:2,0:0:0:0:
166,283,155400,2,0,P|136:294|33:275,1,135.99999584961,10|0,0:2|0:0,0:0:0:0:
173,84,155683,2,0,P|197:104|232:203,1,135.99999584961,2|0,1:2|1:2,0:0:0:0:
107,182,155966,1,10,0:2:0:0:
249,290,156248,6,0,B|300:328|300:328|481:293,1,203.999993774414,2|8,1:2|0:2,0:0:0:0:
487,171,156720,1,0,0:0:0:0:
461,178,156814,1,2,1:2:0:0:
343,112,157003,1,0,1:2:0:0:
369,119,157097,1,10,0:2:0:0:
266,166,157286,6,0,P|245:71|322:13,1,203.999993774414,2|0,1:2|1:2,0:0:0:0:
415,254,157664,2,0,B|349:232|349:232|276:248,1,135.99999584961,10|0,0:2|0:0,0:0:0:0:
54,322,157947,2,0,B|120:344|120:344|193:328,1,135.99999584961,2|0,1:2|1:2,0:0:0:0:
163,129,158230,2,0,P|124:174|129:254,1,135.99999584961,10|0,0:2|0:0,0:0:0:0:
456,120,158512,6,0,B|413:82|352:115|352:115|291:145|232:108,1,203.999993774414,2|8,1:2|0:2,0:0:0:0:
402,196,158984,1,0,0:0:0:0:
395,221,159078,1,2,1:2:0:0:
241,300,159267,1,0,1:2:0:0:
233,276,159361,1,10,0:2:0:0:
372,347,159550,6,0,B|318:324|318:324|170:354,1,203.999993774414,2|0,1:2|1:2,0:0:0:0:
182,134,159928,2,0,P|228:181|225:249,1,135.99999584961,10|0,0:2|0:0,0:0:0:0:
390,64,160211,2,0,P|327:80|269:43,1,135.99999584961,2|0,1:2|1:2,0:0:0:0:
389,262,160494,2,0,P|407:198|468:167,1,135.99999584961,10|0,0:2|0:0,0:0:0:0:
508,361,160776,6,0,B|441:351|441:351|371:375|371:375|251:353,1,203.999993774414,2|8,1:2|0:2,0:0:0:0:
26,293,161248,1,0,0:0:0:0:
26,293,161342,2,0,B|93:283|93:283|163:307|163:307|283:285,1,203.999993774414,2|8,1:2|0:2,0:0:0:0:
368,84,161814,1,0,1:2:0:0:
368,84,161908,2,0,P|280:105|281:233,1,203.999993774414,2|8,0:0|0:2,0:0:0:0:
359,200,162380,1,0,0:0:0:0:
350,178,162474,1,2,1:2:0:0:
191,103,162663,1,8,0:2:0:0:
182,125,162757,1,0,1:2:0:0:
203,347,162946,1,8,0:2:0:0:
213,324,163041,6,0,P|243:244|258:131,1,135.99999584961,6|0,1:2|0:0,0:0:0:0:
86,170,163323,1,8,0:2:0:0:
325,300,163512,1,0,0:0:0:0:
325,300,163607,2,0,P|409:299|474:230,1,135.99999584961,2|2,1:2|1:2,0:0:0:0:
445,140,163889,1,8,0:2:0:0:
338,74,164079,6,0,B|332:126|332:126|369:215,1,135.99999584961,2|0,1:2|0:0,0:0:0:0:
228,294,164361,1,0,1:2:0:0:
228,294,164456,2,0,P|162:284|104:317,1,135.99999584961,10|0,0:2|0:0,0:0:0:0:
0,246,164739,2,0,P|68:266|108:331,1,135.99999584961,2|0,1:2|1:2,0:0:0:0:
134,185,165022,2,0,L|105:317,1,135.99999584961,10|0,0:2|0:0,0:0:0:0:
60,101,165306,6,0,B|182:69|182:69|242:103|217:184,1,203.999993774414,2|8,1:2|0:2,0:0:0:0:
387,22,165776,1,0,0:0:0:0:
387,22,165871,2,0,P|356:92|359:156,1,135.99999584961,2|2,1:2|1:2,0:0:0:0:
443,245,166154,1,8,0:2:0:0:
299,290,166342,6,0,B|230:313|230:313|95:269,1,203.999993774414,2|0,1:2|1:2,0:0:0:0:
61,187,166721,2,0,P|72:262|40:322,1,135.99999584961,10|0,0:2|0:0,0:0:0:0:
106,112,167004,2,0,P|93:177|120:239,1,135.99999584961,2|0,1:2|1:2,0:0:0:0:
202,270,167287,1,10,0:2:0:0:
387,177,167570,6,0,B|337:137|337:137|213:157,1,135.99999584961,2|0,1:2|0:2,0:0:0:0:
268,59,167852,2,0,B|205:71|205:71|140:179,1,135.99999584961,14|0,0:2|0:2,0:0:0:0:
71,125,168136,2,0,L|88:268,1,135.99999584961,12|0,0:2|0:0,0:0:0:0:
114,376,168418,1,0,1:2:0:0:
228,280,168607,6,0,P|290:287|329:319,1,113.333333333333,8|0,0:2|2:0,0:0:0:0:
426,364,168889,1,0,1:2:0:0:
426,364,168985,2,0,L|409:249,1,113.333333333333,8|0,0:2|0:0,0:0:0:0:
303,205,169267,2,0,L|320:92,1,113.333333333333,0|0,1:2|0:0,0:0:0:0:
416,37,169550,1,8,0:2:0:0:
220,131,169833,6,0,P|155:158|108:140,1,113.333333333333,4|0,1:2|0:0,0:0:0:0:
313,21,170117,2,0,P|368:9|417:36,1,113.333333333333,12|0,0:2|0:0,0:0:0:0:
476,105,170399,1,0,1:2:0:0:
360,135,170589,1,8,0:2:0:0:
351,106,170683,1,0,1:2:0:0:
291,196,170871,1,0,0:0:0:0:
291,196,170966,6,0,L|299:281,2,56.6666666666667,8|8|8,0:3|0:3|0:3,0:0:0:0:
411,240,171249,2,0,L|403:325,2,56.6666666666667,4|4|4,0:3|0:3|0:3,0:0:0:0:
484,134,171532,6,0,L|471:61,1,56.6666666666667,10|0,0:0|0:0,0:0:0:0:
406,15,171721,1,10,0:0:0:0:
360,1,171815,1,10,0:0:0:0:
247,172,172004,1,10,0:0:0:0:
293,158,172098,6,0,P|306:101|291:51,1,85.0000032424928,6|0,1:2|0:0,0:0:0:0:
204,13,172381,2,0,L|221:114,1,85.0000032424928,10|0,0:2|0:0,0:0:0:0:
160,156,172664,1,2,1:2:0:0:
71,73,172853,1,2,1:2:0:0:
101,80,172947,1,8,0:2:0:0:
79,271,173136,6,0,P|49:191|79:142,1,127.500004863739,2|2,1:2|1:2,0:0:0:0:
133,207,173513,2,0,P|189:218|244:187,1,85.0000032424928,10|0,0:2|0:0,0:0:0:0:
284,153,173796,1,2,1:2:0:0:
398,227,173985,1,2,1:2:0:0:
393,261,174079,1,10,0:2:0:0:
246,335,174268,1,0,0:0:0:0:
240,302,174362,6,0,L|327:312,1,85.0000032424928,2|0,1:2|0:0,0:0:0:0:
396,357,174645,1,10,0:2:0:0:
167,236,174928,1,2,1:2:0:0:
266,169,175117,1,2,1:2:0:0:
274,202,175211,1,8,0:2:0:0:
496,100,175400,6,0,P|448:77|415:76,1,85.0000032424928,2|0,1:2|0:0,0:0:0:0:
341,90,175683,1,2,1:2:0:0:
317,96,175777,1,10,0:2:0:0:
167,236,176060,1,2,1:2:0:0:
133,101,176249,1,2,1:2:0:0:
123,72,176343,2,0,L|104:185,1,85.0000032424928,10|0,0:2|0:0,0:0:0:0:
58,226,176626,5,0,1:2:0:0:
160,322,176909,2,0,P|216:323|266:290,1,85.0000032424928,10|0,0:2|0:0,0:0:0:0:
281,241,177192,1,2,1:2:0:0:
355,351,177381,1,2,1:2:0:0:
386,339,177475,1,8,0:2:0:0:
508,231,177664,6,0,L|401:219,1,85.0000032424928,2|0,1:2|0:0,0:0:0:0:
387,147,177947,1,2,1:2:0:0:
387,147,178041,2,0,P|397:90|387:43,1,85.0000032424928,10|0,0:2|0:0,0:0:0:0:
294,13,178324,2,0,L|305:106,1,85.0000032424928,2|0,1:2|1:2,0:0:0:0:
214,63,178607,2,0,L|225:156,1,85.0000032424928,10|0,0:2|0:0,0:0:0:0:
54,147,178890,6,0,P|107:123|142:127,1,85.0000032424928,2|0,1:2|0:0,0:0:0:0:
127,293,179173,2,0,P|84:291|48:270,1,85.0000032424928,10|0,0:2|0:0,0:0:0:0:
110,208,179456,1,2,1:2:0:0:
231,329,179645,1,2,1:2:0:0:
266,321,179739,1,8,0:2:0:0:
375,209,179928,6,0,P|438:209|487:258,1,127.500004863739,2|0,1:2|1:2,0:0:0:0:
415,377,180306,2,0,L|405:291,1,85.0000032424928,10|0,0:2|0:0,0:0:0:0:
285,217,180589,1,10,1:2:0:0:
290,174,180683,1,8,0:0:0:0:
295,132,180777,1,8,0:0:0:0:
300,90,180872,2,0,L|377:107,2,42.5000016212464,8|8|8,1:2|0:0|0:0,0:0:0:0:
213,43,181155,5,6,1:2:0:0:
52,173,181438,6,0,L|64:245,1,42.5000016212464,10|0,0:2|0:0,0:0:0:0:
130,282,181626,1,2,0:0:0:0:
130,282,181721,2,0,L|118:354,2,42.5000016212464,2|2|0,1:2|0:0|1:2,0:0:0:0:
177,123,182004,5,8,0:2:0:0:
259,224,182192,6,0,P|317:231|349:217,1,85.0000032424928,2|0,1:2|0:0,0:0:0:0:
405,167,182475,1,0,1:2:0:0:
413,133,182570,1,10,0:2:0:0:
449,0,182853,1,2,1:2:0:0:
289,114,183041,1,2,1:2:0:0:
295,145,183136,1,10,0:2:0:0:
164,80,183324,1,2,0:0:0:0:
176,39,183419,5,0,1:2:0:0:
50,172,183702,1,10,0:2:0:0:
209,241,183890,1,2,0:0:0:0:
249,232,183985,1,2,1:2:0:0:
96,307,184173,1,2,1:2:0:0:
57,295,184268,1,8,0:2:0:0:
220,380,184456,6,0,L|323:369,1,85.0000032424928,2|0,1:2|0:0,0:0:0:0:
363,311,184739,1,0,1:2:0:0:
373,282,184834,1,10,0:2:0:0:
359,126,185117,5,2,1:2:0:0:
200,221,185306,1,2,1:2:0:0:
210,263,185400,1,10,0:2:0:0:
61,217,185589,1,2,0:0:0:0:
73,180,185683,5,2,1:2:0:0:
273,43,185966,1,14,0:2:0:0:
46,52,186249,1,14,0:2:0:0:
162,160,186438,1,2,0:0:0:0:
198,145,186532,1,0,1:2:0:0:
422,66,186721,5,10,0:2:0:0:
466,278,187004,1,2,1:2:0:0:
474,308,187097,1,8,0:2:0:0:
315,226,187287,1,2,0:0:0:0:
316,191,187381,1,2,1:2:0:0:
132,262,187570,1,2,1:2:0:0:
137,297,187664,1,10,0:2:0:0:
0,195,187947,5,2,1:2:0:0:
241,116,188230,1,10,0:2:0:0:
67,31,188513,1,14,0:2:0:0:
109,172,188702,1,2,0:0:0:0:
119,205,188796,1,0,1:2:0:0:
221,330,188985,1,2,0:0:0:0:
221,330,189079,6,0,L|278:319,2,42.5000016212464,8|8|10,1:2|0:2|0:2,0:0:0:0:
315,254,189362,2,0,L|356:262,2,42.5000016212464,8|8|10,0:2|0:2|0:2,0:0:0:0:
439,226,189645,1,10,0:2:0:0:
457,187,189739,1,0,0:0:0:0:
463,145,189833,1,8,0:3:0:0:
456,104,189928,1,10,0:3:0:0:
437,66,190022,1,0,0:0:0:0:
407,36,190116,1,8,0:3:0:0:
324,14,190211,5,4,1:2:0:0:
116,258,192475,5,0,0:0:0:0:
123,172,192899,1,0,0:0:0:0:
91,98,193324,1,0,0:0:0:0:
198,218,193607,5,0,1:2:0:0:
271,111,193890,1,8,0:0:0:0:
418,62,194173,1,10,0:0:0:0:
402,177,194362,1,8,0:0:0:0:
411,197,194456,1,8,0:0:0:0:
297,243,194645,1,10,0:0:0:0:
290,266,194739,6,0,P|230:250|177:272,1,113.333333333333,6|0,1:2|0:0,0:0:0:0:
94,314,195022,2,0,L|117:195,1,113.333333333333,10|0,0:0|0:0,0:0:0:0:
52,138,195306,1,2,1:2:0:0:
164,65,195494,1,2,1:2:0:0:
191,72,195589,1,8,0:0:0:0:
261,158,195777,6,0,P|327:160|387:73,1,170,2|0,0:0|0:0,0:0:0:0:
433,16,196155,2,0,P|433:81|461:127,1,113.333333333333,10|0,0:0|0:0,0:0:0:0:
369,248,196438,2,0,P|414:293|467:306,1,113.333333333333,2|2,1:2|1:2,0:0:0:0:
199,279,196721,2,0,P|199:344|227:390,1,113.333333333333,8|2,0:0|0:0,0:0:0:0:
271,179,197004,5,4,1:2:0:0:
84,226,197287,1,8,0:0:0:0:
139,86,197570,1,0,1:0:0:0:
206,253,197758,1,0,1:0:0:0:
199,279,197853,1,8,0:0:0:0:
373,78,198136,5,0,1:0:0:0:
178,172,198419,1,8,0:0:0:0:
320,253,198702,1,0,1:0:0:0:
261,91,198890,1,0,1:0:0:0:
251,70,198985,1,10,0:0:0:0:
30,166,199268,6,0,P|105:186|161:162,1,113.333333333333,6|0,1:2|0:0,0:0:0:0:
178,24,199551,2,0,P|145:69|94:92,1,113.333333333333,10|0,0:0|0:0,0:0:0:0:
20,42,199834,1,2,1:2:0:0:
210,137,200022,1,0,1:0:0:0:
235,134,200117,2,0,P|298:115|355:113,1,113.333333333333,10|2,0:0|0:0,0:0:0:0:
413,142,200400,6,0,L|401:261,1,113.333333333333,0|0,1:0|0:0,0:0:0:0:
315,211,200683,2,0,L|303:330,1,113.333333333333,10|0,0:2|0:0,0:0:0:0:
194,377,200966,2,0,L|182:258,1,113.333333333333,2|0,1:2|1:0,0:0:0:0:
96,308,201249,2,0,L|84:189,1,113.333333333333,10|0,0:0|0:0,0:0:0:0:
39,111,201532,6,0,P|89:147|153:150,1,113.333333333333,2|0,1:0|0:0,0:0:0:0:
182,264,201815,2,0,P|242:254|290:210,1,113.333333333333,10|0,0:0|0:0,0:0:0:0:
390,60,202098,6,0,P|329:69|281:113,1,113.333333333333,2|0,1:2|1:0,0:0:0:0:
180,52,202381,2,0,P|143:101|141:165,1,113.333333333333,10|0,0:0|0:0,0:0:0:0:
358,270,202664,6,0,L|371:146,1,113.333333333333,2|0,1:2|0:0,0:0:0:0:
182,264,202947,2,0,L|193:376,1,113.333333333333,10|0,0:2|0:0,0:0:0:0:
275,307,203230,5,2,1:2:0:0:
216,182,203419,1,8,0:0:0:0:
216,182,203513,2,0,B|178:166|178:166|103:193,1,113.333333333333,10|8,0:0|0:0,0:0:0:0:
11,164,203796,6,0,B|49:180|49:180|123:152,1,113.333333333333,6|0,1:2|0:0,0:0:0:0:
132,65,204079,1,8,0:0:0:0:
154,265,204362,2,0,B|211:307|280:267|280:267|309:284|324:316,1,170,0|8,1:0|0:0,0:0:0:0:
389,365,204834,1,0,0:0:0:0:
389,365,204928,6,0,P|383:291|389:164,1,170,0|8,1:0|0:0,0:0:0:0:
474,95,205400,1,0,0:0:0:0:
474,95,205494,2,0,L|458:187,2,56.6666666666667,8|8|8,0:3|0:3|0:3,0:0:0:0:
389,43,205777,2,0,L|373:135,2,56.6666666666667,4|4|4,0:3|0:3|0:3,0:0:0:0:
242,139,206060,6,0,P|153:75|261:68,1,283.333333333333,6|0,1:2|0:0,0:0:0:0:
265,223,206626,2,0,P|326:313|337:205,1,283.333333333333,6|0,1:2|0:0,0:0:0:0:
156,239,207192,2,0,B|113:235|85:258|85:258|69:287|40:293|40:293|59:243|26:203|26:203|4:176|19:133,1,283.333333333333,6|0,1:2|0:0,0:0:0:0:
53,71,207758,2,0,P|163:30|193:171,1,283.333333333333,10|0,0:0|0:0,0:0:0:0:
130,111,208324,5,4,1:2:0:0:
82,309,224173,6,0,L|171:297,1,56.6666666666667,0|0,1:2|0:0,0:0:0:0:
207,340,224456,1,8,0:2:0:0:
315,151,224739,1,8,0:2:0:0:
332,97,224833,1,8,0:2:0:0:
320,42,224927,1,8,0:2:0:0:
283,0,225022,2,0,P|261:1|239:7,1,33.9999989624024,8|8,0:2|0:2,0:0:0:0:
171,38,225306,6,0,P|212:43|251:71,1,84.9999974060059,2|0,1:2|1:2,0:0:0:0:
332,97,225589,2,0,P|291:102|234:146,1,113.333333333333,10|0,0:2|1:2,0:0:0:0:
144,156,225872,2,0,P|194:162|264:216,1,135.99999584961,10|0,0:2|1:2,0:0:0:0:
415,257,226155,2,0,P|344:255|259:342,1,170.000006484986,10|8,0:2|0:2,0:0:0:0:
190,384,226438,6,0,B|169:342|169:342|181:225,1,147.333326588949,6|0,1:2|0:0,0:0:0:0:
144,156,226721,1,8,0:2:0:0:
304,92,226909,1,0,0:0:0:0:
332,97,227004,1,2,1:2:0:0:
143,33,227192,1,0,1:2:0:0:
113,43,227287,1,10,0:2:0:0:
34,191,227475,6,0,B|100:203|141:157|141:157|106:201|114:258,1,220.999989883423,2|0,1:2|1:2,0:0:0:0:
264,262,227853,2,0,P|214:211|197:258,1,147.333326588949,10|0,0:2|0:0,0:0:0:0:
342,384,228136,2,0,P|379:338|315:316,1,147.333326588949,2|0,1:2|0:0,0:0:0:0:
173,365,228419,2,0,P|105:384|36:347,1,147.333326588949,10|0,0:2|0:0,0:0:0:0:
95,170,228702,6,0,B|134:130|134:130|139:224|108:320,1,220.999989883423,2|8,1:2|0:2,0:0:0:0:
7,174,229174,1,0,0:0:0:0:
0,148,229268,1,2,1:2:0:0:
103,31,229457,1,0,1:2:0:0:
96,57,229551,1,10,0:2:0:0:
226,275,229739,6,0,P|213:200|206:40,1,220.999989883423,2|0,1:2|0:0,0:0:0:0:
371,239,230117,2,0,P|369:298|353:385,1,147.333326588949,10|0,0:2|0:0,0:0:0:0:
139,313,230400,2,0,P|124:240|121:167,1,147.333326588949,2|0,1:2|1:2,0:0:0:0:
435,99,230683,2,0,B|388:136|388:136|278:114,1,147.333326588949,10|0,0:2|0:0,0:0:0:0:
39,38,230966,6,0,B|104:8|149:38|149:38|194:65|251:38,1,220.999989883423,2|8,1:2|0:2,0:0:0:0:
97,125,231438,1,0,0:0:0:0:
104,150,231532,1,2,1:2:0:0:
295,253,231721,1,0,1:2:0:0:
303,229,231815,1,10,0:2:0:0:
484,102,232004,6,0,P|415:153|308:52,1,220.999989883423,2|0,1:2|1:2,0:0:0:0:
201,0,232381,2,0,P|225:76|208:140,1,147.333326588949,10|0,0:2|0:0,0:0:0:0:
303,229,232664,2,0,P|266:299|208:332,1,147.333326588949,2|0,1:2|1:2,0:0:0:0:
50,236,232947,2,0,B|108:227|108:227|141:245|141:245|215:236,1,147.333326588949,10|0,0:2|0:0,0:0:0:0:
358,107,233230,6,0,B|328:77|285:88|285:88|304:243,1,220.999989883423,2|8,1:2|0:2,0:0:0:0:
444,339,233702,1,0,0:0:0:0:
444,339,233796,2,0,P|483:279|388:319,1,220.999989883423,2|8,1:2|0:2,0:0:0:0:
230,369,234268,1,0,1:2:0:0:
230,369,234362,2,0,B|145:359|111:292|111:292|146:305|191:289,1,220.999989883423,2|8,0:0|0:0,0:0:0:0:
303,251,234834,1,0,0:0:0:0:
312,229,234928,1,2,1:2:0:0:
150,197,235117,1,8,0:2:0:0:
159,219,235211,1,0,1:2:0:0:
381,169,235400,1,8,0:2:0:0:
391,147,235494,6,0,P|421:67|436:-46,1,147.333326588949,6|0,1:2|0:0,0:0:0:0:
225,147,235777,1,8,0:2:0:0:
388,281,235966,1,0,0:0:0:0:
388,281,236060,2,0,P|472:280|537:211,1,147.333326588949,2|0,1:2|0:0,0:0:0:0:
312,114,236343,1,8,0:2:0:0:
271,260,236532,6,0,B|205:274|141:241|141:241|184:282|182:354,1,220.999989883423,2|0,1:2|0:0,0:0:0:0:
59,168,236909,2,0,P|122:134|196:152,1,147.333326588949,10|0,0:2|0:0,0:0:0:0:
209,18,237192,2,0,P|277:38|317:103,1,147.333326588949,2|0,1:2|0:0,0:0:0:0:
420,232,237475,2,0,L|434:79,1,147.333326588949,10|0,0:2|0:0,0:0:0:0:
255,304,237758,6,0,B|206:314|170:288|170:288|141:292|112:314|112:314|89:295|89:295|59:303|25:285,1,220.999989883423,2|8,1:2|0:2,0:0:0:0:
99,135,238230,1,0,0:0:0:0:
99,135,238325,2,0,B|127:109|127:109|140:161|123:236,1,147.333326588949,2|2,1:2|1:2,0:0:0:0:
11,98,238608,1,8,0:2:0:0:
220,163,238796,6,0,B|292:141|292:141|376:188|376:188|448:173,1,220.999989883423,2|0,1:2|0:0,0:0:0:0:
176,67,239174,2,0,P|123:123|139:227,1,147.333326588949,10|0,0:2|0:0,0:0:0:0:
298,273,239456,2,0,P|276:199|177:160,1,147.333326588949,2|0,1:2|1:2,0:0:0:0:
236,360,239739,2,0,P|310:377|393:312,1,147.333326588949,10|0,0:2|0:0,0:0:0:0:
430,243,240022,5,2,1:2:0:0:
187,268,240306,1,10,0:2:0:0:
381,101,240589,1,10,0:2:0:0:
182,33,240872,1,0,1:2:0:0:
232,141,241060,1,8,0:2:0:0:
47,242,241343,1,0,1:2:0:0:
58,203,241438,1,8,0:2:0:0:
277,282,241721,1,0,1:2:0:0:
150,359,241909,1,0,1:2:0:0:
141,326,242004,1,8,0:2:0:0:
142,104,242287,5,0,1:2:0:0:
400,198,242570,1,8,0:2:0:0:
169,217,242853,1,8,0:2:0:0:
359,42,243136,1,0,1:2:0:0:
318,226,243324,1,8,0:2:0:0:
318,226,243418,6,0,L|325:299,1,62.3333352355958,0|0,0:0|1:2,0:0:0:0:
293,371,243701,6,0,L|318:220,1,147.333326588949,8|0,0:2|0:0,0:0:0:0:
382,146,243985,5,8,1:2:0:0:
335,127,244079,1,8,0:2:0:0:
286,134,244173,1,8,0:2:0:0:
246,165,244268,1,8,1:2:0:0:
203,186,244362,1,8,0:2:0:0:
154,179,244456,1,8,0:2:0:0:
114,148,244551,6,0,P|88:139|79:275,1,220.999989883423,6|8,1:2|0:0,0:0:0:0:
191,96,245022,1,0,0:0:0:0:
186,68,245117,1,2,1:2:0:0:
332,214,245305,1,0,1:2:0:0:
322,244,245400,1,10,0:2:0:0:
80,344,245588,6,0,B|129:314|129:314|293:338,1,220.999989883423,2|0,1:2|1:2,0:0:0:0:
373,118,245965,2,0,P|299:125|247:175,1,147.333326588949,10|0,0:2|0:0,0:0:0:0:
135,95,246249,2,0,P|177:152|248:173,1,147.333326588949,2|0,1:2|0:0,0:0:0:0:
236,311,246532,2,0,P|264:243|246:172,1,147.333326588949,10|0,0:2|0:0,0:0:0:0:
46,249,246815,6,0,P|29:340|112:300,1,220.999989883423,2|8,1:2|0:0,0:0:0:0:
144,105,247287,1,0,0:0:0:0:
137,79,247381,1,2,1:2:0:0:
303,190,247570,1,0,1:2:0:0:
296,216,247664,1,10,0:2:0:0:
446,40,247853,6,0,P|467:132|450:282,1,220.999989883423,2|0,1:2|1:2,0:0:0:0:
259,104,248230,2,0,B|294:105|325:79|325:79|345:113|389:110,1,147.333326588949,10|0,0:2|0:0,0:0:0:0:
196,223,248513,2,0,B|171:196|131:194|131:194|141:155|108:125,1,147.333326588949,2|0,1:2|0:0,0:0:0:0:
254,341,248796,2,0,B|297:340|327:366|327:366|363:332|405:339,1,147.333326588949,10|0,0:2|0:0,0:0:0:0:
512,205,249079,6,0,B|465:246|465:246|288:215,1,220.999989883423,2|8,1:2|0:2,0:0:0:0:
110,151,249551,1,0,0:0:0:0:
135,144,249645,1,2,1:2:0:0:
65,317,249834,1,0,1:2:0:0:
41,309,249928,1,10,0:2:0:0:
214,66,250117,6,0,B|237:120|237:120|205:284,1,220.999989883423,2|0,1:2|0:0,0:0:0:0:
0,245,250494,2,0,B|18:221|51:220|51:220|91:243|135:238,1,147.333326588949,10|0,0:2|0:0,0:0:0:0:
462,197,250777,2,0,B|435:169|402:168|402:168|362:191|326:187,1,147.333326588949,2|0,1:2|0:0,0:0:0:0:
101,7,251060,2,0,P|89:87|116:150,1,147.333326588949,10|0,0:2|0:0,0:0:0:0:
483,85,251343,6,0,B|434:47|373:74|373:74|312:101|265:71,1,220.999989883423,2|8,1:2|0:2,0:0:0:0:
420,166,251815,1,0,0:0:0:0:
428,194,251909,1,2,1:2:0:0:
288,312,252098,1,0,1:2:0:0:
292,280,252192,1,8,0:2:0:0:
213,140,252381,1,0,1:2:0:0:
213,140,252475,2,0,B|163:117|163:117|42:147,1,147.333326588949,2|0,0:0|1:2,0:0:0:0:
9,254,252758,2,0,L|157:213,1,147.333326588949,8|0,0:2|0:0,0:0:0:0:
303,124,253041,1,2,1:2:0:0:
414,247,253230,1,8,0:2:0:0:
405,269,253324,1,0,1:2:0:0:
202,377,253513,1,8,0:2:0:0:
184,352,253607,6,0,P|154:272|149:226,1,113.333333333333,6|0,1:2|0:0,0:0:0:0:
175,167,253890,1,8,0:2:0:0:
289,276,254079,1,0,0:0:0:0:
289,276,254173,2,0,P|373:275|416:235,1,113.333333333333,2|0,1:2|0:0,0:0:0:0:
452,190,254456,1,8,0:2:0:0:
311,80,254645,6,0,L|330:217,1,113.333333333333,2|0,1:2|0:0,0:0:0:0:
222,146,254928,1,0,1:2:0:0:
213,113,255022,2,0,P|143:102|89:138,1,113.333333333333,10|0,0:2|0:0,0:0:0:0:
59,236,255306,2,0,P|127:225|181:264,1,113.333333333333,2|0,1:2|0:0,0:0:0:0:
289,342,255589,2,0,P|340:355|410:310,1,113.333333333333,10|0,0:2|0:0,0:0:0:0:
340,176,255872,6,0,B|300:145|300:145|331:293,1,170,2|8,1:2|0:2,0:0:0:0:
495,363,256343,1,0,0:0:0:0:
495,363,256437,2,0,L|508:227,1,113.333333333333,2|2,1:2|1:2,0:0:0:0:
475,145,256721,1,8,0:2:0:0:
318,259,256909,1,2,1:2:0:0:
318,259,257004,6,0,B|296:287|296:287|178:274,1,147.333326588949,2|0,0:0|1:0,0:0:0:0:
93,179,257287,2,0,L|243:162,1,147.333326588949,10|0,0:0|0:0,0:0:0:0:
330,73,257570,2,0,L|208:52,2,73.6666632944744,10|10|10,0:2|0:2|0:2,0:2:0:0:
410,142,257852,2,0,L|482:129,2,73.6666632944744,10|10|10,0:2|0:2|0:2,0:2:0:0:
287,273,258135,6,0,P|294:214|356:299,1,220.999989883423,6|8,1:2|0:2,0:0:0:0:
326,363,258607,1,0,0:0:0:0:
326,363,258702,2,0,P|284:371|194:319,1,147.333326588949,2|2,1:2|1:2,0:0:0:0:
144,235,258985,1,8,0:2:0:0:
174,110,259173,6,0,P|272:108|311:145,1,147.333326588949,2|0,1:2|0:0,0:0:0:0:
400,223,259456,1,0,1:2:0:0:
400,223,259551,2,0,P|337:225|267:268,1,147.333326588949,10|0,0:2|0:0,0:0:0:0:
221,359,259834,2,0,P|158:357|103:294,1,147.333326588949,2|0,1:2|1:2,0:0:0:0:
25,85,260117,2,0,P|96:154|97:207,1,147.333326588949,10|0,0:2|0:0,0:0:0:0:
19,319,260400,6,0,L|7:165,1,147.333326588949,2|0,1:2|0:0,0:0:0:0:
120,311,260683,1,8,0:2:0:0:
237,154,260966,1,2,1:2:0:0:
339,250,261155,1,2,1:2:0:0:
364,243,261249,1,8,0:2:0:0:
465,36,261438,6,0,P|380:119|426:192,1,220.999989883423,2|0,1:2|1:2,0:0:0:0:
507,262,261815,2,0,P|415:239|361:243,1,147.333326588949,10|0,0:2|0:0,0:0:0:0:
337,337,262098,2,0,P|251:294|197:284,1,147.333326588949,2|0,1:2|1:2,0:0:0:0:
125,338,262381,2,0,P|74:295|-4:258,1,147.333326588949,10|0,0:2|0:0,0:0:0:0:
145,70,262664,6,0,L|119:228,1,147.333326588949,2|0,1:2|0:0,0:0:0:0:
65,55,262947,1,8,0:2:0:0:
222,158,263230,1,2,1:2:0:0:
302,23,263419,1,2,1:2:0:0:
271,32,263513,1,8,0:2:0:0:
353,273,263702,6,0,P|375:201|299:109,1,203.999993774414,2|0,1:2|1:2,0:0:0:0:
185,283,264079,2,0,P|239:276|279:208,1,135.99999584961,10|0,0:2|0:0,0:0:0:0:
74,235,264362,2,0,P|133:288|190:280,1,135.99999584961,2|0,1:2|1:2,0:0:0:0:
35,121,264645,2,0,P|35:202|81:237,1,135.99999584961,10|0,0:2|0:0,0:0:0:0:
185,83,264928,6,0,B|155:62|137:44|137:44|151:96|152:200,1,203.999993774414,2|8,1:2|0:2,0:0:0:0:
287,209,265494,2,0,B|317:188|334:170|334:170|321:222|318:325,1,203.999993774414,10|0,0:2|1:2,0:0:0:0:
124,284,265966,1,8,0:2:0:0:
124,284,266060,2,0,B|94:263|74:242|74:242|90:297|89:386,1,203.999993774414,2|12,0:0|0:2,0:0:0:0:
7,189,266626,1,14,0:2:0:0:
173,223,266815,1,8,0:2:0:0:
202,217,266909,1,0,1:2:0:0:
292,120,267098,1,8,0:2:0:0:
292,120,267192,6,0,L|156:97,1,113.333333333333,4|0,1:2|0:0,0:0:0:0:
258,25,267475,2,0,L|369:46,1,113.333333333333,10|2,0:2|0:2,0:0:0:0:
439,106,267758,1,2,1:2:0:0:
380,219,267947,1,2,1:2:0:0:
373,190,268041,1,8,0:2:0:0:
244,268,268230,6,0,P|239:324|226:379,1,113.333333333333,2|0,1:2|0:0,0:0:0:0:
109,362,268513,1,0,1:0:0:0:
109,362,268607,2,0,P|115:305|128:250,1,113.333333333333,10|0,0:0|0:0,0:0:0:0:
182,177,268890,2,0,P|132:200|81:179,1,113.333333333333,2|2,1:2|1:2,0:0:0:0:
81,75,269173,2,0,P|130:51|181:72,1,113.333333333333,10|2,0:0|0:0,0:0:0:0:
291,170,269456,6,0,L|412:161,1,113.333333333333,2|0,1:2|0:0,0:0:0:0:
349,260,269739,2,0,L|470:251,1,113.333333333333,10|0,0:0|0:0,0:0:0:0:
230,80,270022,1,10,0:0:0:0:
193,122,270116,1,8,0:0:0:0:
182,177,270210,1,10,0:0:0:0:
202,233,270306,1,8,0:0:0:0:
239,276,270400,1,10,0:0:0:0:
250,331,270494,1,8,0:0:0:0:
232,384,270589,6,0,L|106:365,1,113.333333333333,10|10,0:3|0:3,0:0:0:0:
49,340,270872,2,0,L|169:318,1,113.333333333333,8|0,0:3|0:0,0:0:0:0:
239,276,271155,1,8,0:3:0:0:
77,214,271343,1,8,0:3:0:0:
85,243,271438,1,10,0:3:0:0:
261,127,271626,1,2,0:0:0:0:
261,127,271721,6,0,P|213:101|153:99,1,113.333333333333,6|0,1:2|0:0,0:0:0:0:
269,28,272004,2,0,P|318:1|374:0,1,113.333333333333,10|0,0:2|0:0,0:0:0:0:
453,44,272287,1,2,1:2:0:0:
368,165,272475,1,2,1:2:0:0:
374,191,272570,1,8,0:2:0:0:
501,311,272758,6,0,P|431:295|366:314,1,113.333333333333,2|0,1:2|0:0,0:0:0:0:
297,348,273041,1,2,1:2:0:0:
297,348,273136,2,0,P|241:355|187:339,1,113.333333333333,8|2,0:2|0:0,0:0:0:0:
108,288,273419,1,2,1:2:0:0:
219,221,273607,1,0,1:2:0:0:
218,197,273702,1,10,0:2:0:0:
84,52,273890,1,0,0:0:0:0:
84,52,273985,6,0,L|73:172,1,113.333333333333,2|0,1:2|0:0,0:0:0:0:
37,238,274268,2,0,L|26:125,1,113.333333333333,10|0,0:2|0:0,0:0:0:0:
162,121,274551,1,2,1:2:0:0:
269,216,274739,1,2,1:2:0:0:
299,211,274834,1,8,0:2:0:0:
358,18,275022,6,0,P|342:88|361:153,1,113.333333333333,2|0,1:2|0:0,0:0:0:0:
430,179,275305,1,2,1:2:0:0:
430,179,275400,2,0,P|437:234|421:288,1,113.333333333333,8|2,0:2|0:0,0:0:0:0:
351,343,275683,1,2,1:2:0:0:
240,277,275871,1,0,1:2:0:0:
202,284,275966,1,10,0:2:0:0:
68,369,276154,1,0,0:0:0:0:
68,369,276249,6,0,P|42:321|40:261,1,113.333333333333,2|0,1:2|0:0,0:0:0:0:
195,165,276532,2,0,P|192:108|166:59,1,113.333333333333,10|0,0:0|0:0,0:0:0:0:
103,133,276815,1,2,1:2:0:0:
276,205,277003,1,2,1:2:0:0:
302,199,277098,1,8,0:0:0:0:
480,87,277287,6,0,P|410:103|345:84,1,113.333333333333,2|0,1:2|0:0,0:0:0:0:
276,50,277570,1,2,1:2:0:0:
276,50,277663,2,0,P|220:42|166:58,1,113.333333333333,8|0,0:2|0:2,0:0:0:0:
87,110,277946,1,0,1:2:0:0:
200,219,278136,1,0,1:0:0:0:
199,243,278229,1,8,0:0:0:0:
108,344,278419,1,0,0:0:0:0:
116,371,278513,6,0,L|231:359,1,113.333333333333,6|0,1:2|0:0,0:0:0:0:
492,285,278796,2,0,L|377:273,1,113.333333333333,14|0,0:2|0:0,0:0:0:0:
296,227,279079,1,2,1:2:0:0:
425,120,279268,1,2,1:2:0:0:
411,88,279362,1,8,0:2:0:0:
168,62,279551,5,6,1:2:0:0:
256,192,279645,12,0,287004,0:0:0:0:
