osu file format v14

[General]
AudioFilename: audio.mp3
AudioLeadIn: 0
PreviewTime: 100638
Countdown: 0
SampleSet: Normal
StackLeniency: 0.7
Mode: 1
LetterboxInBreaks: 0
WidescreenStoryboard: 1

[Editor]
Bookmarks: 20666,47708,74751,88272,101793,125455,138976,166018,193061,216723,243765
DistanceSpacing: 1
BeatDivisor: 4
GridSize: 4
TimelineZoom: 1.500003

[Metadata]
Title:Kyouran Hey Kids!!
TitleUnicode:狂乱 Hey Kids!!
Artist:THE ORAL CIGARETTES
ArtistUnicode:THE ORAL CIGARETTES
Creator:radar
Version:reealy_'s Futsuu
Source:ノラガミ ARAGOTO
Tags:idealism dakedekaane zhuosh realy0_ reealy_ anime japanese jrock noragami aragoto yato hiyori second 2nd op opening full version
BeatmapID:2480780
BeatmapSetID:1187506

[Difficulty]
HPDrainRate:7
CircleSize:5
OverallDifficulty:3
ApproachRate:5
SliderMultiplier:1.6
SliderTickRate:1

[Events]
//Background and Video events
0,0,"33333333.jpg",0,40
//Break Periods
//Storyboard Layer 0 (Background)
//Storyboard Layer 1 (Fail)
//Storyboard Layer 2 (Pass)
//Storyboard Layer 3 (Foreground)
//Storyboard Layer 4 (Overlay)
//Storyboard Sound Samples

[TimingPoints]
392,422.535211267606,4,1,0,65,1,0
47715,-100,4,1,0,75,0,1
71377,-100,4,1,0,65,0,0
101800,-100,4,1,0,75,0,1
125462,-100,4,1,0,65,0,0
193068,-100,4,1,0,75,0,1
226870,-100,4,1,0,65,0,0

[HitObjects]
185,153,392,5,4,0:0:0:0:
230,109,1237,1,8,0:0:0:0:
256,92,1659,1,0,0:0:0:0:
230,109,2082,1,0,0:0:0:0:
230,109,2927,1,8,0:0:0:0:
254,87,3349,1,8,0:0:0:0:
230,109,3772,1,0,0:0:0:0:
250,79,4617,1,8,0:0:0:0:
250,79,5039,1,0,0:0:0:0:
250,79,5462,1,8,0:0:0:0:
337,95,6730,1,8,0:0:0:0:
297,144,7152,1,4,0:0:0:0:
262,131,7575,1,8,0:0:0:0:
262,131,7786,1,0,0:0:0:0:
297,143,8208,1,0,0:0:0:0:
297,143,8420,1,8,0:0:0:0:
230,96,8842,1,0,0:0:0:0:
281,152,9053,1,0,0:0:0:0:
281,152,9265,1,8,0:0:0:0:
281,152,9476,1,0,0:0:0:0:
281,152,9899,1,0,0:0:0:0:
281,152,10110,1,8,0:0:0:0:
281,152,10321,1,8,0:0:0:0:
281,152,10532,1,0,0:0:0:0:
281,152,10955,1,8,0:0:0:0:
281,152,11166,1,0,0:0:0:0:
281,152,11589,1,0,0:0:0:0:
281,152,11800,1,8,0:0:0:0:
281,152,12222,1,0,0:0:0:0:
281,152,13068,1,8,0:0:0:0:
231,33,13279,1,8,0:0:0:0:
281,152,13490,1,0,0:0:0:0:
281,152,13701,1,0,0:0:0:0:
281,152,13913,1,12,0:0:0:0:
262,131,14335,1,8,0:0:0:0:
262,131,14546,1,0,0:0:0:0:
297,143,14969,1,0,0:0:0:0:
297,143,15180,1,8,0:0:0:0:
230,96,15603,1,0,0:0:0:0:
281,152,15814,1,0,0:0:0:0:
281,152,16025,1,8,0:0:0:0:
281,152,16237,1,0,0:0:0:0:
281,152,16659,1,0,0:0:0:0:
281,152,16870,1,8,0:0:0:0:
281,152,17082,1,0,0:0:0:0:
281,152,17293,1,8,0:0:0:0:
281,152,17715,1,8,0:0:0:0:
281,152,17927,1,0,0:0:0:0:
281,152,18349,1,0,0:0:0:0:
281,152,18561,1,8,0:0:0:0:
281,152,18983,1,0,0:0:0:0:
281,152,19828,1,8,0:0:0:0:
231,33,20039,1,8,0:0:0:0:
281,152,20251,1,0,0:0:0:0:
281,152,20462,1,8,0:0:0:0:
281,152,20673,1,4,0:0:0:0:
245,126,21307,1,0,0:0:0:0:
249,129,21730,1,0,0:0:0:0:
249,129,21941,1,8,0:0:0:0:
245,126,22363,1,0,0:0:0:0:
245,120,22997,1,8,0:0:0:0:
245,120,23420,1,0,0:0:0:0:
259,124,23631,1,8,0:0:0:0:
259,124,24053,1,0,0:0:0:0:
251,130,24476,1,8,0:0:0:0:
249,126,24687,1,0,0:0:0:0:
251,130,25321,1,8,0:0:0:0:
251,130,25744,1,0,0:0:0:0:
251,130,26166,1,8,0:0:0:0:
251,130,26377,1,0,0:0:0:0:
251,130,26589,1,0,0:0:0:0:
251,130,27434,1,12,0:0:0:0:
251,130,27856,1,8,0:0:0:0:
249,126,28068,1,0,0:0:0:0:
251,130,28701,1,8,0:0:0:0:
251,130,29124,1,0,0:0:0:0:
251,130,29546,1,8,0:0:0:0:
245,126,29758,1,0,0:0:0:0:
249,129,30180,1,0,0:0:0:0:
249,129,30392,1,8,0:0:0:0:
245,126,30814,1,0,0:0:0:0:
245,120,31448,1,8,0:0:0:0:
245,120,31870,1,0,0:0:0:0:
259,124,32082,1,8,0:0:0:0:
259,124,32504,1,4,0:0:0:0:
243,126,33349,1,8,0:0:0:0:
243,126,33561,1,8,0:0:0:0:
243,126,33772,1,8,0:0:0:0:
246,124,34194,1,4,0:0:0:0:
262,131,34617,1,8,0:0:0:0:
262,131,34828,1,0,0:0:0:0:
297,143,35251,1,0,0:0:0:0:
297,143,35462,1,8,0:0:0:0:
230,96,35884,1,0,0:0:0:0:
281,152,36096,1,0,0:0:0:0:
281,152,36307,1,8,0:0:0:0:
281,152,36518,1,0,0:0:0:0:
281,152,36730,1,8,0:0:0:0:
281,152,37152,1,8,0:0:0:0:
281,152,37575,1,0,0:0:0:0:
281,152,37997,1,8,0:0:0:0:
281,152,38208,1,0,0:0:0:0:
281,152,38631,1,0,0:0:0:0:
281,152,38842,1,8,0:0:0:0:
281,152,39265,1,0,0:0:0:0:
281,152,40110,1,8,0:0:0:0:
231,33,40321,1,0,0:0:0:0:
281,152,40532,1,8,0:0:0:0:
281,152,40955,1,4,0:0:0:0:
329,80,41800,1,8,0:0:0:0:
329,80,42222,1,8,0:0:0:0:
329,80,42645,1,0,0:0:0:0:
329,80,43490,1,8,0:0:0:0:
329,80,43913,1,0,0:0:0:0:
329,80,44335,1,8,0:0:0:0:
329,80,45180,1,8,0:0:0:0:
329,80,45603,1,8,0:0:0:0:
329,80,46025,1,0,0:0:0:0:
329,80,46237,1,0,0:0:0:0:
329,80,46448,1,8,0:0:0:0:
323,78,47715,1,4,0:0:0:0:
251,187,47927,1,8,0:0:0:0:
212,95,48349,1,8,0:0:0:0:
212,95,48561,1,0,0:0:0:0:
266,87,48983,1,8,0:0:0:0:
266,87,49194,1,0,0:0:0:0:
266,87,49406,1,8,0:0:0:0:
266,87,49617,1,8,0:0:0:0:
266,88,49828,1,0,0:0:0:0:
266,88,50251,1,8,0:0:0:0:
265,91,50673,1,8,0:0:0:0:
265,91,50884,1,0,0:0:0:0:
270,89,51096,1,8,0:0:0:0:
270,89,51518,1,8,0:0:0:0:
262,195,51730,1,8,0:0:0:0:
270,89,51941,1,0,0:0:0:0:
270,89,52363,1,8,0:0:0:0:
270,89,52575,1,0,0:0:0:0:
270,89,52786,1,8,0:0:0:0:
232,117,53631,1,0,0:0:0:0:
232,117,54053,1,8,0:0:0:0:
232,117,54265,1,8,0:0:0:0:
232,117,54476,1,0,0:0:0:0:
223,121,54687,1,8,0:0:0:0:
231,118,55110,1,8,0:0:0:0:
231,118,55321,1,0,0:0:0:0:
231,117,55744,1,8,0:0:0:0:
231,117,56166,1,8,0:0:0:0:
296,180,56377,1,8,0:0:0:0:
220,253,56589,1,0,0:0:0:0:
231,117,56800,1,0,0:0:0:0:
220,238,57011,1,8,0:0:0:0:
220,221,57434,1,0,0:0:0:0:
220,221,57645,1,8,0:0:0:0:
220,221,58068,1,8,0:0:0:0:
220,221,58279,1,0,0:0:0:0:
220,221,58490,1,8,0:0:0:0:
377,136,58913,1,8,0:0:0:0:
377,136,59124,1,0,0:0:0:0:
376,135,59335,1,8,0:0:0:0:
270,103,59546,1,0,0:0:0:0:
252,152,60392,1,8,0:0:0:0:
252,152,60814,1,8,0:0:0:0:
252,152,61025,1,8,0:0:0:0:
252,152,61237,1,4,0:0:0:0:
251,187,61448,1,8,0:0:0:0:
212,95,61870,1,8,0:0:0:0:
212,95,62082,1,0,0:0:0:0:
266,87,62504,1,8,0:0:0:0:
266,87,62927,1,0,0:0:0:0:
266,87,63138,1,8,0:0:0:0:
266,88,63349,1,0,0:0:0:0:
266,87,63561,1,0,0:0:0:0:
266,88,63772,1,8,0:0:0:0:
265,91,64194,1,8,0:0:0:0:
265,91,64406,1,0,0:0:0:0:
270,89,64617,1,8,0:0:0:0:
270,89,65039,1,8,0:0:0:0:
262,195,65251,1,8,0:0:0:0:
270,89,65462,1,0,0:0:0:0:
270,89,65884,1,8,0:0:0:0:
270,89,66096,1,0,0:0:0:0:
270,89,66307,1,8,0:0:0:0:
232,117,67152,1,0,0:0:0:0:
232,117,67575,1,8,0:0:0:0:
232,117,67786,1,8,0:0:0:0:
232,117,67997,1,0,0:0:0:0:
223,121,68208,1,8,0:0:0:0:
231,118,68631,1,8,0:0:0:0:
231,118,68842,1,0,0:0:0:0:
231,117,69265,1,8,0:0:0:0:
231,117,69476,1,0,0:0:0:0:
231,117,69687,1,8,0:0:0:0:
296,180,69899,1,8,0:0:0:0:
220,253,70110,1,0,0:0:0:0:
220,238,70532,1,8,0:0:0:0:
220,221,70955,1,0,0:0:0:0:
220,221,71166,1,8,0:0:0:0:
220,221,71377,1,4,0:0:0:0:
243,174,74124,1,8,0:0:0:0:
243,174,74335,1,0,0:0:0:0:
243,174,74546,1,0,0:0:0:0:
243,174,74758,1,12,0:0:0:0:
262,131,75180,1,8,0:0:0:0:
262,131,75392,1,0,0:0:0:0:
297,143,75814,1,0,0:0:0:0:
297,143,76025,1,8,0:0:0:0:
230,96,76448,1,0,0:0:0:0:
281,152,76659,1,0,0:0:0:0:
281,152,76870,1,8,0:0:0:0:
281,152,77082,1,0,0:0:0:0:
281,152,77504,1,0,0:0:0:0:
281,152,77715,1,8,0:0:0:0:
281,152,77927,1,0,0:0:0:0:
281,152,78138,1,8,0:0:0:0:
281,152,78561,1,8,0:0:0:0:
281,152,78772,1,0,0:0:0:0:
281,152,79194,1,0,0:0:0:0:
281,152,79406,1,8,0:0:0:0:
281,152,79828,1,0,0:0:0:0:
281,152,80673,1,8,0:0:0:0:
281,152,80884,1,8,0:0:0:0:
231,33,81096,1,0,0:0:0:0:
281,152,81307,1,8,0:0:0:0:
281,152,81518,1,4,0:0:0:0:
262,131,81941,1,8,0:0:0:0:
262,131,82152,1,0,0:0:0:0:
297,143,82575,1,0,0:0:0:0:
297,143,82786,1,8,0:0:0:0:
230,96,83208,1,0,0:0:0:0:
281,152,83420,1,0,0:0:0:0:
281,152,83631,1,8,0:0:0:0:
281,152,83842,1,0,0:0:0:0:
281,152,84265,1,0,0:0:0:0:
281,152,84476,1,8,0:0:0:0:
281,152,84687,1,8,0:0:0:0:
281,152,84899,1,0,0:0:0:0:
281,152,85321,1,8,0:0:0:0:
281,152,85532,1,0,0:0:0:0:
281,152,85955,1,0,0:0:0:0:
281,152,86166,1,8,0:0:0:0:
281,152,86589,1,0,0:0:0:0:
281,152,86800,1,0,0:0:0:0:
281,152,87011,1,8,0:0:0:0:
231,33,87222,1,0,0:0:0:0:
281,152,87434,1,12,0:0:0:0:
245,126,88279,1,4,0:0:0:0:
251,130,88701,1,8,0:0:0:0:
249,126,88913,1,0,0:0:0:0:
251,130,89546,1,8,0:0:0:0:
251,130,89969,1,0,0:0:0:0:
251,130,90392,1,8,0:0:0:0:
245,126,90603,1,0,0:0:0:0:
249,129,91025,1,0,0:0:0:0:
249,129,91237,1,8,0:0:0:0:
249,129,91448,1,8,0:0:0:0:
245,126,91659,1,0,0:0:0:0:
245,120,92293,1,8,0:0:0:0:
245,120,92715,1,0,0:0:0:0:
259,124,92927,1,8,0:0:0:0:
259,124,93349,1,0,0:0:0:0:
189,198,93772,1,8,0:0:0:0:
189,198,94194,1,0,0:0:0:0:
189,198,94406,1,0,0:0:0:0:
189,198,94617,1,8,0:0:0:0:
189,198,95039,1,4,0:0:0:0:
226,195,95884,1,8,0:0:0:0:
281,63,96730,1,8,0:0:0:0:
281,63,97152,1,0,0:0:0:0:
281,63,97575,1,8,0:0:0:0:
223,216,97786,1,0,0:0:0:0:
206,209,97997,1,8,0:0:0:0:
268,67,98420,1,0,0:0:0:0:
264,67,98842,1,8,0:0:0:0:
264,67,99053,1,0,0:0:0:0:
264,67,99476,1,0,0:0:0:0:
264,67,99687,1,8,0:0:0:0:
204,207,99899,1,8,0:0:0:0:
259,68,100110,1,0,0:0:0:0:
222,54,101800,1,4,0:0:0:0:
251,186,102011,1,8,0:0:0:0:
212,94,102434,1,8,0:0:0:0:
212,94,102645,1,0,0:0:0:0:
266,86,103068,1,8,0:0:0:0:
266,86,103279,1,8,0:0:0:0:
266,86,103490,1,0,0:0:0:0:
266,86,103701,1,8,0:0:0:0:
266,87,103913,1,0,0:0:0:0:
266,87,104335,1,8,0:0:0:0:
265,90,104758,1,8,0:0:0:0:
265,90,104969,1,0,0:0:0:0:
270,88,105180,1,8,0:0:0:0:
270,88,105603,1,8,0:0:0:0:
262,194,105814,1,8,0:0:0:0:
270,88,106025,1,0,0:0:0:0:
270,88,106448,1,8,0:0:0:0:
270,88,106659,1,0,0:0:0:0:
270,88,106870,1,8,0:0:0:0:
232,116,107715,1,0,0:0:0:0:
232,116,108138,1,8,0:0:0:0:
232,116,108349,1,8,0:0:0:0:
232,116,108561,1,0,0:0:0:0:
223,120,108772,1,8,0:0:0:0:
231,117,109194,1,8,0:0:0:0:
231,117,109406,1,0,0:0:0:0:
231,116,109828,1,8,0:0:0:0:
231,116,110251,1,0,0:0:0:0:
296,179,110462,1,8,0:0:0:0:
220,252,110673,1,8,0:0:0:0:
231,116,110884,1,0,0:0:0:0:
220,237,111096,1,8,0:0:0:0:
220,220,111518,1,0,0:0:0:0:
220,221,111730,1,8,0:0:0:0:
220,221,111941,1,0,0:0:0:0:
220,221,112152,1,8,0:0:0:0:
377,136,112575,1,8,0:0:0:0:
377,136,112786,1,0,0:0:0:0:
376,135,112997,1,8,0:0:0:0:
169,226,113420,1,8,0:0:0:0:
270,103,113631,1,0,0:0:0:0:
252,152,114476,1,8,0:0:0:0:
252,152,114899,1,0,0:0:0:0:
275,179,115110,1,0,0:0:0:0:
252,152,115321,1,12,0:0:0:0:
222,161,115744,1,0,0:0:0:0:
299,77,115955,1,0,0:0:0:0:
222,161,116166,1,8,0:0:0:0:
270,83,116589,1,8,0:0:0:0:
270,83,117011,1,0,0:0:0:0:
270,83,117222,1,8,0:0:0:0:
384,158,117434,1,0,0:0:0:0:
384,158,117856,1,8,0:0:0:0:
388,66,118279,1,8,0:0:0:0:
368,77,118701,1,0,0:0:0:0:
240,70,119124,1,8,0:0:0:0:
240,70,119335,1,8,0:0:0:0:
351,85,119546,1,0,0:0:0:0:
240,70,119969,1,8,0:0:0:0:
350,86,120180,1,0,0:0:0:0:
240,70,120392,1,8,0:0:0:0:
348,88,121237,1,8,0:0:0:0:
348,88,121659,1,8,0:0:0:0:
241,129,121870,1,8,0:0:0:0:
298,90,122082,1,0,0:0:0:0:
302,89,122504,1,0,0:0:0:0:
246,184,122715,1,0,0:0:0:0:
302,89,122927,1,8,0:0:0:0:
224,76,123349,1,0,0:0:0:0:
220,82,123772,1,8,0:0:0:0:
281,67,123983,1,0,0:0:0:0:
280,66,124194,1,0,0:0:0:0:
281,67,124617,1,8,0:0:0:0:
281,67,125039,1,8,0:0:0:0:
281,67,125462,1,4,0:0:0:0:
203,211,128842,1,12,0:0:0:0:
165,235,131377,1,0,0:0:0:0:
166,234,131800,1,0,0:0:0:0:
231,221,132222,1,12,0:0:0:0:
237,217,132856,1,8,0:0:0:0:
193,226,133490,1,0,0:0:0:0:
193,226,134124,1,0,0:0:0:0:
193,226,134758,1,8,0:0:0:0:
192,224,135603,1,0,0:0:0:0:
236,215,136237,1,8,0:0:0:0:
192,220,136870,1,8,0:0:0:0:
192,220,137293,1,4,0:0:0:0:
191,220,138561,1,8,0:0:0:0:
192,217,138983,1,4,0:0:0:0:
262,131,139406,1,8,0:0:0:0:
362,89,139617,1,0,0:0:0:0:
288,60,139828,1,8,0:0:0:0:
297,143,140251,1,8,0:0:0:0:
230,96,140673,1,0,0:0:0:0:
253,96,141518,1,0,0:0:0:0:
291,74,141941,1,8,0:0:0:0:
281,152,142152,1,8,0:0:0:0:
281,152,142363,1,0,0:0:0:0:
212,11,142786,1,8,0:0:0:0:
212,11,142997,1,0,0:0:0:0:
212,11,143208,1,8,0:0:0:0:
212,11,143631,1,0,0:0:0:0:
212,11,144053,1,8,0:0:0:0:
212,11,144265,1,8,0:0:0:0:
212,11,144476,1,0,0:0:0:0:
210,11,144687,1,0,0:0:0:0:
210,11,144899,1,8,0:0:0:0:
285,66,145321,1,0,0:0:0:0:
247,159,145532,1,8,0:0:0:0:
210,12,145744,1,0,0:0:0:0:
344,174,146166,1,8,0:0:0:0:
342,173,146589,1,0,0:0:0:0:
337,166,147434,1,8,0:0:0:0:
333,154,147645,1,8,0:0:0:0:
333,154,147856,1,0,0:0:0:0:
303,71,148068,1,0,0:0:0:0:
303,71,148279,1,8,0:0:0:0:
302,71,148701,1,8,0:0:0:0:
277,71,149124,1,0,0:0:0:0:
277,71,149335,1,8,0:0:0:0:
276,71,149546,1,0,0:0:0:0:
271,72,149969,1,8,0:0:0:0:
271,72,150180,1,0,0:0:0:0:
259,73,150603,1,0,0:0:0:0:
259,73,150814,1,8,0:0:0:0:
259,73,151237,1,8,0:0:0:0:
259,73,151448,1,0,0:0:0:0:
259,73,151870,1,0,0:0:0:0:
259,73,152082,1,8,0:0:0:0:
259,73,152293,1,8,0:0:0:0:
259,73,152504,1,4,0:0:0:0:
259,73,153349,1,8,0:0:0:0:
257,134,153772,1,0,0:0:0:0:
288,144,153983,1,8,0:0:0:0:
259,73,154194,1,4,0:0:0:0:
283,147,154617,1,0,0:0:0:0:
283,147,155039,1,8,0:0:0:0:
203,141,155462,1,8,0:0:0:0:
203,141,155673,1,8,0:0:0:0:
259,73,155884,1,4,0:0:0:0:
283,147,156730,1,8,0:0:0:0:
283,147,157152,1,0,0:0:0:0:
214,115,157363,1,0,0:0:0:0:
259,73,157575,1,12,0:0:0:0:
214,115,157997,1,0,0:0:0:0:
239,92,158420,1,8,0:0:0:0:
239,92,158631,1,8,0:0:0:0:
239,92,158842,1,8,0:0:0:0:
240,91,159053,1,8,0:0:0:0:
259,73,159265,1,4,0:0:0:0:
259,73,160110,1,8,0:0:0:0:
257,134,160533,1,0,0:0:0:0:
288,144,160744,1,0,0:0:0:0:
259,73,160955,1,12,0:0:0:0:
283,147,161378,1,0,0:0:0:0:
283,147,161800,1,8,0:0:0:0:
203,141,162223,1,0,0:0:0:0:
203,141,162434,1,8,0:0:0:0:
259,73,162645,1,4,0:0:0:0:
241,220,164335,1,8,0:0:0:0:
219,137,164546,1,0,0:0:0:0:
214,115,164758,1,8,0:0:0:0:
239,92,165180,1,0,0:0:0:0:
309,148,165603,1,8,0:0:0:0:
309,148,165814,1,8,0:0:0:0:
309,148,166025,1,4,0:0:0:0:
207,334,166659,1,8,0:0:0:0:
203,182,167082,1,0,0:0:0:0:
205,332,167293,1,8,0:0:0:0:
205,332,167715,1,0,0:0:0:0:
205,332,168349,1,8,0:0:0:0:
148,174,168772,1,0,0:0:0:0:
205,332,168983,1,0,0:0:0:0:
274,218,169406,1,0,0:0:0:0:
263,220,170039,1,8,0:0:0:0:
262,221,170462,1,0,0:0:0:0:
262,221,170673,1,8,0:0:0:0:
262,221,171096,1,0,0:0:0:0:
265,98,172152,1,0,0:0:0:0:
216,113,172363,1,8,0:0:0:0:
226,99,172786,1,0,0:0:0:0:
226,99,173208,1,8,0:0:0:0:
226,99,173420,1,0,0:0:0:0:
226,100,174053,1,8,0:0:0:0:
226,100,174476,1,0,0:0:0:0:
226,100,174899,1,8,0:0:0:0:
226,100,175110,1,8,0:0:0:0:
230,124,175744,1,8,0:0:0:0:
234,117,176166,1,0,0:0:0:0:
230,124,176589,1,8,0:0:0:0:
230,124,176800,1,0,0:0:0:0:
238,147,177434,1,8,0:0:0:0:
238,147,177856,1,0,0:0:0:0:
238,147,178279,1,8,0:0:0:0:
238,147,178490,1,8,0:0:0:0:
335,152,179124,1,0,0:0:0:0:
311,166,179335,1,8,0:0:0:0:
212,56,179758,1,0,0:0:0:0:
217,88,179969,1,8,0:0:0:0:
222,14,180180,1,8,0:0:0:0:
217,88,180392,1,0,0:0:0:0:
230,68,180814,1,0,0:0:0:0:
212,95,181237,1,8,0:0:0:0:
348,166,182082,1,8,0:0:0:0:
182,176,182293,1,0,0:0:0:0:
262,40,182504,1,0,0:0:0:0:
340,113,182715,1,8,0:0:0:0:
243,34,183138,1,0,0:0:0:0:
293,129,183349,1,8,0:0:0:0:
217,64,183772,1,0,0:0:0:0:
265,227,184194,1,0,0:0:0:0:
263,226,184617,1,8,0:0:0:0:
274,233,185462,1,0,0:0:0:0:
274,233,185884,1,8,0:0:0:0:
274,233,186096,1,0,0:0:0:0:
212,56,186518,1,0,0:0:0:0:
217,88,186730,1,8,0:0:0:0:
222,14,186941,1,8,0:0:0:0:
217,88,187152,1,0,0:0:0:0:
49,235,187575,1,0,0:0:0:0:
212,95,187997,1,8,0:0:0:0:
348,166,188842,1,8,0:0:0:0:
182,176,189053,1,0,0:0:0:0:
262,40,189265,1,8,0:0:0:0:
340,113,189476,1,8,0:0:0:0:
243,34,189687,1,4,0:0:0:0:
217,64,190532,1,0,0:0:0:0:
265,227,190955,1,0,0:0:0:0:
263,226,191377,1,8,0:0:0:0:
323,78,193068,1,4,0:0:0:0:
251,187,193279,1,8,0:0:0:0:
212,95,193701,1,8,0:0:0:0:
275,231,193913,1,0,0:0:0:0:
266,87,194335,1,8,0:0:0:0:
266,87,194546,1,0,0:0:0:0:
266,87,194758,1,8,0:0:0:0:
266,87,194969,1,8,0:0:0:0:
266,88,195180,1,0,0:0:0:0:
266,88,195603,1,8,0:0:0:0:
265,91,196025,1,8,0:0:0:0:
265,91,196237,1,0,0:0:0:0:
270,89,196448,1,8,0:0:0:0:
270,89,196870,1,8,0:0:0:0:
262,195,197082,1,8,0:0:0:0:
270,89,197293,1,0,0:0:0:0:
270,89,197715,1,8,0:0:0:0:
270,89,197927,1,0,0:0:0:0:
270,89,198138,1,8,0:0:0:0:
232,117,198983,1,0,0:0:0:0:
232,117,199406,1,8,0:0:0:0:
232,117,199617,1,8,0:0:0:0:
232,117,199828,1,0,0:0:0:0:
223,121,200039,1,8,0:0:0:0:
231,118,200462,1,8,0:0:0:0:
231,118,200673,1,0,0:0:0:0:
231,117,201096,1,8,0:0:0:0:
231,117,201518,1,8,0:0:0:0:
296,180,201730,1,8,0:0:0:0:
220,253,201941,1,0,0:0:0:0:
231,117,202152,1,0,0:0:0:0:
220,238,202363,1,8,0:0:0:0:
220,221,202786,1,0,0:0:0:0:
220,221,202997,1,8,0:0:0:0:
220,221,203420,1,8,0:0:0:0:
220,221,203631,1,0,0:0:0:0:
220,221,203842,1,8,0:0:0:0:
377,136,204265,1,8,0:0:0:0:
377,136,204476,1,0,0:0:0:0:
376,135,204687,1,8,0:0:0:0:
270,103,204899,1,0,0:0:0:0:
252,152,205744,1,8,0:0:0:0:
252,152,206166,1,8,0:0:0:0:
252,152,206377,1,8,0:0:0:0:
252,152,206589,1,4,0:0:0:0:
251,187,206800,1,8,0:0:0:0:
212,95,207222,1,8,0:0:0:0:
212,95,207434,1,0,0:0:0:0:
266,87,207856,1,8,0:0:0:0:
266,87,208279,1,0,0:0:0:0:
266,87,208490,1,8,0:0:0:0:
266,88,208701,1,0,0:0:0:0:
266,87,208913,1,0,0:0:0:0:
266,88,209124,1,8,0:0:0:0:
265,91,209546,1,8,0:0:0:0:
265,91,209758,1,0,0:0:0:0:
270,89,209969,1,8,0:0:0:0:
270,89,210392,1,8,0:0:0:0:
262,195,210603,1,8,0:0:0:0:
270,89,210814,1,0,0:0:0:0:
270,89,211237,1,8,0:0:0:0:
270,89,211448,1,0,0:0:0:0:
270,89,211659,1,8,0:0:0:0:
232,117,212504,1,0,0:0:0:0:
232,117,212927,1,8,0:0:0:0:
232,117,213138,1,8,0:0:0:0:
232,117,213349,1,0,0:0:0:0:
223,121,213561,1,8,0:0:0:0:
231,118,213983,1,8,0:0:0:0:
231,118,214194,1,0,0:0:0:0:
231,117,214617,1,8,0:0:0:0:
231,117,214828,1,0,0:0:0:0:
231,117,215039,1,8,0:0:0:0:
296,180,215251,1,8,0:0:0:0:
220,253,215462,1,0,0:0:0:0:
220,238,215884,1,8,0:0:0:0:
220,221,216307,1,0,0:0:0:0:
220,221,216518,1,8,0:0:0:0:
220,221,216730,1,4,0:0:0:0:
272,134,217152,1,8,0:0:0:0:
272,134,217363,1,0,0:0:0:0:
272,134,217786,1,0,0:0:0:0:
272,134,217997,1,8,0:0:0:0:
262,117,218420,1,0,0:0:0:0:
262,118,219265,1,8,0:0:0:0:
262,118,219687,1,8,0:0:0:0:
262,118,219899,1,0,0:0:0:0:
262,118,220110,1,8,0:0:0:0:
280,117,220532,1,0,0:0:0:0:
280,117,220744,1,8,0:0:0:0:
280,117,221166,1,0,0:0:0:0:
280,117,221377,1,8,0:0:0:0:
280,117,221589,1,8,0:0:0:0:
280,117,221800,1,0,0:0:0:0:
280,117,222222,1,8,0:0:0:0:
280,117,222434,1,0,0:0:0:0:
280,117,222645,1,8,0:0:0:0:
253,22,223068,1,8,0:0:0:0:
265,35,223490,1,0,0:0:0:0:
253,21,223701,1,0,0:0:0:0:
295,174,223913,1,8,0:0:0:0:
295,174,224124,1,8,0:0:0:0:
260,153,224546,1,0,0:0:0:0:
253,21,224758,1,8,0:0:0:0:
260,153,224969,1,8,0:0:0:0:
260,153,225180,1,0,0:0:0:0:
253,21,225603,1,8,0:0:0:0:
260,153,225814,1,0,0:0:0:0:
260,153,226025,1,8,0:0:0:0:
253,21,226448,1,8,0:0:0:0:
260,153,226659,1,8,0:0:0:0:
139,211,226870,1,4,0:0:0:0:
243,174,229617,1,8,0:0:0:0:
243,174,229828,1,0,0:0:0:0:
243,174,230039,1,0,0:0:0:0:
243,174,230251,1,12,0:0:0:0:
262,131,230673,1,8,0:0:0:0:
262,131,230884,1,0,0:0:0:0:
297,143,231307,1,0,0:0:0:0:
297,143,231518,1,8,0:0:0:0:
230,96,231941,1,0,0:0:0:0:
281,152,232152,1,0,0:0:0:0:
281,152,232363,1,8,0:0:0:0:
281,152,232575,1,0,0:0:0:0:
281,152,232997,1,0,0:0:0:0:
281,152,233208,1,8,0:0:0:0:
281,152,233420,1,8,0:0:0:0:
281,152,233631,1,0,0:0:0:0:
281,152,234053,1,8,0:0:0:0:
281,152,234265,1,0,0:0:0:0:
281,152,234687,1,0,0:0:0:0:
281,152,234899,1,8,0:0:0:0:
281,152,235321,1,0,0:0:0:0:
281,152,236166,1,8,0:0:0:0:
231,33,236377,1,8,0:0:0:0:
281,152,236589,1,0,0:0:0:0:
281,152,236800,1,0,0:0:0:0:
281,152,237011,1,12,0:0:0:0:
262,131,237434,1,8,0:0:0:0:
262,131,237645,1,0,0:0:0:0:
297,143,238068,1,0,0:0:0:0:
297,143,238279,1,8,0:0:0:0:
230,96,238701,1,0,0:0:0:0:
281,152,238913,1,0,0:0:0:0:
281,152,239124,1,8,0:0:0:0:
281,152,239335,1,0,0:0:0:0:
281,152,239758,1,0,0:0:0:0:
281,152,239969,1,8,0:0:0:0:
281,152,240180,1,0,0:0:0:0:
281,152,240392,1,8,0:0:0:0:
281,152,240814,1,8,0:0:0:0:
281,152,241025,1,0,0:0:0:0:
281,152,241448,1,0,0:0:0:0:
281,152,241659,1,8,0:0:0:0:
281,152,242082,1,0,0:0:0:0:
226,246,242504,1,8,0:0:0:0:
226,246,242715,1,8,0:0:0:0:
226,246,242927,1,0,0:0:0:0:
226,246,243138,1,0,0:0:0:0:
226,246,243349,1,8,0:0:0:0:
226,246,243772,1,4,0:0:0:0:
265,101,245039,1,12,0:0:0:0:
265,101,245251,1,4,0:0:0:0:
