osu file format v14

[General]
AudioFilename: audio.mp3
AudioLeadIn: 0
PreviewTime: 100638
Countdown: 0
SampleSet: Normal
StackLeniency: 0.7
Mode: 1
LetterboxInBreaks: 0
WidescreenStoryboard: 1

[Editor]
Bookmarks: 385,7145,20666,34187,40948,47708,71370,74751,88272,101793,115314,125455,138976,152497,166018,179539,193061,216723,226863,230244,243765
DistanceSpacing: 1
BeatDivisor: 16
GridSize: 32
TimelineZoom: 1.600003

[Metadata]
Title:Kyouran Hey Kids!!
TitleUnicode:狂乱 Hey Kids!!
Artist:THE ORAL CIGARETTES
ArtistUnicode:THE ORAL CIGARETTES
Creator:radar
Version:Zhuosh's Kantan
Source:ノラガミ ARAGOTO
Tags:idealism dakedekaane zhuosh realy0_ reealy_ anime japanese jrock noragami aragoto yato hiyori second 2nd op opening full version
BeatmapID:2482109
BeatmapSetID:1187506

[Difficulty]
HPDrainRate:8
CircleSize:2
OverallDifficulty:2
ApproachRate:10
SliderMultiplier:1.6
SliderTickRate:1

[Events]
//Background and Video events
0,0,"33333333.jpg",0,40
//Break Periods
2,166225,179096
//Storyboard Layer 0 (Background)
//Storyboard Layer 1 (Fail)
//Storyboard Layer 2 (Pass)
//Storyboard Layer 3 (Foreground)
//Storyboard Layer 4 (Overlay)
//Storyboard Sound Samples

[TimingPoints]
392,422.535211267606,4,1,0,70,1,0
47715,-100,4,1,0,70,0,1
71377,-100,4,1,0,70,0,0
101800,-100,4,1,0,70,0,1
125462,-100,4,1,0,70,0,0
193068,-100,4,1,0,70,0,1
226870,-100,4,1,0,70,0,0

[HitObjects]
251,191,392,5,4,0:0:0:0:
270,219,1659,1,8,0:0:0:0:
275,191,2082,1,0,0:0:0:0:
270,219,3349,1,8,0:0:0:0:
276,190,3772,1,0,0:0:0:0:
269,218,5039,1,8,0:0:0:0:
276,190,5462,1,8,0:0:0:0:
269,218,7152,1,4,0:0:0:0:
287,220,7575,1,8,0:0:0:0:
287,220,8420,1,0,0:0:0:0:
287,220,8842,1,0,0:0:0:0:
287,220,9265,1,8,0:0:0:0:
287,220,10110,1,8,0:0:0:0:
287,220,10532,1,0,0:0:0:0:
288,184,10955,1,8,0:0:0:0:
307,174,11800,1,0,0:0:0:0:
287,220,12222,1,8,0:0:0:0:
263,197,12645,1,0,0:0:0:0:
287,210,13913,1,4,0:0:0:0:
263,197,14335,1,8,0:0:0:0:
263,197,15180,1,0,0:0:0:0:
263,197,15603,1,0,0:0:0:0:
263,197,16025,1,8,0:0:0:0:
260,210,16870,1,8,0:0:0:0:
260,210,17293,1,0,0:0:0:0:
264,188,17715,1,8,0:0:0:0:
283,161,18561,1,0,0:0:0:0:
260,210,18983,1,8,0:0:0:0:
256,219,19828,1,8,0:0:0:0:
276,219,20251,1,8,0:0:0:0:
288,188,20673,1,4,0:0:0:0:
269,204,22363,1,8,0:0:0:0:
289,207,23208,1,8,0:0:0:0:
289,207,24053,1,0,0:0:0:0:
289,207,25744,1,8,0:0:0:0:
298,215,26589,1,0,0:0:0:0:
289,207,27434,1,4,0:0:0:0:
299,225,29124,1,8,0:0:0:0:
299,225,29969,1,8,0:0:0:0:
312,232,30814,1,0,0:0:0:0:
319,239,31659,1,0,0:0:0:0:
319,239,32504,1,12,0:0:0:0:
311,219,34194,1,4,0:0:0:0:
302,217,34617,1,8,0:0:0:0:
310,226,35462,1,0,0:0:0:0:
310,226,36307,1,8,0:0:0:0:
310,226,36730,1,8,0:0:0:0:
310,226,37575,1,0,0:0:0:0:
305,208,37997,1,8,0:0:0:0:
311,236,38842,1,0,0:0:0:0:
311,236,39265,1,8,0:0:0:0:
293,167,39687,1,8,0:0:0:0:
322,232,40110,1,0,0:0:0:0:
331,248,40955,1,4,0:0:0:0:
333,246,42645,1,0,0:0:0:0:
333,246,43490,1,8,0:0:0:0:
308,240,44335,1,0,0:0:0:0:
306,252,45180,1,8,0:0:0:0:
311,233,45603,1,8,0:0:0:0:
311,233,46025,1,0,0:0:0:0:
320,236,46448,1,8,0:0:0:0:
320,236,47715,1,12,0:0:0:0:
320,236,48561,1,8,0:0:0:0:
340,266,49406,1,0,0:0:0:0:
350,253,49828,1,0,0:0:0:0:
340,266,50251,1,8,0:0:0:0:
340,266,50673,1,0,0:0:0:0:
329,241,51518,1,8,0:0:0:0:
340,266,51941,1,8,0:0:0:0:
340,266,52363,1,8,0:0:0:0:
349,268,52786,1,0,0:0:0:0:
293,241,54053,1,8,0:0:0:0:
358,270,54476,1,12,0:0:0:0:
343,248,55321,1,0,0:0:0:0:
367,260,55744,1,8,0:0:0:0:
367,260,56166,1,0,0:0:0:0:
349,244,56589,1,0,0:0:0:0:
367,260,57011,1,8,0:0:0:0:
367,260,57856,1,0,0:0:0:0:
375,266,58701,1,0,0:0:0:0:
339,242,59546,1,0,0:0:0:0:
321,232,60814,1,8,0:0:0:0:
339,242,61237,1,12,0:0:0:0:
319,234,62082,1,8,0:0:0:0:
319,234,62927,1,0,0:0:0:0:
319,234,63349,1,0,0:0:0:0:
295,221,63772,1,8,0:0:0:0:
299,228,64194,1,0,0:0:0:0:
299,228,65039,1,8,0:0:0:0:
319,234,65462,1,8,0:0:0:0:
319,234,65884,1,8,0:0:0:0:
319,234,66307,1,0,0:0:0:0:
197,210,67575,1,8,0:0:0:0:
324,242,67997,1,12,0:0:0:0:
334,228,68842,1,0,0:0:0:0:
340,240,69687,1,8,0:0:0:0:
346,235,70110,1,0,0:0:0:0:
325,228,70532,1,0,0:0:0:0:
346,235,70955,1,0,0:0:0:0:
338,247,71377,1,12,0:0:0:0:
308,218,74124,1,8,0:0:0:0:
308,218,74758,5,4,0:0:0:0:
303,212,75180,1,8,0:0:0:0:
289,196,76025,1,0,0:0:0:0:
309,195,76448,1,0,0:0:0:0:
296,197,76870,1,8,0:0:0:0:
290,189,77715,1,8,0:0:0:0:
290,189,78138,1,0,0:0:0:0:
254,181,78561,1,8,0:0:0:0:
294,140,79406,1,0,0:0:0:0:
289,178,79828,1,8,0:0:0:0:
300,190,80251,1,0,0:0:0:0:
284,182,81518,1,4,0:0:0:0:
282,172,81941,1,8,0:0:0:0:
308,160,82786,1,0,0:0:0:0:
308,160,83208,1,0,0:0:0:0:
308,160,83631,1,8,0:0:0:0:
308,160,84476,1,8,0:0:0:0:
308,160,84899,1,0,0:0:0:0:
293,146,85321,1,8,0:0:0:0:
292,126,86166,1,0,0:0:0:0:
318,183,86589,1,8,0:0:0:0:
344,177,87011,1,8,0:0:0:0:
344,177,87434,1,8,0:0:0:0:
323,171,88279,1,4,0:0:0:0:
328,147,89969,1,8,0:0:0:0:
328,147,91025,1,8,0:0:0:0:
328,147,91659,1,0,0:0:0:0:
327,148,93349,1,8,0:0:0:0:
323,121,93983,1,8,0:0:0:0:
327,148,95039,1,4,0:0:0:0:
332,134,95462,1,8,0:0:0:0:
332,134,96307,1,8,0:0:0:0:
324,138,96730,1,0,0:0:0:0:
332,134,97786,1,8,0:0:0:0:
328,121,98420,1,4,0:0:0:0:
328,121,99053,1,4,0:0:0:0:
328,121,99687,1,4,0:0:0:0:
319,111,100110,1,8,0:0:0:0:
320,236,101800,1,12,0:0:0:0:
320,236,102646,1,8,0:0:0:0:
340,266,103491,1,0,0:0:0:0:
350,253,103913,1,0,0:0:0:0:
340,266,104336,1,8,0:0:0:0:
340,266,104758,1,0,0:0:0:0:
329,241,105603,1,8,0:0:0:0:
340,266,106026,1,8,0:0:0:0:
340,266,106448,1,8,0:0:0:0:
349,268,106871,1,0,0:0:0:0:
293,241,108138,1,8,0:0:0:0:
358,270,108561,1,12,0:0:0:0:
343,248,109406,1,0,0:0:0:0:
367,260,109829,1,8,0:0:0:0:
367,260,110251,1,0,0:0:0:0:
349,244,110674,1,0,0:0:0:0:
367,260,111096,1,8,0:0:0:0:
367,260,111941,1,0,0:0:0:0:
375,266,112786,1,0,0:0:0:0:
339,242,113631,1,0,0:0:0:0:
321,232,114899,1,8,0:0:0:0:
339,242,115322,1,12,0:0:0:0:
316,197,115744,1,0,0:0:0:0:
323,205,116166,1,8,0:0:0:0:
310,172,117011,1,0,0:0:0:0:
319,177,117434,1,0,0:0:0:0:
319,177,117856,1,8,0:0:0:0:
319,177,118701,1,0,0:0:0:0:
319,177,119546,1,8,0:0:0:0:
319,177,120392,1,0,0:0:0:0:
319,177,122082,1,0,0:0:0:0:
319,177,122504,1,0,0:0:0:0:
319,177,122927,1,8,0:0:0:0:
319,177,123772,1,0,0:0:0:0:
319,177,124194,1,0,0:0:0:0:
319,177,124617,1,8,0:0:0:0:
319,177,125462,1,12,0:0:0:0:
306,187,127152,1,0,0:0:0:0:
306,187,127997,1,0,0:0:0:0:
306,187,128842,1,4,0:0:0:0:
294,173,129687,1,0,0:0:0:0:
338,187,130532,1,0,0:0:0:0:
329,178,131377,1,0,0:0:0:0:
333,186,131800,1,0,0:0:0:0:
333,186,132222,1,12,0:0:0:0:
333,186,133490,1,8,0:0:0:0:
333,186,134124,1,8,0:0:0:0:
333,186,134758,1,8,0:0:0:0:
333,186,135180,1,0,0:0:0:0:
333,186,135603,1,8,0:0:0:0:
333,186,136870,1,8,0:0:0:0:
333,186,137293,1,8,0:0:0:0:
306,160,138561,1,0,0:0:0:0:
306,160,138983,1,12,0:0:0:0:
293,155,139828,1,8,0:0:0:0:
293,155,140673,1,0,0:0:0:0:
293,155,141096,1,8,0:0:0:0:
293,155,141941,1,8,0:0:0:0:
293,155,142363,1,0,0:0:0:0:
293,155,142786,1,0,0:0:0:0:
293,155,143208,1,8,0:0:0:0:
293,155,144053,1,8,0:0:0:0:
293,155,144899,1,0,0:0:0:0:
293,155,145321,1,8,0:0:0:0:
293,155,145744,1,0,0:0:0:0:
293,155,147434,1,8,0:0:0:0:
293,155,147856,1,8,0:0:0:0:
293,155,148279,1,8,0:0:0:0:
293,155,148701,1,0,0:0:0:0:
293,155,149124,1,8,0:0:0:0:
293,155,149969,1,0,0:0:0:0:
293,155,150814,1,8,0:0:0:0:
293,155,152504,1,12,0:0:0:0:
293,155,152927,1,0,0:0:0:0:
293,155,153349,1,8,0:0:0:0:
296,172,154194,1,0,0:0:0:0:
296,172,154617,1,0,0:0:0:0:
296,172,155039,1,8,0:0:0:0:
321,212,155884,1,0,0:0:0:0:
304,197,156307,1,0,0:0:0:0:
304,197,156730,1,8,0:0:0:0:
304,197,157575,1,0,0:0:0:0:
304,197,157997,1,0,0:0:0:0:
304,197,158420,1,8,0:0:0:0:
304,197,158842,1,0,0:0:0:0:
304,197,159265,1,12,0:0:0:0:
275,173,160110,1,8,0:0:0:0:
304,197,160955,1,0,0:0:0:0:
304,197,161377,1,0,0:0:0:0:
304,197,161800,1,8,0:0:0:0:
304,197,162645,1,8,0:0:0:0:
306,193,164335,1,0,0:0:0:0:
302,180,165180,1,8,0:0:0:0:
302,180,165603,1,8,0:0:0:0:
296,184,166025,1,4,0:0:0:0:
362,192,179546,5,0,0:0:0:0:
362,192,180392,1,0,0:0:0:0:
362,192,181237,1,8,0:0:0:0:
365,191,181659,1,8,0:0:0:0:
362,192,182082,1,8,0:0:0:0:
362,192,182927,1,0,0:0:0:0:
362,192,183772,1,0,0:0:0:0:
362,192,184617,1,8,0:0:0:0:
362,192,185039,1,8,0:0:0:0:
362,192,185462,1,8,0:0:0:0:
362,192,186307,1,0,0:0:0:0:
362,192,187152,1,0,0:0:0:0:
362,192,187997,1,8,0:0:0:0:
362,192,188420,1,8,0:0:0:0:
362,192,188842,1,8,0:0:0:0:
362,192,189687,1,0,0:0:0:0:
256,192,190110,12,0,192645,0:0:0:0:
320,236,193068,5,12,0:0:0:0:
320,236,193914,1,8,0:0:0:0:
340,266,194759,1,0,0:0:0:0:
350,253,195181,1,0,0:0:0:0:
340,266,195604,1,8,0:0:0:0:
340,266,196026,1,0,0:0:0:0:
329,241,196871,1,8,0:0:0:0:
340,266,197294,1,8,0:0:0:0:
340,266,197716,1,8,0:0:0:0:
349,268,198139,1,0,0:0:0:0:
293,241,199406,1,8,0:0:0:0:
358,270,199829,1,12,0:0:0:0:
343,248,200674,1,0,0:0:0:0:
367,260,201097,1,8,0:0:0:0:
367,260,201519,1,0,0:0:0:0:
349,244,201942,1,0,0:0:0:0:
367,260,202364,1,8,0:0:0:0:
367,260,203209,1,0,0:0:0:0:
375,266,204053,1,0,0:0:0:0:
339,242,204899,1,0,0:0:0:0:
321,232,206167,1,8,0:0:0:0:
339,242,206590,1,12,0:0:0:0:
319,234,207435,1,8,0:0:0:0:
319,234,208280,1,0,0:0:0:0:
319,234,208702,1,0,0:0:0:0:
295,221,209125,1,8,0:0:0:0:
299,228,209547,1,0,0:0:0:0:
299,228,210392,1,8,0:0:0:0:
319,234,210815,1,8,0:0:0:0:
319,234,211237,1,8,0:0:0:0:
319,234,211660,1,0,0:0:0:0:
197,210,212928,1,8,0:0:0:0:
324,242,213350,1,12,0:0:0:0:
334,228,214195,1,0,0:0:0:0:
340,240,215040,1,8,0:0:0:0:
325,207,215462,1,0,0:0:0:0:
325,228,215885,1,0,0:0:0:0:
346,235,216308,1,0,0:0:0:0:
338,247,216730,1,12,0:0:0:0:
336,230,217575,1,8,0:0:0:0:
341,240,217997,1,0,0:0:0:0:
339,240,218420,1,8,0:0:0:0:
339,240,219265,1,0,0:0:0:0:
339,240,220110,1,8,0:0:0:0:
363,253,221800,1,8,0:0:0:0:
374,256,222645,1,0,0:0:0:0:
374,256,223490,1,8,0:0:0:0:
388,251,224335,1,8,0:0:0:0:
388,251,224758,1,8,0:0:0:0:
388,251,225180,1,0,0:0:0:0:
388,251,225603,1,0,0:0:0:0:
388,251,226025,1,8,0:0:0:0:
388,251,226448,1,0,0:0:0:0:
388,251,226870,1,12,0:0:0:0:
345,212,229406,1,8,0:0:0:0:
345,212,230251,1,4,0:0:0:0:
317,202,230673,1,8,0:0:0:0:
317,202,231518,1,0,0:0:0:0:
317,202,231941,1,0,0:0:0:0:
317,202,232363,1,8,0:0:0:0:
317,202,233208,1,8,0:0:0:0:
317,202,233631,1,0,0:0:0:0:
282,177,234053,1,8,0:0:0:0:
317,202,234899,1,0,0:0:0:0:
317,202,235321,1,8,0:0:0:0:
317,202,235744,1,0,0:0:0:0:
317,202,237011,1,4,0:0:0:0:
311,188,237434,1,8,0:0:0:0:
311,188,238279,1,0,0:0:0:0:
311,188,238701,1,0,0:0:0:0:
311,188,239124,1,8,0:0:0:0:
311,188,239969,1,8,0:0:0:0:
311,188,240392,1,0,0:0:0:0:
297,177,240814,1,8,0:0:0:0:
311,188,241659,1,0,0:0:0:0:
311,188,242082,1,8,0:0:0:0:
311,188,242504,1,0,0:0:0:0:
312,195,242927,1,8,0:0:0:0:
312,195,243349,1,8,0:0:0:0:
312,195,243772,1,4,0:0:0:0:
292,188,245251,1,12,0:0:0:0:
