osu file format v14

[General]
AudioFilename: oral.mp3
AudioLeadIn: 0
PreviewTime: 7439
Countdown: 0
SampleSet: None
StackLeniency: 0.7
Mode: 3
LetterboxInBreaks: 0
SpecialStyle: 0
WidescreenStoryboard: 1

[Editor]
Bookmarks: 7439,20960,34481,48002,61524,75045,88566
DistanceSpacing: 0.9
BeatDivisor: 2
GridSize: 32
TimelineZoom: 2.3

[Metadata]
Title:Kyouran Hey Kids!!
TitleUnicode:狂乱Hey Kids!!
Artist:THE ORAL CIGARETTES
ArtistUnicode:THE ORAL CIGARETTES
Creator:puxtu
Version:EZ
Source:ノラガミ ARAGOTO
Tags:Noragami
BeatmapID:958427
BeatmapSetID:446208

[Difficulty]
HPDrainRate:7
CircleSize:4
OverallDifficulty:7
ApproachRate:5
SliderMultiplier:1.4
SliderTickRate:1

[Events]
//Background and Video events
0,0,"Seafh.full.1157939.jpg",0,0
//Break Periods
//Storyboard Layer 0 (Background)
//Storyboard Layer 1 (Fail)
//Storyboard Layer 2 (Pass)
//Storyboard Layer 3 (Foreground)
//Storyboard Sound Samples

[TimingPoints]
679,211.267605633803,4,3,1,50,1,0
995,-100,4,3,1,10,0,0
5749,-100,4,3,1,50,0,0
48002,-100,4,3,1,50,0,1
61524,-100,4,3,1,50,0,0
75045,-100,4,3,1,50,0,1
85186,-100,4,3,1,50,0,0
85608,-100,4,3,1,25,0,0
87721,-100,4,3,1,50,0,0

[HitObjects]
64,192,679,5,4,0:0:0:0:
448,192,679,128,2,995:0:0:0:0:
192,192,995,1,0,0:0:0:0:
320,192,1312,1,0,0:0:0:0:
64,192,1524,1,0,0:0:0:0:
448,192,1735,1,0,0:0:0:0:
320,192,1946,1,0,0:0:0:0:
192,192,2157,1,0,0:0:0:0:
64,192,2369,128,0,2686:0:0:0:0:
320,192,2686,1,0,0:0:0:0:
192,192,3002,1,0,0:0:0:0:
448,192,3214,1,0,0:0:0:0:
64,192,3425,1,0,0:0:0:0:
192,192,3636,1,0,0:0:0:0:
320,192,3848,1,0,0:0:0:0:
64,192,4059,128,0,4376:0:0:0:0:
448,192,4376,1,0,0:0:0:0:
320,192,4693,1,0,0:0:0:0:
64,192,4904,1,0,0:0:0:0:
192,192,5115,1,0,0:0:0:0:
320,192,5326,1,0,0:0:0:0:
64,192,5538,1,0,0:0:0:0:
320,192,5749,1,4,0:0:0:0:
448,192,5749,1,8,0:0:0:0:
320,192,7017,1,8,0:0:0:0:
64,192,7439,1,4,0:0:0:0:
448,192,7439,128,2,7862:0:0:0:0:
320,192,7862,1,4,0:0:0:0:
192,192,8073,1,8,0:0:0:0:
320,192,8179,1,0,0:0:0:0:
64,192,8390,128,0,8918:0:0:0:0:
192,192,8707,1,0,0:0:0:0:
448,192,8918,1,4,0:0:0:0:
320,192,9129,128,4,9552:0:0:0:0:
192,192,9552,1,4,0:0:0:0:
64,192,9763,1,8,0:0:0:0:
448,192,9869,1,0,0:0:0:0:
192,192,10080,128,0,10397:0:0:0:0:
320,192,10397,1,4,0:0:0:0:
64,192,10608,1,4,0:0:0:0:
448,192,10608,1,8,0:0:0:0:
192,192,10819,128,4,11242:0:0:0:0:
64,192,11242,1,4,0:0:0:0:
448,192,11453,1,8,0:0:0:0:
320,192,11559,1,0,0:0:0:0:
320,192,11770,128,0,12298:0:0:0:0:
192,192,12087,1,0,0:0:0:0:
448,192,12298,1,8,0:0:0:0:
64,192,12509,128,4,12932:0:0:0:0:
192,192,12932,1,4,0:0:0:0:
320,192,13038,1,4,0:0:0:0:
448,192,13249,1,0,0:0:0:0:
192,192,13460,128,0,13988:0:0:0:0:
64,192,13777,1,0,0:0:0:0:
320,192,13988,1,8,0:0:0:0:
448,192,14200,1,4,0:0:0:0:
64,192,14200,128,2,14622:0:0:0:0:
320,192,14622,1,4,0:0:0:0:
192,192,14833,1,8,0:0:0:0:
448,192,14939,1,0,0:0:0:0:
320,192,15150,128,0,15679:0:0:0:0:
448,192,15467,1,0,0:0:0:0:
64,192,15679,1,4,0:0:0:0:
192,192,15890,128,4,16312:0:0:0:0:
320,192,16312,1,4,0:0:0:0:
64,192,16524,1,8,0:0:0:0:
448,192,16629,1,0,0:0:0:0:
320,192,16840,128,0,17157:0:0:0:0:
192,192,17157,1,4,0:0:0:0:
448,192,17369,1,4,0:0:0:0:
64,192,17369,1,8,0:0:0:0:
320,192,17580,128,4,18002:0:0:0:0:
448,192,18002,1,4,0:0:0:0:
64,192,18214,1,8,0:0:0:0:
320,192,18319,1,0,0:0:0:0:
192,192,18531,128,0,19059:0:0:0:0:
320,192,18848,1,0,0:0:0:0:
64,192,19059,1,8,0:0:0:0:
448,192,19270,128,4,19693:0:0:0:0:
192,192,19693,1,4,0:0:0:0:
320,192,19798,1,4,0:0:0:0:
64,192,20009,1,0,0:0:0:0:
320,192,20221,128,0,20960:0:0:0:0:
448,192,20960,1,2,0:0:0:0:
64,192,20960,1,4,0:0:0:0:
192,192,21383,1,8,0:0:0:0:
320,192,21805,1,4,0:0:0:0:
192,192,22228,1,8,0:0:0:0:
448,192,22439,1,12,0:0:0:0:
64,192,22545,1,12,0:0:0:0:
320,192,22650,1,4,0:0:0:0:
448,192,23073,1,8,0:0:0:0:
192,192,23495,1,4,0:0:0:0:
320,192,23918,1,8,0:0:0:0:
448,192,24340,1,4,0:0:0:0:
64,192,24763,1,8,0:0:0:0:
320,192,25186,1,4,0:0:0:0:
192,192,25608,1,8,0:0:0:0:
320,192,25819,1,12,0:0:0:0:
64,192,25925,1,12,0:0:0:0:
448,192,26031,1,4,0:0:0:0:
320,192,26453,1,8,0:0:0:0:
448,192,26876,1,4,0:0:0:0:
64,192,27298,1,8,0:0:0:0:
192,192,27509,1,4,0:0:0:0:
320,192,27615,1,4,0:0:0:0:
64,192,27721,1,2,0:0:0:0:
448,192,27721,1,4,0:0:0:0:
192,192,28143,1,8,0:0:0:0:
448,192,28566,1,4,0:0:0:0:
192,192,28988,1,8,0:0:0:0:
320,192,29200,1,12,0:0:0:0:
64,192,29305,1,12,0:0:0:0:
448,192,29411,1,4,0:0:0:0:
192,192,29833,1,8,0:0:0:0:
320,192,30256,1,4,0:0:0:0:
64,192,30679,1,8,0:0:0:0:
192,192,31101,1,4,0:0:0:0:
448,192,31524,1,8,0:0:0:0:
320,192,31946,1,4,0:0:0:0:
192,192,32369,1,8,0:0:0:0:
320,192,32580,1,4,0:0:0:0:
64,192,32686,1,4,0:0:0:0:
448,192,32791,1,2,0:0:0:0:
192,192,32791,1,4,0:0:0:0:
192,192,33214,1,8,0:0:0:0:
64,192,33425,1,8,0:0:0:0:
448,192,33636,1,8,0:0:0:0:
320,192,33848,1,8,0:0:0:0:
192,192,34059,1,4,0:0:0:0:
448,192,34059,1,4,2:0:0:0:
320,192,34481,1,4,0:0:0:0:
64,192,34481,128,2,34904:0:0:0:0:
448,192,34904,1,4,0:0:0:0:
192,192,35115,1,8,0:0:0:0:
320,192,35221,1,0,0:0:0:0:
448,192,35432,128,0,35960:0:0:0:0:
320,192,35749,1,0,0:0:0:0:
64,192,35960,1,4,0:0:0:0:
192,192,36171,128,4,36594:0:0:0:0:
320,192,36594,1,4,0:0:0:0:
64,192,36805,1,8,0:0:0:0:
448,192,36911,1,0,0:0:0:0:
320,192,37122,128,0,37439:0:0:0:0:
192,192,37439,1,4,0:0:0:0:
448,192,37650,1,4,0:0:0:0:
64,192,37650,1,8,0:0:0:0:
320,192,37862,128,4,38284:0:0:0:0:
448,192,38284,1,4,0:0:0:0:
64,192,38495,1,8,0:0:0:0:
320,192,38601,1,0,0:0:0:0:
192,192,38812,128,0,39340:0:0:0:0:
448,192,39129,1,0,0:0:0:0:
64,192,39340,1,8,0:0:0:0:
320,192,39552,128,4,40397:0:0:0:0:
192,192,40397,1,4,0:0:0:0:
448,192,40608,1,4,0:0:0:0:
64,192,40819,1,4,0:0:0:0:
192,192,41031,1,4,0:0:0:0:
448,192,41242,1,4,0:0:0:0:
320,192,41242,1,2,0:0:0:0:
192,192,41559,1,4,0:0:0:0:
64,192,41876,1,4,0:0:0:0:
448,192,42087,1,4,0:0:0:0:
320,192,42087,1,2,0:0:0:0:
192,192,42932,1,4,0:0:0:0:
320,192,43249,1,4,0:0:0:0:
192,192,43566,1,4,0:0:0:0:
64,192,43777,1,4,0:0:0:0:
448,192,43777,1,2,0:0:0:0:
64,192,44622,1,4,0:0:0:0:
320,192,44939,1,4,0:0:0:0:
192,192,45256,1,4,0:0:0:0:
448,192,45467,1,4,0:0:0:0:
320,192,45467,1,2,0:0:0:0:
192,192,45890,1,8,0:0:0:0:
320,192,46312,128,12,46735:0:0:0:0:
192,192,46735,1,8,0:0:0:0:
64,192,48002,1,4,0:0:0:0:
448,192,48002,1,2,0:0:0:0:
320,192,48214,1,8,0:0:0:0:
192,192,48425,128,4,48636:0:0:0:0:
64,192,48636,1,8,0:0:0:0:
320,192,48848,1,4,0:0:0:0:
192,192,49059,1,8,0:0:0:0:
448,192,49270,128,4,49481:0:0:0:0:
320,192,49481,1,8,0:0:0:0:
192,192,49693,1,4,0:0:0:0:
320,192,49904,1,8,0:0:0:0:
64,192,50115,128,4,50326:0:0:0:0:
192,192,50326,1,4,0:0:0:0:
320,192,50538,128,4,50749:0:0:0:0:
448,192,50749,1,4,0:0:0:0:
192,192,50960,128,4,51171:0:0:0:0:
64,192,51171,1,8,0:0:0:0:
448,192,51383,1,4,0:0:0:0:
192,192,51594,1,8,0:0:0:0:
320,192,51805,128,4,52017:0:0:0:0:
64,192,52017,1,8,0:0:0:0:
448,192,52228,1,4,0:0:0:0:
192,192,52439,1,8,0:0:0:0:
64,192,52650,128,4,52862:0:0:0:0:
448,192,52862,1,8,0:0:0:0:
192,192,53073,1,4,0:0:0:0:
64,192,53284,1,8,0:0:0:0:
320,192,53495,128,4,53707:0:0:0:0:
192,192,53707,1,8,0:0:0:0:
448,192,53918,1,4,0:0:0:0:
64,192,54129,1,8,0:0:0:0:
192,192,54340,128,8,54763:0:0:0:0:
448,192,54763,1,4,0:0:0:0:
64,192,54763,1,2,0:0:0:0:
320,192,54974,1,8,0:0:0:0:
448,192,55186,128,4,55397:0:0:0:0:
64,192,55397,1,8,0:0:0:0:
320,192,55608,1,4,0:0:0:0:
192,192,55819,1,8,0:0:0:0:
448,192,56031,128,4,56242:0:0:0:0:
64,192,56242,1,4,0:0:0:0:
192,192,56453,1,4,0:0:0:0:
448,192,56664,1,8,0:0:0:0:
192,192,56876,128,4,57087:0:0:0:0:
320,192,57087,1,8,0:0:0:0:
64,192,57298,1,4,0:0:0:0:
448,192,57509,1,8,0:0:0:0:
320,192,57721,128,4,57932:0:0:0:0:
448,192,57932,1,8,0:0:0:0:
192,192,58143,1,4,0:0:0:0:
320,192,58355,1,8,0:0:0:0:
64,192,58566,128,4,58777:0:0:0:0:
192,192,58777,1,8,0:0:0:0:
320,192,58988,1,4,0:0:0:0:
64,192,59200,1,8,0:0:0:0:
448,192,59411,128,4,59622:0:0:0:0:
192,192,59622,1,4,0:0:0:0:
320,192,59833,1,4,0:0:0:0:
64,192,60045,1,8,0:0:0:0:
192,192,60256,128,4,60467:0:0:0:0:
64,192,60467,1,8,0:0:0:0:
320,192,60679,1,4,0:0:0:0:
64,192,60890,1,8,0:0:0:0:
448,192,61101,1,8,0:0:0:0:
192,192,61312,1,8,0:0:0:0:
64,192,61524,1,2,0:0:0:0:
448,192,61524,1,4,0:0:0:0:
192,192,61735,1,4,0:0:0:0:
448,192,61946,1,4,0:0:0:0:
320,192,62157,1,4,0:0:0:0:
448,192,62369,1,8,0:0:0:0:
64,192,62369,1,2,0:0:0:0:
192,192,63002,1,8,0:0:0:0:
320,192,63214,1,2,0:0:0:0:
448,192,63214,1,4,0:0:0:0:
192,192,63425,1,4,0:0:0:0:
320,192,63636,1,4,0:0:0:0:
64,192,63848,1,4,0:0:0:0:
320,192,64059,1,8,0:0:0:0:
448,192,64059,1,2,0:0:0:0:
192,192,64693,1,8,0:0:0:0:
448,192,64904,1,2,0:0:0:0:
64,192,64904,1,4,0:0:0:0:
320,192,65221,1,4,0:0:0:0:
64,192,65538,1,8,0:0:0:0:
192,192,65749,1,8,0:0:0:0:
448,192,65749,1,2,0:0:0:0:
320,192,66066,1,4,0:0:0:0:
64,192,66383,1,8,0:0:0:0:
448,192,66594,1,2,0:0:0:0:
192,192,66594,1,4,0:0:0:0:
320,192,66911,1,4,0:0:0:0:
64,192,67228,1,8,0:0:0:0:
320,192,67439,1,8,0:0:0:0:
192,192,67439,1,2,0:0:0:0:
448,192,67756,1,8,0:0:0:0:
192,192,68073,1,8,0:0:0:0:
64,192,68284,1,2,0:0:0:0:
448,192,68284,1,4,0:0:0:0:
320,192,68495,1,4,0:0:0:0:
192,192,68707,1,4,0:0:0:0:
64,192,68918,1,4,0:0:0:0:
448,192,69129,1,8,0:0:0:0:
320,192,69129,1,2,0:0:0:0:
320,192,69763,1,8,0:0:0:0:
192,192,69974,1,2,0:0:0:0:
64,192,69974,1,4,0:0:0:0:
448,192,70186,1,4,0:0:0:0:
192,192,70397,1,4,0:0:0:0:
320,192,70608,1,4,0:0:0:0:
192,192,70819,1,8,0:0:0:0:
64,192,70819,1,2,0:0:0:0:
320,192,71242,128,8,71664:0:0:0:0:
448,192,71664,1,4,2:0:0:0:
64,192,71664,1,8,0:0:0:0:
192,192,71981,1,8,0:0:0:0:
64,192,72298,1,8,0:0:0:0:
448,192,72298,1,4,2:0:0:0:
320,192,72615,1,8,0:0:0:0:
192,192,72932,128,8,73355:0:0:0:0:
320,192,73355,1,8,0:0:0:0:
448,192,73355,1,4,2:0:0:0:
448,192,75045,1,4,0:0:0:0:
64,192,75045,1,2,0:0:0:0:
192,192,75256,1,8,0:0:0:0:
320,192,75467,128,4,75679:0:0:0:0:
64,192,75679,1,8,0:0:0:0:
448,192,75890,1,4,0:0:0:0:
192,192,76101,1,8,0:0:0:0:
448,192,76312,128,4,76524:0:0:0:0:
320,192,76524,1,8,0:0:0:0:
64,192,76735,1,4,0:0:0:0:
192,192,76946,1,8,0:0:0:0:
320,192,77157,128,4,77369:0:0:0:0:
192,192,77369,1,4,0:0:0:0:
64,192,77580,128,4,77791:0:0:0:0:
320,192,77791,1,4,0:0:0:0:
448,192,78002,128,4,78214:0:0:0:0:
192,192,78214,1,8,0:0:0:0:
320,192,78425,1,4,0:0:0:0:
64,192,78636,1,8,0:0:0:0:
320,192,78848,128,4,79059:0:0:0:0:
448,192,79059,1,8,0:0:0:0:
64,192,79270,1,4,0:0:0:0:
320,192,79481,1,8,0:0:0:0:
192,192,79693,128,4,79904:0:0:0:0:
320,192,79904,1,8,0:0:0:0:
64,192,80115,1,4,0:0:0:0:
192,192,80326,1,8,0:0:0:0:
448,192,80538,128,4,80749:0:0:0:0:
320,192,80749,1,8,0:0:0:0:
64,192,80960,1,4,0:0:0:0:
448,192,81171,1,8,0:0:0:0:
192,192,81383,128,8,81805:0:0:0:0:
64,192,81805,1,4,0:0:0:0:
448,192,81805,1,2,0:0:0:0:
320,192,82017,1,8,0:0:0:0:
64,192,82228,128,4,82439:0:0:0:0:
448,192,82439,1,8,0:0:0:0:
192,192,82650,1,4,0:0:0:0:
320,192,82862,1,8,0:0:0:0:
64,192,83073,128,4,83284:0:0:0:0:
192,192,83284,1,4,0:0:0:0:
448,192,83495,1,4,0:0:0:0:
192,192,83707,1,8,0:0:0:0:
320,192,83918,128,4,84129:0:0:0:0:
64,192,84129,1,8,0:0:0:0:
448,192,84340,1,4,0:0:0:0:
192,192,84552,1,8,0:0:0:0:
320,192,84763,128,8,85186:0:0:0:0:
64,192,85186,1,4,0:0:0:0:
448,192,85186,1,2,0:0:0:0:
192,192,87721,1,8,0:0:0:0:
320,192,87932,1,4,2:0:0:0:
448,192,87932,1,8,0:0:0:0:
192,192,88143,1,8,0:0:0:0:
64,192,88143,1,4,2:0:0:0:
448,192,88355,1,8,0:0:0:0:
320,192,88355,1,4,2:0:0:0:
64,192,88566,128,2,89200:0:0:0:0:
192,192,88566,1,4,2:0:0:0:
