osu file format v14

[General]
AudioFilename: na-op.mp3
AudioLeadIn: 0
PreviewTime: 48081
Countdown: 0
SampleSet: Normal
StackLeniency: 0.7
Mode: 3
LetterboxInBreaks: 0
EpilepsyWarning: 1
SpecialStyle: 0
WidescreenStoryboard: 1
SamplesMatchPlaybackRate: 1

[Editor]
DistanceSpacing: 1
BeatDivisor: 4
GridSize: 4
TimelineZoom: 0.6999999

[Metadata]
Title:Kyouran Hey Kids!!
TitleUnicode:狂乱Hey Kids!!
Artist:THE ORAL CIGARETTES
ArtistUnicode:THE ORAL CIGARETTES
Creator:hikikuman
Version:Beginner
Source:ノラガミ ARAGOTO
Tags:noragami aragoto opening tv size hiyori yato yukine
BeatmapID:822081
BeatmapSetID:375365

[Difficulty]
HPDrainRate:7
CircleSize:4
OverallDifficulty:7
ApproachRate:5
SliderMultiplier:1.4
SliderTickRate:1

[Events]
//Background and Video events
0,0,"noragami_yato_anime_katana_104985_1366x768.jpg",0,0
//Break Periods
//Storyboard Layer 0 (Background)
//Storyboard Layer 1 (Fail)
//Storyboard Layer 2 (Pass)
//Storyboard Layer 3 (Foreground)
//Storyboard Sound Samples

[TimingPoints]
1814,422.535211267606,4,1,1,5,1,0
14912,-100,4,1,1,5,0,0
22095,-105.263157894737,4,1,1,5,0,0
35616,-100,4,1,1,5,0,0
49137,-95.2380952380952,4,1,1,5,0,1
62659,-100,4,1,1,5,0,0
76180,-95.2380952380952,4,1,1,5,0,1
86743,-100,4,1,1,5,0,0

[HitObjects]
192,192,1814,5,0,0:0:0:35:LR_Drum Crush FInish.wav
320,192,1814,1,0,0:0:0:30:LR_Drum Beat Low.wav
448,192,2236,1,0,0:0:0:20:LR_Drum Hit HAT.wav
64,192,2659,1,0,0:0:0:20:LR_Drum Hit HAT.wav
448,192,3081,1,0,0:0:0:20:LR_Drum Hit HAT.wav
64,192,3504,1,0,0:0:0:20:LR_Drum Hit HAT.wav
320,192,3926,1,0,0:0:0:20:LR_Drum Hit HAT.wav
64,192,4349,1,0,0:0:0:20:LR_Drum Hit HAT.wav
448,192,4771,1,0,0:0:0:20:LR_Drum Hit HAT.wav
192,192,5194,1,0,0:0:0:20:LR_Drum Hit HAT.wav
448,192,5616,1,0,0:0:0:20:LR_Drum Hit HAT.wav
64,192,6039,1,0,0:0:0:20:LR_Drum Hit HAT.wav
320,192,6461,1,0,0:0:0:20:LR_Drum Hit HAT.wav
448,192,6884,1,0,0:0:0:80:LR4_DrumCSNHS.wav
64,192,6884,1,0,0:0:0:0:
192,192,8152,5,0,0:0:0:35:LR_Drum Rpd Fast.wav
448,192,8152,1,0,0:0:0:0:
64,192,8574,1,0,0:0:0:40:LR_Drum Beat Low.wav
192,192,8785,1,0,0:0:0:40:LR_Drum Hit Drop High.wav
448,192,8997,1,0,0:0:0:40:LR_Drum Beat Low.wav
320,192,9208,1,0,0:0:0:40:LR_Drum Hit Drop High.wav
64,192,9419,1,0,0:0:0:40:LR_Drum Beat Low.wav
192,192,9630,1,0,0:0:0:40:LR_Drum Hit Drop High.wav
448,192,9842,1,0,0:0:0:40:LR_Drum Beat Low.wav
320,192,10053,1,0,0:0:0:40:LR_Drum Hit Drop High.wav
64,192,10264,1,0,0:0:0:40:LR_Drum Beat Low.wav
448,192,10475,1,0,0:0:0:40:LR_Drum Hit Drop High.wav
192,192,10687,1,0,0:0:0:40:LR_Drum Beat Low.wav
320,192,10898,1,0,0:0:0:40:LR_Drum Hit Drop High.wav
64,192,11109,1,0,0:0:0:40:LR_Drum Beat Low.wav
448,192,11321,1,0,0:0:0:40:LR_Drum Hit Drop High.wav
192,192,11532,1,0,0:0:0:40:LR_Drum Beat Low.wav
320,192,11743,1,0,0:0:0:40:LR_Drum Hit Drop High.wav
64,192,11954,1,0,0:0:0:40:LR_Drum Beat Low.wav
192,192,12166,1,0,0:0:0:40:LR_Drum Hit Drop High.wav
448,192,12377,1,0,0:0:0:40:LR_Drum Beat Low.wav
320,192,12588,1,0,0:0:0:40:LR_Drum Hit Drop High.wav
64,192,12799,1,0,0:0:0:40:LR_Drum Beat Low.wav
192,192,13011,1,0,0:0:0:40:LR_Drum Hit Drop High.wav
448,192,13222,1,0,0:0:0:40:LR_Drum Beat Low.wav
320,192,13433,1,0,0:0:0:40:LR_Drum Hit Drop High.wav
64,192,13644,1,0,0:0:0:40:LR_Drum Beat Low.wav
448,192,13856,1,0,0:0:0:40:LR_Drum Hit Drop High.wav
192,192,14067,1,0,0:0:0:40:LR_Drum Beat Low.wav
320,192,14278,1,0,0:0:0:40:LR_Drum Hit Drop High.wav
64,192,14490,1,0,0:0:0:40:LR_Drum Beat Low.wav
448,192,14701,1,0,0:0:0:40:LR_Drum Hit Drop High.wav
192,192,14912,128,0,15335:0:0:0:35:LR_Drum Hit Echo.wav
64,192,15335,1,0,0:0:0:40:LR_Drum Beat Low.wav
448,192,15546,1,0,0:0:0:40:LR_Drum Hit Drop High.wav
320,192,15757,1,0,0:0:0:40:LR_Drum Beat Low.wav
192,192,15968,1,0,0:0:0:40:LR_Drum Hit Drop High.wav
64,192,16180,1,0,0:0:0:40:LR_Drum Beat Low.wav
448,192,16391,1,0,0:0:0:40:LR_Drum Hit Drop High.wav
320,192,16602,1,0,0:0:0:40:LR_Drum Beat Low.wav
192,192,16814,1,0,0:0:0:40:LR_Drum Hit Drop High.wav
448,192,17025,1,0,0:0:0:40:LR_Drum Beat Low.wav
64,192,17236,1,0,0:0:0:40:LR_Drum Hit Drop High.wav
192,192,17447,1,0,0:0:0:40:LR_Drum Beat Low.wav
320,192,17659,1,0,0:0:0:40:LR_Drum Hit Drop High.wav
448,192,17870,1,0,0:0:0:40:LR_Drum Beat Low.wav
64,192,18081,1,0,0:0:0:40:LR_Drum Hit Drop High.wav
192,192,18292,1,0,0:0:0:40:LR_Drum Beat Low.wav
320,192,18504,1,0,0:0:0:40:LR_Drum Hit Drop High.wav
64,192,18715,1,0,0:0:0:40:LR_Drum Beat Low.wav
320,192,18926,1,0,0:0:0:40:LR_Drum Hit Drop High.wav
192,192,19137,1,0,0:0:0:40:LR_Drum Beat Low.wav
448,192,19349,1,0,0:0:0:40:LR_Drum Hit Drop High.wav
64,192,19560,1,0,0:0:0:40:LR_Drum Beat Low.wav
320,192,19771,1,0,0:0:0:40:LR_Drum Hit Drop High.wav
192,192,19983,1,0,0:0:0:40:LR_Drum Beat Low.wav
448,192,20194,1,0,0:0:0:40:LR_Drum Hit Drop High.wav
192,192,20405,1,0,0:0:0:40:LR_Drum Beat Low.wav
320,192,20616,1,0,0:0:0:40:LR_Drum Hit Drop High.wav
64,192,20828,1,0,0:0:0:40:LR_Drum Beat Low.wav
192,192,21039,1,0,0:0:0:40:LR_Drum Hit Drop High.wav
448,192,21250,1,0,0:0:0:35:LR_Drum Hit Echo.wav
320,192,21461,128,0,22095:0:0:0:35:LR_Drum Hit Echo.wav
192,192,22095,1,0,0:0:0:35:LR_Drum Kick Low.wav
64,192,22518,1,0,0:0:0:30:LR_Drum Hit Drop High.wav
448,192,22518,1,0,0:0:0:0:
320,192,22940,1,0,0:0:0:35:LR_Drum Kick Low.wav
448,192,23363,1,0,0:0:0:30:LR_Drum Hit Drop High.wav
64,192,23363,1,0,0:0:0:0:
320,192,23574,1,0,0:0:0:35:LR_Drum Hit Drop High.wav
192,192,23785,1,0,0:0:0:35:LR_Drum Kick Low.wav
64,192,24208,1,0,0:0:0:30:LR_Drum Hit Drop High.wav
448,192,24208,1,0,0:0:0:0:
320,192,24630,1,0,0:0:0:35:LR_Drum Kick Low.wav
448,192,25053,1,0,0:0:0:30:LR_Drum Hit Drop High.wav
64,192,25053,1,0,0:0:0:0:
192,192,25475,1,0,0:0:0:35:LR_Drum Kick Low.wav
448,192,25898,1,0,0:0:0:30:LR_Drum Hit Drop High.wav
192,192,25898,1,0,0:0:0:0:
320,192,26321,1,0,0:0:0:35:LR_Drum Kick Low.wav
64,192,26743,1,0,0:0:0:30:LR_Drum Hit Drop High.wav
320,192,26743,1,0,0:0:0:0:
448,192,26954,1,0,0:0:0:35:LR_Drum Hit Drop High.wav
192,192,27166,1,0,0:0:0:35:LR_Drum Kick Low.wav
64,192,27588,1,0,0:0:0:30:LR_Drum Hit Drop High.wav
448,192,27588,1,0,0:0:0:0:
320,192,28011,1,0,0:0:0:35:LR_Drum Kick Low.wav
448,192,28433,1,0,0:0:0:30:LR_Drum Hit Drop High.wav
64,192,28433,1,0,0:0:0:0:
192,192,28644,1,0,0:0:0:50:LR_Tom Hit.wav
448,192,28856,1,0,0:0:0:30:LR_Drum Soft Med Finish.wav
320,192,28856,1,0,0:0:0:35:LR_Drum Kick Low.wav
64,192,29278,1,0,0:0:0:30:LR_Drum Hit Drop High.wav
192,192,29278,1,0,0:0:0:0:
448,192,29701,1,0,0:0:0:35:LR_Drum Kick Low.wav
64,192,30123,1,0,0:0:0:30:LR_Drum Hit Drop High.wav
320,192,30123,1,0,0:0:0:0:
448,192,30335,1,0,0:0:0:35:LR_Drum Hit Drop High.wav
192,192,30546,1,0,0:0:0:35:LR_Drum Kick Low.wav
448,192,30968,1,0,0:0:0:30:LR_Drum Hit Drop High.wav
320,192,30968,1,0,0:0:0:0:
64,192,31391,1,0,0:0:0:35:LR_Drum Kick Low.wav
448,192,31814,1,0,0:0:0:30:LR_Drum Hit Drop High.wav
192,192,31814,1,0,0:0:0:0:
320,192,32236,1,0,0:0:0:35:LR_Drum Kick Low.wav
64,192,32659,1,0,0:0:0:30:LR_Drum Hit Drop High.wav
192,192,32659,1,0,0:0:0:0:
448,192,33081,1,0,0:0:0:35:LR_Drum Kick Low.wav
64,192,33504,1,0,0:0:0:30:LR_Drum Hit Drop High.wav
320,192,33504,1,0,0:0:0:0:
192,192,33715,1,0,0:0:0:35:LR_Drum Hit Echo.wav
320,192,33926,1,0,0:0:0:35:LR_Drum Kick Low.wav
448,192,33926,1,0,0:0:0:30:LR_Drum Soft Med Finish.wav
64,192,34349,128,0,34771:0:0:0:35:LR_Drum Rpd Fast.wav
320,192,34771,128,0,35194:0:0:0:35:LR_Drum Rpd Fast.wav
64,192,35194,1,0,0:0:0:35:LR_Drum Kick Wet Fast.wav
448,192,35194,1,0,0:0:0:30:LR_Drum Soft Med Finish.wav
192,192,35616,1,0,0:0:0:35:LR_Drum Hit Beat Long.wav
320,192,35616,1,0,0:0:0:0:
448,192,35828,1,0,0:0:0:40:LR_Drum Hit Drop High.wav
192,192,36039,1,0,0:0:0:35:LR_Drum Hit Beat Long.wav
448,192,36250,1,0,0:0:0:40:LR_Drum Hit Drop High.wav
64,192,36461,1,0,0:0:0:35:LR_Drum Hit Beat Long.wav
320,192,36673,1,0,0:0:0:40:LR_Drum Hit Drop High.wav
64,192,36884,1,0,0:0:0:35:LR_Drum Hit Beat Long.wav
320,192,37095,1,0,0:0:0:40:LR_Drum Hit Drop High.wav
192,192,37306,1,0,0:0:0:35:LR_Drum Hit Beat Long.wav
448,192,37518,1,0,0:0:0:40:LR_Drum Hit Drop High.wav
192,192,37729,1,0,0:0:0:35:LR_Drum Hit Beat Long.wav
448,192,37940,1,0,0:0:0:40:LR_Drum Hit Drop High.wav
64,192,38152,1,0,0:0:0:35:LR_Drum Hit Beat Long.wav
320,192,38363,1,0,0:0:0:40:LR_Drum Hit Drop High.wav
64,192,38574,1,0,0:0:0:35:LR_Drum Hit Beat Long.wav
320,192,38785,1,0,0:0:0:40:LR_Drum Hit Drop High.wav
192,192,38997,1,0,0:0:0:35:LR_Drum Hit Beat Long.wav
448,192,39208,1,0,0:0:0:40:LR_Drum Hit Drop High.wav
320,192,39419,1,0,0:0:0:35:LR_Drum Hit Beat Long.wav
64,192,39630,1,0,0:0:0:40:LR_Drum Hit Drop High.wav
192,192,39842,1,0,0:0:0:35:LR_Drum Hit Beat Long.wav
448,192,40053,1,0,0:0:0:40:LR_Drum Hit Drop High.wav
320,192,40264,1,0,0:0:0:35:LR_Drum Hit Beat Long.wav
64,192,40475,1,0,0:0:0:40:LR_Drum Hit Drop High.wav
192,192,40687,128,0,41109:0:0:0:35:LR_Drum Rpd Fast.wav
448,192,41109,128,0,41532:0:0:0:35:LR_Drum Rpd Fast.wav
64,192,41532,1,0,0:0:0:35:LR_Tom Hit.wav
320,192,41743,1,0,0:0:0:35:LR_Tom Hit.wav
192,192,41954,1,0,0:0:0:70:LR_Tom Hit 3.wav
64,192,42166,1,0,0:0:0:70:LR_Tom Hit 3.wav
448,192,42377,1,0,0:0:0:35:LR_Drum Kick Low.wav
320,192,42694,1,0,0:0:0:35:LR_Drum Kick Low.wav
192,192,43011,1,0,0:0:0:35:LR_Drum Kick Low.wav
64,192,43222,1,0,0:0:0:30:LR_Drum Hit Echo.wav
448,192,43222,1,0,0:0:0:30:LR_Drum Hit Echo.wav
64,192,44067,1,0,0:0:0:35:LR_Drum Kick Low.wav
192,192,44384,1,0,0:0:0:35:LR_Drum Kick Low.wav
320,192,44701,1,0,0:0:0:35:LR_Drum Kick Low.wav
64,192,44912,1,0,0:0:0:30:LR_Drum Hit Echo.wav
448,192,44912,1,0,0:0:0:30:LR_Drum Hit Echo.wav
192,192,45757,1,0,0:0:0:35:LR_Drum Kick Low.wav
320,192,46074,1,0,0:0:0:35:LR_Drum Kick Low.wav
320,192,46391,1,0,0:0:0:35:LR_Drum Kick Low.wav
64,192,46602,1,0,0:0:0:30:LR_Drum Hit Echo.wav
448,192,46602,1,0,0:0:0:0:
64,192,47025,1,0,0:0:0:30:LR_Drum Hit Echo.wav
448,192,47025,1,0,0:0:0:0:
448,192,47447,128,0,47870:0:0:0:30:LR_Drum Hit Echo.wav
192,192,47447,1,0,0:0:0:0:
320,192,47870,1,0,0:0:0:30:LR_Drum Hit Echo.wav
64,192,47870,1,0,0:0:0:0:
64,192,49137,1,0,0:0:0:35:LR_Drum Kick Low.wav
320,192,49137,1,0,0:0:0:30:LR_Drum Soft Med Finish.wav
448,192,49349,1,0,0:0:0:40:LR_Drum Hit Drop High.wav
192,192,49560,1,0,0:0:0:35:LR_Drum Kick Low.wav
320,192,49771,1,0,0:0:0:40:LR_Drum Hit Drop High.wav
64,192,49983,1,0,0:0:0:35:LR_Drum Kick Low.wav
448,192,50194,1,0,0:0:0:40:LR_Drum Hit Drop High.wav
192,192,50405,1,0,0:0:0:35:LR_Drum Kick Low.wav
320,192,50616,1,0,0:0:0:40:LR_Drum Hit Drop High.wav
64,192,50828,1,0,0:0:0:35:LR_Drum Kick Low.wav
192,192,51039,1,0,0:0:0:40:LR_Drum Hit Drop High.wav
448,192,51250,1,0,0:0:0:35:LR_Drum Kick Low.wav
320,192,51461,1,0,0:0:0:40:LR_Drum Hit Drop High.wav
64,192,51673,1,0,0:0:0:35:LR_Drum Kick Low.wav
192,192,51884,1,0,0:0:0:40:LR_Drum Hit Drop High.wav
448,192,52095,1,0,0:0:0:35:LR_Drum Kick Low.wav
320,192,52306,1,0,0:0:0:40:LR_Drum Hit Drop High.wav
64,192,52518,1,0,0:0:0:35:LR_Drum Kick Low.wav
448,192,52729,1,0,0:0:0:40:LR_Drum Hit Drop High.wav
320,192,52940,1,0,0:0:0:35:LR_Drum Kick Low.wav
192,192,53152,1,0,0:0:0:40:LR_Drum Hit Drop High.wav
64,192,53363,1,0,0:0:0:35:LR_Drum Kick Low.wav
448,192,53574,1,0,0:0:0:40:LR_Drum Hit Drop High.wav
320,192,53785,1,0,0:0:0:35:LR_Drum Kick Low.wav
192,192,53997,1,0,0:0:0:40:LR_Drum Hit Drop High.wav
448,192,54208,1,0,0:0:0:35:LR_Drum Kick Low.wav
320,192,54419,1,0,0:0:0:40:LR_Drum Hit Drop High.wav
64,192,54630,1,0,0:0:0:35:LR_Drum Kick Low.wav
192,192,54842,1,0,0:0:0:40:LR_Drum Hit Drop High.wav
320,192,55053,1,0,0:0:0:35:LR_Drum Kick Low.wav
448,192,55264,1,0,0:0:0:40:LR_Drum Hit Drop High.wav
64,192,55475,128,0,55898:0:0:0:45:LR_Drum Rpd x2.wav
448,192,55898,1,0,0:0:0:35:LR_Drum Kick Low.wav
320,192,56109,1,0,0:0:0:40:LR_Drum Hit Drop High.wav
64,192,56321,1,0,0:0:0:35:LR_Drum Kick Low.wav
320,192,56532,1,0,0:0:0:40:LR_Drum Hit Drop High.wav
192,192,56743,1,0,0:0:0:35:LR_Drum Kick Low.wav
448,192,56954,1,0,0:0:0:40:LR_Drum Hit Drop High.wav
192,192,57166,1,0,0:0:0:35:LR_Drum Kick Low.wav
448,192,57377,1,0,0:0:0:40:LR_Drum Hit Drop High.wav
64,192,57588,1,0,0:0:0:35:LR_Drum Kick Low.wav
320,192,57799,1,0,0:0:0:40:LR_Drum Hit Drop High.wav
64,192,58011,1,0,0:0:0:35:LR_Drum Kick Low.wav
320,192,58222,1,0,0:0:0:40:LR_Drum Hit Drop High.wav
192,192,58433,1,0,0:0:0:35:LR_Drum Kick Low.wav
448,192,58644,1,0,0:0:0:40:LR_Drum Hit Drop High.wav
192,192,58856,1,0,0:0:0:35:LR_Drum Kick Low.wav
448,192,59067,1,0,0:0:0:40:LR_Drum Hit Drop High.wav
320,192,59278,1,0,0:0:0:35:LR_Drum Kick Low.wav
64,192,59490,1,0,0:0:0:40:LR_Drum Hit Drop High.wav
448,192,59701,1,0,0:0:0:35:LR_Drum Kick Low.wav
192,192,59912,1,0,0:0:0:40:LR_Drum Hit Drop High.wav
64,192,60123,1,0,0:0:0:35:LR_Drum Kick Low.wav
320,192,60335,1,0,0:0:0:40:LR_Drum Hit Drop High.wav
192,192,60546,1,0,0:0:0:35:LR_Drum Kick Low.wav
448,192,60757,1,0,0:0:0:40:LR_Drum Hit Drop High.wav
64,192,60968,1,0,0:0:0:35:LR_Drum Kick Low.wav
192,192,61180,1,0,0:0:0:40:LR_Drum Hit Drop High.wav
448,192,61391,1,0,0:0:0:35:LR_Drum Hit Beat Long.wav
320,192,61602,1,0,0:0:0:35:LR_Drum Hit Clap Sn.wav
64,192,61814,1,0,0:0:0:35:LR_Drum Hit Beat Long.wav
320,192,62025,1,0,0:0:0:35:LR_Drum Hit Clap Sn.wav
192,192,62236,1,0,0:0:0:35:LR_Drum Rpd Fast.wav
448,192,62447,1,0,0:0:0:35:LR_Drum Hit Clap Sn.wav
64,192,62659,1,0,0:0:0:35:LR_Drum Kick Wet Fast.wav
192,192,62870,1,0,0:0:0:35:LR_Drum Kick Wet Fast.wav
320,192,63081,1,0,0:0:0:35:LR_Drum Kick Wet Fast.wav
448,192,63292,1,0,0:0:0:35:LR_Drum Kick Wet Fast.wav
64,192,63504,1,0,0:0:0:30:LR_Drum Hit Echo.wav
320,192,63504,1,0,0:0:0:0:
64,192,64137,1,0,0:0:0:45:LR_Drum Rpd x2.wav
448,192,64349,1,0,0:0:0:35:LR_Drum Kick Wet Fast.wav
320,192,64560,1,0,0:0:0:35:LR_Drum Kick Wet Fast.wav
192,192,64771,1,0,0:0:0:35:LR_Drum Kick Wet Fast.wav
64,192,64983,1,0,0:0:0:35:LR_Drum Kick Wet Fast.wav
448,192,65194,1,0,0:0:0:30:LR_Drum Hit Echo.wav
192,192,65194,1,0,0:0:0:0:
448,192,65828,1,0,0:0:0:45:LR_Drum Rpd x2.wav
320,192,66039,1,0,0:0:0:35:LR_Drum Kick Wet Fast.wav
320,192,66356,1,0,0:0:0:35:LR_Drum Kick Wet Fast.wav
64,192,66673,1,0,0:0:0:45:LR_Drum Rpd x2.wav
448,192,66884,1,0,0:0:0:30:LR_Drum Hit Echo.wav
192,192,66884,1,0,0:0:0:0:
192,192,67201,1,0,0:0:0:35:LR_Drum Kick Wet Fast.wav
320,192,67518,1,0,0:0:0:45:LR_Drum Rpd x2.wav
64,192,67729,1,0,0:0:0:35:LR_Drum Kick Wet Fast.wav
64,192,68046,1,0,0:0:0:35:LR_Drum Kick Wet Fast.wav
320,192,68363,1,0,0:0:0:45:LR_Drum Rpd x2.wav
448,192,68574,1,0,0:0:0:30:LR_Drum Hit Echo.wav
192,192,68574,1,0,0:0:0:0:
320,192,68891,1,0,0:0:0:35:LR_Drum Rpd Fast.wav
64,192,69208,1,0,0:0:0:45:LR_Drum Rpd x2.wav
448,192,69419,1,0,0:0:0:35:LR_Drum Kick Wet Fast.wav
320,192,69630,1,0,0:0:0:35:LR_Drum Kick Wet Fast.wav
192,192,69842,1,0,0:0:0:35:LR_Drum Kick Wet Fast.wav
64,192,70053,1,0,0:0:0:35:LR_Drum Kick Wet Fast.wav
448,192,70264,1,0,0:0:0:30:LR_Drum Hit Echo.wav
192,192,70264,1,0,0:0:0:0:
448,192,70898,1,0,0:0:0:45:LR_Drum Rpd x2.wav
64,192,71109,1,0,0:0:0:35:LR_Drum Kick Wet Fast.wav
192,192,71321,1,0,0:0:0:35:LR_Drum Kick Wet Fast.wav
320,192,71532,1,0,0:0:0:35:LR_Drum Kick Wet Fast.wav
448,192,71743,1,0,0:0:0:35:LR_Drum Kick Wet Fast.wav
64,192,71954,1,0,0:0:0:30:LR_Drum Hit Echo.wav
320,192,71954,1,0,0:0:0:0:
192,192,72377,128,0,72799:0:0:0:35:LR_Drum Rpd Fast.wav
320,192,72799,1,0,0:0:0:35:LR_Drum Kick Wet Fast.wav
448,192,72799,1,0,0:0:0:20:LR_Drum Hit Soft Normal.wav
64,192,73116,1,0,0:0:0:35:LR_Drum Hit Clap Sn.wav
192,192,73116,1,0,0:0:0:0:
320,192,73433,1,0,0:0:0:35:LR_Drum Kick Wet Fast.wav
448,192,73433,1,0,0:0:0:20:LR_Drum Hit Soft Normal.wav
64,192,73750,1,0,0:0:0:35:LR_Drum Hit Clap Sn.wav
192,192,73750,1,0,0:0:0:0:
448,192,74067,128,0,74490:0:0:0:35:LR_Drum Rpd Fast.wav
64,192,74490,1,0,0:0:0:20:LR_Drum Hit Soft Normal.wav
192,192,74490,1,0,0:0:0:35:LR_Drum Kick Wet Fast.wav
64,192,76180,1,0,0:0:0:35:LR_Drum Kick Low.wav
448,192,76180,1,0,0:0:0:30:LR_Drum Soft Med Finish.wav
320,192,76391,1,0,0:0:0:40:LR_Drum Hit Drop High.wav
64,192,76602,1,0,0:0:0:35:LR_Drum Kick Low.wav
320,192,76814,1,0,0:0:0:40:LR_Drum Hit Drop High.wav
64,192,77025,1,0,0:0:0:35:LR_Drum Kick Low.wav
320,192,77236,1,0,0:0:0:40:LR_Drum Hit Drop High.wav
64,192,77447,1,0,0:0:0:35:LR_Drum Kick Low.wav
320,192,77659,1,0,0:0:0:40:LR_Drum Hit Drop High.wav
448,192,77870,1,0,0:0:0:35:LR_Drum Kick Low.wav
192,192,78081,1,0,0:0:0:40:LR_Drum Hit Drop High.wav
448,192,78292,1,0,0:0:0:35:LR_Drum Kick Low.wav
192,192,78504,1,0,0:0:0:40:LR_Drum Hit Drop High.wav
448,192,78715,1,0,0:0:0:35:LR_Drum Kick Low.wav
192,192,78926,1,0,0:0:0:40:LR_Drum Hit Drop High.wav
448,192,79137,1,0,0:0:0:35:LR_Drum Kick Low.wav
192,192,79349,1,0,0:0:0:40:LR_Drum Hit Drop High.wav
320,192,79560,1,0,0:0:0:35:LR_Drum Kick Low.wav
64,192,79771,1,0,0:0:0:40:LR_Drum Hit Drop High.wav
448,192,79983,1,0,0:0:0:35:LR_Drum Kick Low.wav
192,192,80194,1,0,0:0:0:40:LR_Drum Hit Drop High.wav
320,192,80405,1,0,0:0:0:35:LR_Drum Kick Low.wav
64,192,80616,1,0,0:0:0:40:LR_Drum Hit Drop High.wav
448,192,80828,1,0,0:0:0:35:LR_Drum Kick Low.wav
192,192,81039,1,0,0:0:0:40:LR_Drum Hit Drop High.wav
64,192,81250,1,0,0:0:0:35:LR_Drum Kick Low.wav
448,192,81461,1,0,0:0:0:40:LR_Drum Hit Drop High.wav
192,192,81673,1,0,0:0:0:35:LR_Drum Kick Low.wav
320,192,81884,1,0,0:0:0:40:LR_Drum Hit Drop High.wav
64,192,82095,1,0,0:0:0:35:LR_Drum Kick Low.wav
448,192,82306,1,0,0:0:0:40:LR_Drum Hit Drop High.wav
192,192,82518,128,0,82940:0:0:0:45:LR_Drum Rpd x2.wav
320,192,82940,1,0,0:0:0:35:LR_Drum Kick Low.wav
448,192,83152,1,0,0:0:0:40:LR_Drum Hit Drop High.wav
192,192,83363,1,0,0:0:0:35:LR_Drum Kick Low.wav
64,192,83574,1,0,0:0:0:40:LR_Drum Hit Drop High.wav
320,192,83785,1,0,0:0:0:35:LR_Drum Kick Low.wav
448,192,83997,1,0,0:0:0:40:LR_Drum Hit Drop High.wav
192,192,84208,1,0,0:0:0:35:LR_Drum Kick Low.wav
64,192,84419,1,0,0:0:0:40:LR_Drum Hit Drop High.wav
448,192,84630,1,0,0:0:0:35:LR_Drum Kick Low.wav
320,192,84842,1,0,0:0:0:40:LR_Drum Hit Drop High.wav
64,192,85053,1,0,0:0:0:35:LR_Drum Kick Low.wav
192,192,85264,1,0,0:0:0:40:LR_Drum Hit Drop High.wav
448,192,85475,1,0,0:0:0:35:LR_Drum Kick Low.wav
320,192,85687,1,0,0:0:0:40:LR_Drum Hit Drop High.wav
64,192,85898,128,0,86321:0:0:0:45:LR_Drum Rpd x2.wav
448,192,86321,128,0,86743:0:0:0:0:
192,192,86321,1,0,0:0:0:35:LR_Drum Hit Beat Long.wav
448,192,88856,1,0,0:0:0:30:LR_Drum Hit Echo.wav
64,192,88856,1,0,0:0:0:30:LR_Drum Hit Echo.wav
320,192,89067,1,0,0:0:0:35:LR_Drum Hit Beat Long.wav
192,192,89278,1,0,0:0:0:35:LR_Drum Hit Beat Long.wav
64,192,89490,1,0,0:0:0:35:LR_Drum Hit Beat Long.wav
192,192,89701,128,0,90546:0:0:0:35:LR_Drum Crush FInish.wav
448,192,89701,128,0,90546:0:0:0:35:LR_Drum Hit Echo.wav
