osu file format v14

[General]
AudioFilename: audio.mp3
AudioLeadIn: 0
PreviewTime: 100737
Countdown: 1
SampleSet: Normal
StackLeniency: 0.7
Mode: 1
LetterboxInBreaks: 0
WidescreenStoryboard: 1

[Editor]
Bookmarks: 125455
DistanceSpacing: 1
BeatDivisor: 2
GridSize: 4
TimelineZoom: 2.3

[Metadata]
Title:Kyouran Hey Kids!!
TitleUnicode:Kyouran Hey Kids!!
Artist:THE ORAL CIGARETTES
ArtistUnicode:THE ORAL CIGARETTES
Creator:TimmyAkmed
Version:Collab Oni
Source:ノラガミ ARAGOTO
Tags:Aragoto long streams high bpm
BeatmapID:1297164
BeatmapSetID:614941

[Difficulty]
HPDrainRate:6
CircleSize:5
OverallDifficulty:6.5
ApproachRate:5
SliderMultiplier:1.4
SliderTickRate:1

[Events]
//Background and Video events
0,0,"AragotoBG.jpg",0,100
//Break Periods
//Storyboard Layer 0 (Background)
//Storyboard Layer 1 (Fail)
//Storyboard Layer 2 (Pass)
//Storyboard Layer 3 (Foreground)
//Storyboard Sound Samples

[TimingPoints]
385,211.267605633803,4,1,0,70,1,0
47708,-100,4,1,0,70,0,1
71370,-100,4,1,0,70,0,0
101793,-100,4,1,0,70,0,1
125455,-100,4,1,0,70,0,0
128835,-200,4,1,0,70,0,0
138554,-100,4,1,0,70,0,0
193061,-100,4,1,0,70,0,1
226863,-100,4,1,0,70,0,0
245032,-53.1914893617021,4,1,0,70,0,1
245244,-53.1914893617021,4,1,0,70,0,0

[HitObjects]
88,88,385,5,0,0:0:0:0:
96,148,701,1,0,0:0:0:0:
16,152,807,1,8,0:0:0:0:
96,148,1018,1,0,0:0:0:0:
72,152,1230,1,8,0:0:0:0:
72,152,1441,1,8,0:0:0:0:
72,152,1652,1,0,0:0:0:0:
76,156,1863,1,8,0:0:0:0:
72,152,2075,1,0,0:0:0:0:
48,176,2392,1,0,0:0:0:0:
48,176,2497,1,8,0:0:0:0:
312,212,2708,1,0,0:0:0:0:
312,212,2920,1,8,0:0:0:0:
312,212,3131,1,8,0:0:0:0:
312,212,3342,1,0,0:0:0:0:
312,212,3554,1,8,0:0:0:0:
312,212,3765,1,0,0:0:0:0:
312,212,4082,1,0,0:0:0:0:
312,212,4187,1,8,0:0:0:0:
424,260,4399,1,0,0:0:0:0:
424,260,4610,1,8,0:0:0:0:
424,260,4821,1,8,0:0:0:0:
424,260,5032,1,0,0:0:0:0:
424,260,5138,1,0,0:0:0:0:
424,260,5244,1,8,0:0:0:0:
332,144,5296,1,8,0:0:0:0:
312,140,5349,1,8,0:0:0:0:
192,156,5455,1,4,0:0:0:0:
60,200,5877,1,0,0:0:0:0:
60,200,6089,1,8,0:0:0:0:
60,200,6194,1,0,0:0:0:0:
60,200,6300,1,8,0:0:0:0:
60,200,6511,1,8,0:0:0:0:
60,200,6723,1,4,0:0:0:0:
192,148,7145,1,12,0:0:0:0:
192,148,7251,1,0,0:0:0:0:
192,148,7356,1,8,0:0:0:0:
192,148,7462,1,8,0:0:0:0:
192,148,7568,1,0,0:0:0:0:
192,148,7620,1,0,0:0:0:0:
192,148,7673,1,0,0:0:0:0:
192,148,7779,1,8,0:0:0:0:
148,148,7885,1,8,0:0:0:0:
148,148,7990,1,0,0:0:0:0:
148,148,8096,1,8,0:0:0:0:
148,148,8149,1,0,0:0:0:0:
148,148,8201,1,8,0:0:0:0:
148,148,8307,1,8,0:0:0:0:
148,148,8413,1,0,0:0:0:0:
148,148,8518,1,0,0:0:0:0:
144,152,8571,1,0,0:0:0:0:
144,152,8624,1,8,0:0:0:0:
144,152,8730,1,8,0:0:0:0:
144,152,8835,1,0,0:0:0:0:
144,152,8941,1,8,0:0:0:0:
144,152,9046,1,0,0:0:0:0:
140,120,9152,1,8,0:0:0:0:
140,120,9205,1,8,0:0:0:0:
140,120,9258,1,0,0:0:0:0:
140,120,9363,1,0,0:0:0:0:
380,252,9416,1,0,0:0:0:0:
140,120,9469,1,8,0:0:0:0:
236,140,9575,1,8,0:0:0:0:
236,140,9680,1,0,0:0:0:0:
236,140,9786,1,0,0:0:0:0:
236,140,9892,1,8,0:0:0:0:
236,140,9997,1,8,0:0:0:0:
236,140,10050,1,8,0:0:0:0:
236,140,10103,1,0,0:0:0:0:
236,140,10208,1,0,0:0:0:0:
236,140,10261,1,0,0:0:0:0:
236,140,10314,1,8,0:0:0:0:
236,140,10420,1,8,0:0:0:0:
236,140,10525,1,0,0:0:0:0:
236,140,10631,1,8,0:0:0:0:
236,140,10737,1,0,0:0:0:0:
236,140,10842,1,8,0:0:0:0:
236,140,10948,1,0,0:0:0:0:
236,140,11054,1,0,0:0:0:0:
236,140,11106,1,0,0:0:0:0:
236,140,11159,1,8,0:0:0:0:
236,140,11265,1,8,0:0:0:0:
236,140,11370,1,0,0:0:0:0:
236,140,11476,1,8,0:0:0:0:
236,140,11529,1,8,0:0:0:0:
236,140,11582,1,0,0:0:0:0:
236,140,11687,1,8,0:0:0:0:
236,140,11793,1,0,0:0:0:0:
236,140,11899,1,0,0:0:0:0:
236,140,11951,1,0,0:0:0:0:
236,140,12004,1,8,0:0:0:0:
236,140,12110,1,8,0:0:0:0:
236,140,12215,1,0,0:0:0:0:
100,148,12321,1,8,0:0:0:0:
236,140,12427,1,0,0:0:0:0:
4,148,12480,1,0,0:0:0:0:
192,208,12532,1,8,0:0:0:0:
192,208,12638,1,0,0:0:0:0:
192,208,12744,1,0,0:0:0:0:
192,208,12796,1,0,0:0:0:0:
192,208,12849,1,8,0:0:0:0:
192,208,12955,1,8,0:0:0:0:
192,208,13061,1,0,0:0:0:0:
216,148,13166,1,8,0:0:0:0:
216,148,13272,1,0,0:0:0:0:
216,140,13325,1,0,0:0:0:0:
216,148,13377,1,8,0:0:0:0:
216,148,13430,1,0,0:0:0:0:
216,148,13483,1,8,0:0:0:0:
216,140,13589,1,8,0:0:0:0:
216,140,13694,1,8,0:0:0:0:
216,140,13800,1,8,0:0:0:0:
216,140,13853,1,8,0:0:0:0:
216,140,13906,1,0,0:0:0:0:
156,116,14011,1,8,0:0:0:0:
156,116,14117,1,0,0:0:0:0:
156,116,14223,1,0,0:0:0:0:
156,116,14328,1,8,0:0:0:0:
156,116,14434,1,0,0:0:0:0:
156,116,14487,1,0,0:0:0:0:
156,116,14539,1,8,0:0:0:0:
156,140,14645,1,8,0:0:0:0:
156,140,14751,1,0,0:0:0:0:
164,136,14856,1,8,0:0:0:0:
164,136,14909,1,8,0:0:0:0:
168,136,14962,1,0,0:0:0:0:
168,136,15068,1,8,0:0:0:0:
168,136,15173,1,0,0:0:0:0:
168,136,15279,1,0,0:0:0:0:
168,136,15332,1,0,0:0:0:0:
168,136,15385,1,8,0:0:0:0:
168,136,15490,1,8,0:0:0:0:
164,136,15596,1,0,0:0:0:0:
168,136,15701,1,8,0:0:0:0:
168,136,15807,1,0,0:0:0:0:
168,136,15860,1,0,0:0:0:0:
168,136,15913,1,8,0:0:0:0:
168,136,15965,1,8,0:0:0:0:
168,136,16018,1,0,0:0:0:0:
160,160,16124,1,0,0:0:0:0:
160,160,16230,1,8,0:0:0:0:
160,160,16335,1,8,0:0:0:0:
160,160,16388,1,8,0:0:0:0:
160,160,16441,1,0,0:0:0:0:
160,160,16546,1,0,0:0:0:0:
160,160,16652,1,8,0:0:0:0:
184,128,16758,1,8,0:0:0:0:
184,128,16863,1,0,0:0:0:0:
184,128,16969,1,0,0:0:0:0:
184,128,17022,1,0,0:0:0:0:
184,128,17075,1,8,0:0:0:0:
184,128,17286,1,0,0:0:0:0:
12,156,17392,1,0,0:0:0:0:
52,152,17497,1,8,0:0:0:0:
104,144,17603,1,0,0:0:0:0:
104,144,17708,1,0,0:0:0:0:
96,140,17761,1,0,0:0:0:0:
96,140,17814,1,0,0:0:0:0:
164,140,17867,1,0,0:0:0:0:
164,140,17920,1,8,0:0:0:0:
164,140,18025,1,8,0:0:0:0:
164,140,18131,1,0,0:0:0:0:
164,140,18237,1,8,0:0:0:0:
164,140,18289,1,8,0:0:0:0:
164,140,18342,1,0,0:0:0:0:
164,140,18448,1,0,0:0:0:0:
164,140,18501,1,0,0:0:0:0:
164,140,18554,1,8,0:0:0:0:
164,140,18659,1,0,0:0:0:0:
164,140,18765,1,8,0:0:0:0:
60,144,18870,1,8,0:0:0:0:
72,144,18976,1,0,0:0:0:0:
72,140,19082,1,0,0:0:0:0:
72,140,19187,1,8,0:0:0:0:
132,136,19240,1,8,0:0:0:0:
132,136,19293,1,8,0:0:0:0:
132,136,19399,1,0,0:0:0:0:
132,136,19504,1,0,0:0:0:0:
132,136,19610,1,8,0:0:0:0:
132,136,19715,1,8,0:0:0:0:
132,136,19821,1,0,0:0:0:0:
132,136,19927,1,0,0:0:0:0:
132,136,19980,1,0,0:0:0:0:
132,136,20032,1,8,0:0:0:0:
132,136,20085,1,8,0:0:0:0:
132,136,20138,1,8,0:0:0:0:
132,136,20191,1,8,0:0:0:0:
132,136,20244,1,0,0:0:0:0:
132,136,20349,1,0,0:0:0:0:
132,136,20402,1,0,0:0:0:0:
132,136,20455,1,8,0:0:0:0:
132,136,20508,1,0,0:0:0:0:
132,136,20561,1,8,0:0:0:0:
132,136,20613,1,8,0:0:0:0:
132,136,20666,1,0,0:0:0:0:
176,168,20877,1,8,0:0:0:0:
176,168,20983,1,8,0:0:0:0:
176,168,21089,1,0,0:0:0:0:
176,168,21194,1,0,0:0:0:0:
184,168,21300,1,8,0:0:0:0:
304,216,21511,1,0,0:0:0:0:
304,216,21617,1,0,0:0:0:0:
304,216,21723,1,8,0:0:0:0:
304,216,21828,1,8,0:0:0:0:
304,216,21934,1,4,0:0:0:0:
332,272,22145,1,4,0:0:0:0:
332,272,22251,1,0,0:0:0:0:
316,264,22356,1,4,0:0:0:0:
92,208,22568,1,8,0:0:0:0:
100,204,22673,1,8,0:0:0:0:
100,204,22779,1,0,0:0:0:0:
100,204,22885,1,0,0:0:0:0:
100,204,22990,1,8,0:0:0:0:
100,204,23201,1,0,0:0:0:0:
92,208,23307,1,8,0:0:0:0:
96,204,23413,1,8,0:0:0:0:
96,204,23518,1,8,0:0:0:0:
96,204,23624,1,0,0:0:0:0:
100,204,23835,1,8,0:0:0:0:
92,208,23941,1,8,0:0:0:0:
92,208,24046,1,0,0:0:0:0:
92,208,24258,1,8,0:0:0:0:
92,208,24363,1,8,0:0:0:0:
92,208,24469,1,0,0:0:0:0:
92,208,24680,1,8,0:0:0:0:
92,208,24892,1,0,0:0:0:0:
436,256,24997,1,8,0:0:0:0:
436,256,25208,1,8,0:0:0:0:
436,256,25314,1,0,0:0:0:0:
436,256,25525,1,0,0:0:0:0:
436,256,25631,1,0,0:0:0:0:
436,256,25737,1,4,0:0:0:0:
144,180,25948,1,8,0:0:0:0:
156,176,26054,1,8,0:0:0:0:
156,176,26159,1,0,0:0:0:0:
148,180,26265,1,8,0:0:0:0:
152,180,26370,1,8,0:0:0:0:
152,180,26476,1,8,0:0:0:0:
152,180,26582,1,0,0:0:0:0:
152,184,26793,1,8,0:0:0:0:
136,168,26899,1,8,0:0:0:0:
136,168,27004,1,0,0:0:0:0:
136,172,27215,1,0,0:0:0:0:
136,172,27321,1,0,0:0:0:0:
136,172,27427,1,4,0:0:0:0:
56,192,27638,1,8,0:0:0:0:
68,196,27744,1,8,0:0:0:0:
68,196,27796,1,8,0:0:0:0:
68,196,27849,1,0,0:0:0:0:
68,196,28061,1,8,0:0:0:0:
88,200,28166,1,8,0:0:0:0:
88,200,28272,1,0,0:0:0:0:
88,200,28377,1,8,0:0:0:0:
120,160,28483,1,8,0:0:0:0:
88,200,28694,1,4,0:0:0:0:
56,152,28906,1,0,0:0:0:0:
60,152,29011,1,0,0:0:0:0:
60,152,29117,1,4,0:0:0:0:
176,188,29328,1,8,0:0:0:0:
176,196,29434,1,8,0:0:0:0:
176,196,29539,1,0,0:0:0:0:
172,196,29645,1,8,0:0:0:0:
172,200,29751,1,8,0:0:0:0:
172,200,29856,1,8,0:0:0:0:
172,200,29962,1,0,0:0:0:0:
172,200,30173,1,8,0:0:0:0:
172,200,30279,1,8,0:0:0:0:
172,196,30385,1,0,0:0:0:0:
176,160,30596,1,8,0:0:0:0:
176,160,30701,1,8,0:0:0:0:
176,160,30807,1,0,0:0:0:0:
144,164,30860,1,0,0:0:0:0:
152,164,30913,1,8,0:0:0:0:
176,160,31018,1,8,0:0:0:0:
176,160,31124,1,0,0:0:0:0:
176,160,31230,1,4,0:0:0:0:
220,236,31335,1,0,0:0:0:0:
220,236,31388,1,0,0:0:0:0:
240,188,31441,1,8,0:0:0:0:
224,244,31546,1,8,0:0:0:0:
232,184,31652,1,4,0:0:0:0:
228,184,31758,1,0,0:0:0:0:
228,184,31863,1,8,0:0:0:0:
228,184,31969,1,8,0:0:0:0:
228,184,32075,1,4,0:0:0:0:
376,272,32180,1,0,0:0:0:0:
376,272,32233,1,0,0:0:0:0:
232,184,32286,1,8,0:0:0:0:
232,184,32392,1,8,0:0:0:0:
112,176,32497,1,0,0:0:0:0:
144,156,32708,1,8,0:0:0:0:
144,156,32814,1,8,0:0:0:0:
144,156,32920,1,0,0:0:0:0:
144,156,33025,1,0,0:0:0:0:
144,156,33131,1,0,0:0:0:0:
144,156,33237,1,0,0:0:0:0:
144,156,33342,1,8,0:0:0:0:
224,240,33395,1,8,0:0:0:0:
144,156,33448,1,0,0:0:0:0:
224,240,33501,1,0,0:0:0:0:
144,156,33554,1,0,0:0:0:0:
224,240,33606,1,0,0:0:0:0:
144,156,33659,1,0,0:0:0:0:
224,240,33712,1,0,0:0:0:0:
144,156,33765,1,8,0:0:0:0:
160,168,33818,1,8,0:0:0:0:
168,172,33870,1,8,0:0:0:0:
168,172,33923,1,8,0:0:0:0:
168,172,33976,1,8,0:0:0:0:
168,172,34029,1,8,0:0:0:0:
168,172,34082,1,8,0:0:0:0:
168,172,34135,1,8,0:0:0:0:
168,172,34187,1,0,0:0:0:0:
212,184,34293,1,0,0:0:0:0:
212,184,34399,1,8,0:0:0:0:
212,184,34504,1,8,0:0:0:0:
212,184,34610,1,0,0:0:0:0:
212,184,34663,1,8,0:0:0:0:
212,184,34715,1,0,0:0:0:0:
212,184,34768,1,0,0:0:0:0:
212,184,34821,1,8,0:0:0:0:
212,184,34927,1,8,0:0:0:0:
212,184,35032,1,0,0:0:0:0:
212,184,35085,1,8,0:0:0:0:
212,184,35191,1,8,0:0:0:0:
212,184,35244,1,0,0:0:0:0:
212,184,35349,1,8,0:0:0:0:
212,184,35455,1,0,0:0:0:0:
212,184,35561,1,0,0:0:0:0:
212,184,35666,1,8,0:0:0:0:
52,168,35772,1,0,0:0:0:0:
208,180,35877,1,8,0:0:0:0:
200,168,35930,1,0,0:0:0:0:
208,180,36036,1,0,0:0:0:0:
208,180,36089,1,8,0:0:0:0:
208,180,36194,1,8,0:0:0:0:
208,180,36300,1,0,0:0:0:0:
208,180,36353,1,8,0:0:0:0:
208,180,36406,1,0,0:0:0:0:
208,180,36458,1,0,0:0:0:0:
208,180,36511,1,8,0:0:0:0:
184,152,36617,1,8,0:0:0:0:
184,152,36723,1,0,0:0:0:0:
188,156,36828,1,0,0:0:0:0:
180,160,36881,1,0,0:0:0:0:
188,156,36934,1,8,0:0:0:0:
180,160,37039,1,8,0:0:0:0:
180,160,37145,1,0,0:0:0:0:
180,232,37198,1,0,0:0:0:0:
180,160,37251,1,0,0:0:0:0:
184,152,37356,1,8,0:0:0:0:
184,152,37462,1,0,0:0:0:0:
184,156,37568,1,8,0:0:0:0:
180,160,37620,1,0,0:0:0:0:
184,156,37726,1,0,0:0:0:0:
180,160,37779,1,8,0:0:0:0:
180,160,37885,1,8,0:0:0:0:
180,160,37990,1,0,0:0:0:0:
180,164,38096,1,0,0:0:0:0:
180,164,38149,1,0,0:0:0:0:
180,164,38201,1,8,0:0:0:0:
160,200,38307,1,8,0:0:0:0:
160,200,38413,1,8,0:0:0:0:
120,156,38465,1,0,0:0:0:0:
160,200,38571,1,0,0:0:0:0:
160,200,38624,1,8,0:0:0:0:
96,164,38730,1,8,0:0:0:0:
108,164,38835,1,0,0:0:0:0:
104,160,38941,1,0,0:0:0:0:
104,160,38994,1,0,0:0:0:0:
104,160,39046,1,8,0:0:0:0:
104,160,39152,1,8,0:0:0:0:
104,160,39258,1,0,0:0:0:0:
104,160,39311,1,0,0:0:0:0:
104,160,39363,1,0,0:0:0:0:
104,160,39416,1,0,0:0:0:0:
104,160,39469,1,8,0:0:0:0:
104,160,39575,1,8,0:0:0:0:
104,160,39627,1,8,0:0:0:0:
104,160,39680,1,0,0:0:0:0:
104,160,39786,1,0,0:0:0:0:
104,160,39839,1,0,0:0:0:0:
104,160,39892,1,8,0:0:0:0:
104,160,39944,1,0,0:0:0:0:
104,160,39997,1,8,0:0:0:0:
104,160,40050,1,8,0:0:0:0:
104,160,40103,1,0,0:0:0:0:
264,232,40314,1,8,0:0:0:0:
468,328,40525,1,0,0:0:0:0:
468,328,40737,1,8,0:0:0:0:
468,328,40948,1,0,0:0:0:0:
152,192,41265,1,0,0:0:0:0:
152,192,41370,1,8,0:0:0:0:
152,200,41582,1,0,0:0:0:0:
156,200,41687,1,0,0:0:0:0:
152,200,41793,1,8,0:0:0:0:
152,200,42215,1,8,0:0:0:0:
156,200,42427,1,8,0:0:0:0:
152,200,42532,1,8,0:0:0:0:
152,200,42638,1,0,0:0:0:0:
152,200,42955,1,0,0:0:0:0:
156,200,43061,1,8,0:0:0:0:
152,200,43272,1,0,0:0:0:0:
68,156,43377,1,0,0:0:0:0:
92,156,43483,1,8,0:0:0:0:
120,168,43800,1,8,0:0:0:0:
184,164,43906,1,8,0:0:0:0:
184,164,44117,1,8,0:0:0:0:
184,164,44223,1,8,0:0:0:0:
184,164,44328,1,0,0:0:0:0:
192,164,44539,1,8,0:0:0:0:
192,164,44645,1,0,0:0:0:0:
192,164,44962,1,0,0:0:0:0:
192,160,45068,1,0,0:0:0:0:
192,164,45173,1,8,0:0:0:0:
260,208,45490,1,0,0:0:0:0:
260,208,45596,1,8,0:0:0:0:
260,208,45913,1,0,0:0:0:0:
260,208,46018,1,8,0:0:0:0:
416,260,46071,1,0,0:0:0:0:
260,208,46124,1,8,0:0:0:0:
272,252,46177,1,8,0:0:0:0:
260,208,46230,1,0,0:0:0:0:
144,180,46282,1,8,0:0:0:0:
260,208,46335,1,0,0:0:0:0:
32,160,46388,1,0,0:0:0:0:
260,208,46441,1,8,0:0:0:0:
248,200,46652,1,0,0:0:0:0:
64,152,46863,1,8,0:0:0:0:
208,224,47180,1,8,0:0:0:0:
208,224,47286,1,0,0:0:0:0:
152,232,47497,1,0,0:0:0:0:
152,232,47603,1,8,0:0:0:0:
144,232,47708,1,0,0:0:0:0:
144,232,47761,1,8,0:0:0:0:
144,232,47814,1,0,0:0:0:0:
144,232,47867,1,0,0:0:0:0:
144,232,47920,1,8,0:0:0:0:
144,232,48025,1,8,0:0:0:0:
144,232,48131,1,0,0:0:0:0:
140,232,48184,1,0,0:0:0:0:
140,232,48237,1,0,0:0:0:0:
140,232,48289,1,0,0:0:0:0:
140,232,48342,1,8,0:0:0:0:
200,240,48395,1,8,0:0:0:0:
200,240,48448,1,8,0:0:0:0:
200,240,48501,1,8,0:0:0:0:
200,240,48554,1,0,0:0:0:0:
176,240,48659,1,0,0:0:0:0:
176,240,48765,1,8,0:0:0:0:
124,204,48870,1,8,0:0:0:0:
124,204,48923,1,8,0:0:0:0:
124,204,48976,1,0,0:0:0:0:
124,204,49082,1,0,0:0:0:0:
152,208,49135,1,0,0:0:0:0:
152,208,49187,1,8,0:0:0:0:
152,208,49293,1,8,0:0:0:0:
152,208,49399,1,0,0:0:0:0:
152,208,49451,1,0,0:0:0:0:
152,208,49504,1,0,0:0:0:0:
152,208,49557,1,0,0:0:0:0:
152,208,49610,1,8,0:0:0:0:
152,208,49715,1,8,0:0:0:0:
104,176,49821,1,0,0:0:0:0:
140,176,49874,1,0,0:0:0:0:
144,176,49927,1,0,0:0:0:0:
144,176,49980,1,0,0:0:0:0:
144,176,50032,1,8,0:0:0:0:
176,124,50138,1,8,0:0:0:0:
176,124,50244,1,8,0:0:0:0:
168,132,50296,1,0,0:0:0:0:
168,132,50402,1,0,0:0:0:0:
168,132,50455,1,8,0:0:0:0:
188,168,50561,1,8,0:0:0:0:
188,168,50666,1,0,0:0:0:0:
188,168,50772,1,0,0:0:0:0:
188,168,50825,1,0,0:0:0:0:
188,168,50877,1,8,0:0:0:0:
188,168,50983,1,8,0:0:0:0:
188,168,51036,1,8,0:0:0:0:
188,168,51089,1,0,0:0:0:0:
68,172,51194,1,0,0:0:0:0:
68,172,51300,1,8,0:0:0:0:
136,176,51406,1,8,0:0:0:0:
136,176,51511,1,0,0:0:0:0:
136,176,51564,1,8,0:0:0:0:
132,180,51617,1,0,0:0:0:0:
132,180,51670,1,0,0:0:0:0:
132,180,51723,1,8,0:0:0:0:
132,180,51828,1,8,0:0:0:0:
132,180,51881,1,8,0:0:0:0:
136,176,51934,1,0,0:0:0:0:
136,176,52039,1,0,0:0:0:0:
136,176,52092,1,0,0:0:0:0:
136,176,52145,1,8,0:0:0:0:
136,176,52251,1,8,0:0:0:0:
132,180,52356,1,0,0:0:0:0:
132,180,52409,1,0,0:0:0:0:
132,180,52462,1,8,0:0:0:0:
132,180,52515,1,0,0:0:0:0:
132,180,52568,1,8,0:0:0:0:
132,180,52620,1,8,0:0:0:0:
132,180,52673,1,0,0:0:0:0:
132,180,52726,1,8,0:0:0:0:
132,180,52779,1,0,0:0:0:0:
132,180,52885,1,0,0:0:0:0:
132,180,52990,1,8,0:0:0:0:
92,172,53096,1,8,0:0:0:0:
92,172,53201,1,0,0:0:0:0:
100,176,53307,1,0,0:0:0:0:
100,176,53360,1,0,0:0:0:0:
100,176,53413,1,8,0:0:0:0:
96,172,53465,1,8,0:0:0:0:
96,172,53518,1,0,0:0:0:0:
96,172,53624,1,0,0:0:0:0:
132,160,53730,1,0,0:0:0:0:
132,160,53782,1,0,0:0:0:0:
132,160,53835,1,8,0:0:0:0:
132,160,53941,1,8,0:0:0:0:
132,160,53994,1,8,0:0:0:0:
132,160,54046,1,0,0:0:0:0:
132,160,54099,1,8,0:0:0:0:
132,160,54152,1,0,0:0:0:0:
132,160,54205,1,0,0:0:0:0:
132,160,54258,1,8,0:0:0:0:
132,160,54311,1,0,0:0:0:0:
132,160,54363,1,8,0:0:0:0:
128,156,54416,1,8,0:0:0:0:
128,156,54469,1,0,0:0:0:0:
120,160,54575,1,0,0:0:0:0:
120,160,54680,1,8,0:0:0:0:
120,160,54786,1,8,0:0:0:0:
124,156,54839,1,8,0:0:0:0:
120,160,54892,1,0,0:0:0:0:
124,156,54997,1,0,0:0:0:0:
172,152,55050,1,0,0:0:0:0:
172,152,55103,1,8,0:0:0:0:
168,152,55208,1,8,0:0:0:0:
160,148,55314,1,8,0:0:0:0:
160,148,55367,1,0,0:0:0:0:
160,148,55473,1,0,0:0:0:0:
160,148,55525,1,8,0:0:0:0:
160,148,55631,1,8,0:0:0:0:
160,148,55737,1,0,0:0:0:0:
160,148,55789,1,0,0:0:0:0:
160,148,55842,1,0,0:0:0:0:
160,148,55895,1,0,0:0:0:0:
160,148,55948,1,8,0:0:0:0:
160,148,56054,1,8,0:0:0:0:
152,144,56159,1,8,0:0:0:0:
152,144,56212,1,0,0:0:0:0:
152,144,56265,1,8,0:0:0:0:
152,144,56318,1,8,0:0:0:0:
152,144,56370,1,0,0:0:0:0:
148,144,56476,1,8,0:0:0:0:
148,144,56529,1,8,0:0:0:0:
148,144,56582,1,0,0:0:0:0:
144,144,56687,1,0,0:0:0:0:
144,144,56740,1,0,0:0:0:0:
144,144,56793,1,8,0:0:0:0:
144,144,56846,1,0,0:0:0:0:
144,144,56899,1,8,0:0:0:0:
144,144,56951,1,8,0:0:0:0:
144,144,57004,1,0,0:0:0:0:
140,144,57110,1,0,0:0:0:0:
140,144,57215,1,8,0:0:0:0:
148,144,57321,1,8,0:0:0:0:
144,144,57427,1,0,0:0:0:0:
136,144,57532,1,0,0:0:0:0:
136,140,57585,1,0,0:0:0:0:
136,140,57638,1,8,0:0:0:0:
132,140,57744,1,8,0:0:0:0:
132,140,57849,1,0,0:0:0:0:
128,144,57902,1,8,0:0:0:0:
128,140,58008,1,8,0:0:0:0:
132,140,58061,1,0,0:0:0:0:
136,140,58166,1,8,0:0:0:0:
136,144,58272,1,0,0:0:0:0:
160,128,58325,1,0,0:0:0:0:
136,140,58377,1,0,0:0:0:0:
132,140,58483,1,8,0:0:0:0:
132,140,58589,1,0,0:0:0:0:
136,140,58694,1,0,0:0:0:0:
280,112,58747,1,8,0:0:0:0:
132,152,58853,1,8,0:0:0:0:
136,156,58906,1,0,0:0:0:0:
16,144,58958,1,0,0:0:0:0:
140,152,59011,1,8,0:0:0:0:
140,152,59117,1,0,0:0:0:0:
140,152,59223,1,0,0:0:0:0:
136,148,59275,1,0,0:0:0:0:
140,152,59328,1,8,0:0:0:0:
160,188,59381,1,0,0:0:0:0:
136,148,59434,1,8,0:0:0:0:
136,148,59487,1,8,0:0:0:0:
136,148,59539,1,0,0:0:0:0:
160,188,59592,1,0,0:0:0:0:
124,120,59645,1,8,0:0:0:0:
124,120,59698,1,0,0:0:0:0:
116,152,59751,1,8,0:0:0:0:
136,156,59856,1,8,0:0:0:0:
136,156,59962,1,0,0:0:0:0:
128,164,60015,1,0,0:0:0:0:
128,168,60068,1,0,0:0:0:0:
128,168,60173,1,8,0:0:0:0:
128,168,60226,1,8,0:0:0:0:
128,168,60279,1,8,0:0:0:0:
128,168,60385,1,0,0:0:0:0:
128,168,60490,1,0,0:0:0:0:
128,168,60543,1,0,0:0:0:0:
128,168,60596,1,8,0:0:0:0:
128,168,60701,1,8,0:0:0:0:
128,164,60807,1,0,0:0:0:0:
128,168,60860,1,0,0:0:0:0:
128,168,60913,1,0,0:0:0:0:
140,168,60965,1,0,0:0:0:0:
128,168,61018,1,8,0:0:0:0:
140,168,61071,1,8,0:0:0:0:
140,168,61124,1,8,0:0:0:0:
140,168,61177,1,8,0:0:0:0:
140,168,61230,1,0,0:0:0:0:
176,160,61335,1,0,0:0:0:0:
176,160,61441,1,8,0:0:0:0:
160,92,61494,1,0,0:0:0:0:
112,144,61599,1,0,0:0:0:0:
176,160,61652,1,8,0:0:0:0:
24,148,61758,1,0,0:0:0:0:
92,144,61863,1,8,0:0:0:0:
92,144,61969,1,8,0:0:0:0:
92,144,62075,1,0,0:0:0:0:
88,148,62127,1,0,0:0:0:0:
144,32,62180,1,0,0:0:0:0:
88,148,62233,1,0,0:0:0:0:
88,148,62286,1,8,0:0:0:0:
208,156,62392,1,8,0:0:0:0:
208,156,62497,1,0,0:0:0:0:
208,160,62603,1,0,0:0:0:0:
208,160,62708,1,8,0:0:0:0:
200,160,62814,1,8,0:0:0:0:
200,160,62867,1,8,0:0:0:0:
200,160,62920,1,0,0:0:0:0:
200,160,63025,1,0,0:0:0:0:
196,160,63131,1,8,0:0:0:0:
196,160,63237,1,8,0:0:0:0:
196,160,63342,1,0,0:0:0:0:
196,160,63448,1,0,0:0:0:0:
196,160,63501,1,0,0:0:0:0:
200,160,63554,1,8,0:0:0:0:
200,160,63659,1,8,0:0:0:0:
200,160,63712,1,8,0:0:0:0:
200,160,63765,1,0,0:0:0:0:
196,160,63870,1,0,0:0:0:0:
196,160,63976,1,8,0:0:0:0:
200,160,64029,1,8,0:0:0:0:
196,160,64082,1,8,0:0:0:0:
196,160,64187,1,0,0:0:0:0:
200,156,64293,1,0,0:0:0:0:
200,160,64346,1,0,0:0:0:0:
200,160,64399,1,8,0:0:0:0:
200,160,64504,1,8,0:0:0:0:
200,156,64610,1,0,0:0:0:0:
76,152,64663,1,8,0:0:0:0:
80,148,64768,1,8,0:0:0:0:
80,148,64821,1,0,0:0:0:0:
88,148,64927,1,8,0:0:0:0:
88,148,65032,1,0,0:0:0:0:
88,148,65138,1,0,0:0:0:0:
88,148,65191,1,0,0:0:0:0:
88,148,65244,1,8,0:0:0:0:
100,144,65349,1,8,0:0:0:0:
104,148,65455,1,0,0:0:0:0:
104,148,65508,1,0,0:0:0:0:
104,148,65561,1,0,0:0:0:0:
104,148,65613,1,0,0:0:0:0:
120,144,65666,1,8,0:0:0:0:
120,144,65772,1,8,0:0:0:0:
120,144,65877,1,0,0:0:0:0:
124,144,65983,1,0,0:0:0:0:
124,144,66036,1,0,0:0:0:0:
128,144,66089,1,8,0:0:0:0:
128,144,66194,1,8,0:0:0:0:
128,144,66247,1,8,0:0:0:0:
128,144,66300,1,0,0:0:0:0:
156,224,66406,1,0,0:0:0:0:
156,224,66511,1,8,0:0:0:0:
156,224,66617,1,8,0:0:0:0:
156,224,66723,1,0,0:0:0:0:
152,224,66775,1,0,0:0:0:0:
152,224,66828,1,0,0:0:0:0:
152,224,66934,1,8,0:0:0:0:
152,224,66987,1,8,0:0:0:0:
152,224,67039,1,8,0:0:0:0:
128,172,67145,1,0,0:0:0:0:
156,176,67198,1,8,0:0:0:0:
180,172,67304,1,8,0:0:0:0:
156,176,67356,1,0,0:0:0:0:
216,120,67462,1,8,0:0:0:0:
216,120,67568,1,0,0:0:0:0:
180,172,67620,1,0,0:0:0:0:
136,164,67673,1,0,0:0:0:0:
136,164,67726,1,0,0:0:0:0:
136,164,67779,1,8,0:0:0:0:
136,164,67832,1,8,0:0:0:0:
136,164,67885,1,8,0:0:0:0:
136,164,67937,1,8,0:0:0:0:
136,164,67990,1,0,0:0:0:0:
144,252,68096,1,0,0:0:0:0:
144,252,68201,1,8,0:0:0:0:
144,252,68307,1,8,0:0:0:0:
136,252,68360,1,8,0:0:0:0:
144,252,68413,1,0,0:0:0:0:
136,252,68518,1,0,0:0:0:0:
136,248,68571,1,0,0:0:0:0:
136,252,68624,1,8,0:0:0:0:
136,248,68730,1,8,0:0:0:0:
136,248,68835,1,8,0:0:0:0:
136,248,68888,1,0,0:0:0:0:
136,248,68994,1,0,0:0:0:0:
136,248,69046,1,8,0:0:0:0:
144,148,69152,1,8,0:0:0:0:
144,148,69258,1,0,0:0:0:0:
144,148,69311,1,0,0:0:0:0:
144,148,69363,1,0,0:0:0:0:
144,148,69416,1,0,0:0:0:0:
144,148,69469,1,8,0:0:0:0:
144,148,69575,1,8,0:0:0:0:
144,148,69680,1,0,0:0:0:0:
144,148,69786,1,0,0:0:0:0:
144,148,69839,1,0,0:0:0:0:
144,148,69892,1,8,0:0:0:0:
144,148,69997,1,8,0:0:0:0:
144,148,70103,1,0,0:0:0:0:
144,148,70208,1,0,0:0:0:0:
144,148,70314,1,8,0:0:0:0:
144,148,70420,1,8,0:0:0:0:
144,148,70473,1,8,0:0:0:0:
144,148,70525,1,0,0:0:0:0:
144,148,70631,1,0,0:0:0:0:
144,148,70737,1,8,0:0:0:0:
136,148,70842,1,8,0:0:0:0:
136,148,70948,1,0,0:0:0:0:
136,148,71001,1,0,0:0:0:0:
136,148,71054,1,8,0:0:0:0:
136,148,71106,1,0,0:0:0:0:
136,152,71159,1,8,0:0:0:0:
136,152,71212,1,8,0:0:0:0:
136,152,71265,1,0,0:0:0:0:
144,148,71318,1,8,0:0:0:0:
144,148,71370,1,0,0:0:0:0:
384,288,71793,1,8,0:0:0:0:
384,288,72004,1,8,0:0:0:0:
384,288,72215,1,8,0:0:0:0:
384,288,72427,1,8,0:0:0:0:
384,288,72638,1,8,0:0:0:0:
384,288,72849,1,8,0:0:0:0:
384,288,73061,1,8,0:0:0:0:
384,288,73272,1,8,0:0:0:0:
384,288,73483,1,8,0:0:0:0:
384,288,73694,1,8,0:0:0:0:
384,288,73906,1,8,0:0:0:0:
384,288,74117,1,4,0:0:0:0:
276,312,74328,1,0,0:0:0:0:
276,312,74539,1,0,0:0:0:0:
192,148,74751,1,12,0:0:0:0:
192,148,74857,1,0,0:0:0:0:
192,148,74962,1,8,0:0:0:0:
192,148,75068,1,8,0:0:0:0:
192,148,75174,1,0,0:0:0:0:
192,148,75226,1,0,0:0:0:0:
192,148,75279,1,0,0:0:0:0:
192,148,75385,1,8,0:0:0:0:
148,148,75491,1,8,0:0:0:0:
148,148,75596,1,0,0:0:0:0:
148,148,75702,1,8,0:0:0:0:
148,148,75755,1,0,0:0:0:0:
148,148,75807,1,8,0:0:0:0:
148,148,75913,1,8,0:0:0:0:
148,148,76019,1,0,0:0:0:0:
148,148,76124,1,0,0:0:0:0:
144,152,76177,1,0,0:0:0:0:
144,152,76230,1,8,0:0:0:0:
144,152,76336,1,8,0:0:0:0:
144,152,76441,1,0,0:0:0:0:
144,152,76547,1,8,0:0:0:0:
144,152,76652,1,0,0:0:0:0:
140,120,76758,1,8,0:0:0:0:
140,120,76811,1,8,0:0:0:0:
140,120,76864,1,0,0:0:0:0:
140,120,76969,1,0,0:0:0:0:
380,252,77022,1,0,0:0:0:0:
140,120,77075,1,8,0:0:0:0:
236,140,77181,1,8,0:0:0:0:
236,140,77286,1,0,0:0:0:0:
236,140,77392,1,0,0:0:0:0:
236,140,77498,1,8,0:0:0:0:
236,140,77603,1,8,0:0:0:0:
236,140,77656,1,8,0:0:0:0:
236,140,77709,1,0,0:0:0:0:
236,140,77814,1,0,0:0:0:0:
236,140,77867,1,0,0:0:0:0:
236,140,77920,1,8,0:0:0:0:
236,140,78026,1,8,0:0:0:0:
236,140,78131,1,0,0:0:0:0:
236,140,78237,1,8,0:0:0:0:
236,140,78343,1,0,0:0:0:0:
236,140,78448,1,8,0:0:0:0:
236,140,78554,1,0,0:0:0:0:
236,140,78660,1,0,0:0:0:0:
236,140,78712,1,0,0:0:0:0:
236,140,78765,1,8,0:0:0:0:
236,140,78871,1,8,0:0:0:0:
236,140,78976,1,0,0:0:0:0:
236,140,79082,1,8,0:0:0:0:
236,140,79135,1,8,0:0:0:0:
236,140,79188,1,0,0:0:0:0:
236,140,79293,1,8,0:0:0:0:
236,140,79399,1,0,0:0:0:0:
236,140,79505,1,0,0:0:0:0:
236,140,79557,1,0,0:0:0:0:
236,140,79610,1,8,0:0:0:0:
236,140,79716,1,8,0:0:0:0:
236,140,79821,1,0,0:0:0:0:
100,148,79927,1,8,0:0:0:0:
236,140,80033,1,0,0:0:0:0:
4,148,80086,1,0,0:0:0:0:
192,208,80138,1,8,0:0:0:0:
192,208,80244,1,0,0:0:0:0:
192,208,80350,1,0,0:0:0:0:
192,208,80402,1,0,0:0:0:0:
192,208,80455,1,8,0:0:0:0:
192,208,80561,1,8,0:0:0:0:
192,208,80667,1,0,0:0:0:0:
216,148,80772,1,8,0:0:0:0:
216,148,80878,1,0,0:0:0:0:
216,140,80931,1,0,0:0:0:0:
216,148,80983,1,8,0:0:0:0:
216,148,81036,1,0,0:0:0:0:
216,148,81089,1,8,0:0:0:0:
216,140,81195,1,8,0:0:0:0:
216,140,81300,1,8,0:0:0:0:
216,140,81406,1,8,0:0:0:0:
216,140,81459,1,8,0:0:0:0:
216,140,81512,1,0,0:0:0:0:
156,116,81617,1,8,0:0:0:0:
156,116,81723,1,0,0:0:0:0:
156,116,81829,1,0,0:0:0:0:
156,116,81934,1,8,0:0:0:0:
92,228,81987,1,0,0:0:0:0:
156,116,82040,1,0,0:0:0:0:
156,116,82093,1,0,0:0:0:0:
156,116,82145,1,8,0:0:0:0:
156,140,82251,1,8,0:0:0:0:
156,140,82356,1,8,0:0:0:0:
160,88,82409,1,0,0:0:0:0:
164,136,82515,1,0,0:0:0:0:
168,136,82568,1,8,0:0:0:0:
168,136,82674,1,8,0:0:0:0:
168,136,82779,1,0,0:0:0:0:
168,136,82885,1,0,0:0:0:0:
168,136,82938,1,0,0:0:0:0:
168,136,82991,1,8,0:0:0:0:
168,136,83096,1,8,0:0:0:0:
164,136,83202,1,0,0:0:0:0:
168,136,83307,1,8,0:0:0:0:
168,136,83413,1,8,0:0:0:0:
168,136,83466,1,0,0:0:0:0:
168,136,83519,1,8,0:0:0:0:
168,136,83571,1,8,0:0:0:0:
168,136,83624,1,0,0:0:0:0:
160,160,83730,1,0,0:0:0:0:
160,160,83836,1,8,0:0:0:0:
160,160,83941,1,8,0:0:0:0:
160,160,83994,1,8,0:0:0:0:
160,160,84047,1,0,0:0:0:0:
160,160,84152,1,0,0:0:0:0:
160,160,84258,1,8,0:0:0:0:
184,128,84364,1,8,0:0:0:0:
184,128,84469,1,0,0:0:0:0:
184,128,84575,1,0,0:0:0:0:
184,128,84628,1,0,0:0:0:0:
184,128,84681,1,8,0:0:0:0:
184,128,84892,1,0,0:0:0:0:
12,156,84998,1,0,0:0:0:0:
52,152,85103,1,8,0:0:0:0:
104,144,85209,1,0,0:0:0:0:
104,144,85314,1,0,0:0:0:0:
96,140,85367,1,0,0:0:0:0:
96,140,85420,1,0,0:0:0:0:
164,140,85473,1,0,0:0:0:0:
164,140,85526,1,8,0:0:0:0:
164,140,85631,1,8,0:0:0:0:
164,140,85737,1,0,0:0:0:0:
164,140,85843,1,8,0:0:0:0:
164,140,85895,1,8,0:0:0:0:
164,140,85948,1,0,0:0:0:0:
164,140,86054,1,0,0:0:0:0:
164,140,86107,1,0,0:0:0:0:
164,140,86160,1,8,0:0:0:0:
164,140,86265,1,0,0:0:0:0:
164,140,86371,1,8,0:0:0:0:
60,144,86476,1,8,0:0:0:0:
72,144,86582,1,4,0:0:0:0:
112,136,86793,1,12,0:0:0:0:
116,120,87004,1,4,0:0:0:0:
196,112,87215,1,12,0:0:0:0:
196,112,87427,1,12,0:0:0:0:
164,204,88272,1,0,0:0:0:0:
168,200,88589,1,8,0:0:0:0:
168,200,88694,1,0,0:0:0:0:
160,172,88906,1,8,0:0:0:0:
176,176,89011,1,8,0:0:0:0:
208,184,89117,1,0,0:0:0:0:
344,232,89328,1,8,0:0:0:0:
344,232,89434,1,8,0:0:0:0:
344,232,89539,1,0,0:0:0:0:
436,292,89645,1,0,0:0:0:0:
344,232,89751,1,8,0:0:0:0:
344,232,89856,1,8,0:0:0:0:
344,232,89962,1,0,0:0:0:0:
344,232,90279,1,8,0:0:0:0:
344,232,90385,1,0,0:0:0:0:
344,232,90596,1,8,0:0:0:0:
344,232,90701,1,8,0:0:0:0:
344,232,90807,1,0,0:0:0:0:
232,292,91018,1,0,0:0:0:0:
232,292,91124,1,8,0:0:0:0:
232,292,91230,1,0,0:0:0:0:
232,292,91335,1,8,0:0:0:0:
232,292,91441,1,8,0:0:0:0:
232,292,91546,1,8,0:0:0:0:
232,292,91652,1,0,0:0:0:0:
340,264,91863,1,8,0:0:0:0:
340,264,91969,1,8,0:0:0:0:
340,264,92075,1,0,0:0:0:0:
344,272,92286,1,8,0:0:0:0:
344,272,92392,1,8,0:0:0:0:
344,272,92497,1,0,0:0:0:0:
112,144,92708,1,8,0:0:0:0:
112,144,92814,1,8,0:0:0:0:
112,144,92920,1,0,0:0:0:0:
112,144,93025,1,0,0:0:0:0:
112,144,93131,1,8,0:0:0:0:
112,144,93237,1,8,0:0:0:0:
120,164,93342,1,0,0:0:0:0:
380,264,93448,1,0,0:0:0:0:
380,264,93501,1,0,0:0:0:0:
380,264,93554,1,8,0:0:0:0:
380,264,93659,1,8,0:0:0:0:
380,264,93765,1,0,0:0:0:0:
380,264,93870,1,0,0:0:0:0:
380,264,93976,1,8,0:0:0:0:
380,264,94082,1,8,0:0:0:0:
380,264,94187,1,0,0:0:0:0:
148,148,94399,1,8,0:0:0:0:
148,148,94504,1,8,0:0:0:0:
148,148,94610,1,0,0:0:0:0:
148,148,94821,1,0,0:0:0:0:
80,164,94927,1,0,0:0:0:0:
88,160,95032,1,0,0:0:0:0:
92,160,95138,1,8,0:0:0:0:
92,160,95244,1,8,0:0:0:0:
128,144,95349,1,8,0:0:0:0:
132,140,95455,1,0,0:0:0:0:
176,188,95666,1,8,0:0:0:0:
176,188,95772,1,8,0:0:0:0:
176,188,95877,1,0,0:0:0:0:
176,188,96089,1,8,0:0:0:0:
176,188,96300,1,0,0:0:0:0:
176,188,96511,1,8,0:0:0:0:
176,188,96617,1,8,0:0:0:0:
176,188,96723,1,0,0:0:0:0:
176,188,96934,1,8,0:0:0:0:
176,188,97145,1,0,0:0:0:0:
172,188,97356,1,8,0:0:0:0:
172,188,97462,1,8,0:0:0:0:
172,188,97568,1,0,0:0:0:0:
172,188,97673,1,8,0:0:0:0:
168,188,97779,1,4,0:0:0:0:
176,148,97990,1,4,0:0:0:0:
176,148,98201,1,8,0:0:0:0:
176,148,98307,1,8,0:0:0:0:
176,148,98413,1,0,0:0:0:0:
140,200,98624,1,0,0:0:0:0:
140,200,98730,1,8,0:0:0:0:
140,200,98835,1,0,0:0:0:0:
136,200,99046,1,0,0:0:0:0:
132,196,99258,1,0,0:0:0:0:
132,196,99363,1,8,0:0:0:0:
132,196,99575,1,8,0:0:0:0:
132,196,99680,1,0,0:0:0:0:
124,188,99892,1,8,0:0:0:0:
124,188,99997,1,8,0:0:0:0:
124,188,100103,1,0,0:0:0:0:
248,200,100737,1,0,0:0:0:0:
64,152,100948,1,8,0:0:0:0:
208,224,101265,1,8,0:0:0:0:
208,224,101371,1,0,0:0:0:0:
152,232,101582,1,0,0:0:0:0:
152,232,101688,1,8,0:0:0:0:
144,232,101793,1,0,0:0:0:0:
144,232,101846,1,8,0:0:0:0:
144,232,101899,1,0,0:0:0:0:
144,232,101952,1,0,0:0:0:0:
144,232,102005,1,8,0:0:0:0:
144,232,102110,1,8,0:0:0:0:
144,232,102216,1,0,0:0:0:0:
140,232,102269,1,0,0:0:0:0:
140,232,102322,1,0,0:0:0:0:
140,232,102374,1,0,0:0:0:0:
140,232,102427,1,8,0:0:0:0:
200,240,102480,1,8,0:0:0:0:
200,240,102533,1,8,0:0:0:0:
200,240,102586,1,8,0:0:0:0:
200,240,102639,1,0,0:0:0:0:
176,240,102744,1,0,0:0:0:0:
176,240,102850,1,8,0:0:0:0:
124,204,102955,1,8,0:0:0:0:
124,204,103008,1,8,0:0:0:0:
124,204,103061,1,0,0:0:0:0:
124,204,103167,1,0,0:0:0:0:
152,208,103220,1,0,0:0:0:0:
152,208,103272,1,8,0:0:0:0:
152,208,103378,1,8,0:0:0:0:
152,208,103484,1,0,0:0:0:0:
152,208,103536,1,0,0:0:0:0:
152,208,103589,1,0,0:0:0:0:
152,208,103642,1,0,0:0:0:0:
152,208,103695,1,8,0:0:0:0:
152,208,103800,1,8,0:0:0:0:
104,176,103906,1,0,0:0:0:0:
140,176,103959,1,0,0:0:0:0:
144,176,104012,1,0,0:0:0:0:
144,176,104065,1,0,0:0:0:0:
144,176,104117,1,8,0:0:0:0:
176,124,104223,1,8,0:0:0:0:
176,124,104329,1,8,0:0:0:0:
168,132,104381,1,0,0:0:0:0:
168,132,104487,1,0,0:0:0:0:
168,132,104540,1,8,0:0:0:0:
188,168,104646,1,8,0:0:0:0:
188,168,104751,1,0,0:0:0:0:
188,168,104857,1,0,0:0:0:0:
188,168,104910,1,0,0:0:0:0:
188,168,104962,1,8,0:0:0:0:
188,168,105068,1,8,0:0:0:0:
188,168,105121,1,8,0:0:0:0:
188,168,105174,1,0,0:0:0:0:
68,172,105279,1,0,0:0:0:0:
68,172,105385,1,8,0:0:0:0:
136,176,105491,1,8,0:0:0:0:
136,176,105596,1,0,0:0:0:0:
136,176,105649,1,8,0:0:0:0:
132,180,105702,1,0,0:0:0:0:
132,180,105755,1,0,0:0:0:0:
132,180,105808,1,8,0:0:0:0:
132,180,105913,1,8,0:0:0:0:
132,180,105966,1,8,0:0:0:0:
136,176,106019,1,0,0:0:0:0:
136,176,106124,1,0,0:0:0:0:
136,176,106177,1,0,0:0:0:0:
136,176,106230,1,8,0:0:0:0:
136,176,106336,1,8,0:0:0:0:
132,180,106441,1,0,0:0:0:0:
132,180,106494,1,0,0:0:0:0:
132,180,106547,1,8,0:0:0:0:
132,180,106600,1,0,0:0:0:0:
132,180,106653,1,8,0:0:0:0:
132,180,106705,1,8,0:0:0:0:
132,180,106758,1,0,0:0:0:0:
132,180,106811,1,8,0:0:0:0:
132,180,106864,1,0,0:0:0:0:
132,180,106970,1,0,0:0:0:0:
116,208,107022,1,0,0:0:0:0:
132,180,107075,1,8,0:0:0:0:
92,172,107181,1,8,0:0:0:0:
108,208,107233,1,8,0:0:0:0:
92,172,107286,1,0,0:0:0:0:
100,176,107392,1,0,0:0:0:0:
100,176,107445,1,0,0:0:0:0:
100,176,107498,1,8,0:0:0:0:
96,172,107603,1,8,0:0:0:0:
96,172,107709,1,0,0:0:0:0:
132,160,107815,1,0,0:0:0:0:
132,160,107867,1,0,0:0:0:0:
132,160,107920,1,8,0:0:0:0:
132,160,108026,1,8,0:0:0:0:
132,160,108079,1,8,0:0:0:0:
132,160,108131,1,0,0:0:0:0:
132,160,108184,1,8,0:0:0:0:
132,160,108237,1,0,0:0:0:0:
132,160,108290,1,0,0:0:0:0:
132,160,108343,1,8,0:0:0:0:
132,160,108396,1,0,0:0:0:0:
132,160,108448,1,8,0:0:0:0:
128,156,108501,1,8,0:0:0:0:
128,156,108554,1,0,0:0:0:0:
120,160,108660,1,0,0:0:0:0:
120,160,108765,1,8,0:0:0:0:
120,160,108871,1,8,0:0:0:0:
124,156,108924,1,8,0:0:0:0:
120,160,108977,1,0,0:0:0:0:
124,156,109082,1,0,0:0:0:0:
172,152,109135,1,0,0:0:0:0:
172,152,109188,1,8,0:0:0:0:
168,152,109293,1,8,0:0:0:0:
160,148,109399,1,8,0:0:0:0:
160,148,109452,1,0,0:0:0:0:
160,148,109558,1,0,0:0:0:0:
160,148,109610,1,8,0:0:0:0:
160,148,109716,1,8,0:0:0:0:
160,148,109822,1,8,0:0:0:0:
160,148,109874,1,0,0:0:0:0:
160,148,109927,1,0,0:0:0:0:
160,148,109980,1,0,0:0:0:0:
160,148,110033,1,8,0:0:0:0:
160,148,110139,1,8,0:0:0:0:
152,144,110244,1,8,0:0:0:0:
152,144,110297,1,0,0:0:0:0:
152,144,110350,1,8,0:0:0:0:
152,144,110403,1,8,0:0:0:0:
152,144,110455,1,0,0:0:0:0:
148,144,110561,1,8,0:0:0:0:
148,144,110614,1,8,0:0:0:0:
148,144,110667,1,0,0:0:0:0:
144,144,110772,1,0,0:0:0:0:
144,144,110825,1,0,0:0:0:0:
144,144,110878,1,8,0:0:0:0:
144,144,110931,1,0,0:0:0:0:
144,144,110984,1,8,0:0:0:0:
144,144,111036,1,8,0:0:0:0:
144,144,111089,1,0,0:0:0:0:
140,144,111195,1,0,0:0:0:0:
140,144,111300,1,8,0:0:0:0:
112,128,111353,1,8,0:0:0:0:
148,144,111406,1,8,0:0:0:0:
144,144,111512,1,0,0:0:0:0:
136,144,111617,1,0,0:0:0:0:
136,140,111670,1,0,0:0:0:0:
136,140,111723,1,8,0:0:0:0:
132,140,111829,1,8,0:0:0:0:
132,140,111934,1,0,0:0:0:0:
128,144,111987,1,8,0:0:0:0:
128,140,112093,1,8,0:0:0:0:
132,140,112146,1,0,0:0:0:0:
136,140,112251,1,8,0:0:0:0:
136,144,112357,1,0,0:0:0:0:
160,128,112410,1,0,0:0:0:0:
136,140,112462,1,0,0:0:0:0:
132,140,112568,1,8,0:0:0:0:
132,140,112620,1,0,0:0:0:0:
256,88,112726,1,0,0:0:0:0:
100,168,112779,1,8,0:0:0:0:
176,152,112885,1,8,0:0:0:0:
132,152,112938,1,8,0:0:0:0:
136,156,112991,1,0,0:0:0:0:
140,152,113096,1,8,0:0:0:0:
140,152,113202,1,0,0:0:0:0:
168,136,113254,1,8,0:0:0:0:
140,152,113308,1,0,0:0:0:0:
136,148,113360,1,0,0:0:0:0:
140,152,113413,1,8,0:0:0:0:
160,188,113466,1,0,0:0:0:0:
136,148,113519,1,8,0:0:0:0:
136,148,113572,1,8,0:0:0:0:
136,148,113624,1,0,0:0:0:0:
160,188,113677,1,0,0:0:0:0:
124,120,113730,1,8,0:0:0:0:
124,120,113783,1,0,0:0:0:0:
116,152,113836,1,8,0:0:0:0:
136,156,113941,1,8,0:0:0:0:
136,156,114047,1,0,0:0:0:0:
128,164,114100,1,0,0:0:0:0:
128,168,114153,1,0,0:0:0:0:
128,168,114258,1,8,0:0:0:0:
128,168,114311,1,8,0:0:0:0:
128,168,114364,1,8,0:0:0:0:
128,168,114470,1,0,0:0:0:0:
128,168,114575,1,0,0:0:0:0:
128,168,114628,1,0,0:0:0:0:
128,168,114681,1,8,0:0:0:0:
128,168,114786,1,8,0:0:0:0:
128,164,114892,1,0,0:0:0:0:
128,168,114945,1,0,0:0:0:0:
128,168,114998,1,0,0:0:0:0:
140,168,115050,1,0,0:0:0:0:
128,168,115103,1,8,0:0:0:0:
140,168,115156,1,8,0:0:0:0:
140,168,115209,1,8,0:0:0:0:
140,168,115262,1,8,0:0:0:0:
140,168,115315,1,0,0:0:0:0:
176,160,115420,1,0,0:0:0:0:
176,160,115526,1,8,0:0:0:0:
160,92,115579,1,0,0:0:0:0:
112,144,115684,1,0,0:0:0:0:
176,160,115737,1,8,0:0:0:0:
24,148,115843,1,0,0:0:0:0:
92,144,115948,1,8,0:0:0:0:
92,144,116054,1,8,0:0:0:0:
92,144,116160,1,0,0:0:0:0:
88,148,116212,1,0,0:0:0:0:
144,32,116265,1,0,0:0:0:0:
88,148,116318,1,0,0:0:0:0:
88,148,116371,1,8,0:0:0:0:
208,156,116477,1,8,0:0:0:0:
208,156,116582,1,0,0:0:0:0:
208,160,116688,1,0,0:0:0:0:
208,160,116793,1,8,0:0:0:0:
200,160,116899,1,8,0:0:0:0:
200,160,116952,1,8,0:0:0:0:
200,160,117005,1,0,0:0:0:0:
200,160,117110,1,0,0:0:0:0:
196,160,117216,1,8,0:0:0:0:
196,160,117322,1,8,0:0:0:0:
196,160,117427,1,0,0:0:0:0:
196,160,117533,1,0,0:0:0:0:
196,160,117586,1,0,0:0:0:0:
200,160,117639,1,8,0:0:0:0:
200,160,117744,1,8,0:0:0:0:
200,160,117797,1,8,0:0:0:0:
200,160,117850,1,0,0:0:0:0:
196,160,117955,1,0,0:0:0:0:
196,160,118061,1,8,0:0:0:0:
200,160,118114,1,8,0:0:0:0:
196,160,118167,1,8,0:0:0:0:
196,160,118272,1,0,0:0:0:0:
200,156,118378,1,0,0:0:0:0:
200,160,118431,1,0,0:0:0:0:
200,160,118484,1,8,0:0:0:0:
200,160,118589,1,8,0:0:0:0:
200,156,118695,1,0,0:0:0:0:
76,152,118748,1,8,0:0:0:0:
80,148,118853,1,8,0:0:0:0:
80,148,118906,1,0,0:0:0:0:
88,148,119012,1,8,0:0:0:0:
88,148,119117,1,0,0:0:0:0:
88,148,119223,1,0,0:0:0:0:
88,148,119276,1,0,0:0:0:0:
88,148,119329,1,8,0:0:0:0:
100,144,119434,1,8,0:0:0:0:
104,148,119540,1,0,0:0:0:0:
104,148,119593,1,0,0:0:0:0:
104,148,119646,1,0,0:0:0:0:
104,148,119698,1,0,0:0:0:0:
120,144,119751,1,8,0:0:0:0:
120,144,119857,1,8,0:0:0:0:
120,144,119962,1,0,0:0:0:0:
124,144,120068,1,0,0:0:0:0:
124,144,120121,1,0,0:0:0:0:
128,144,120174,1,8,0:0:0:0:
128,144,120279,1,8,0:0:0:0:
128,144,120332,1,8,0:0:0:0:
128,144,120385,1,0,0:0:0:0:
156,224,120491,1,0,0:0:0:0:
156,224,120596,1,8,0:0:0:0:
156,224,120702,1,8,0:0:0:0:
156,224,120808,1,0,0:0:0:0:
152,224,120860,1,0,0:0:0:0:
152,224,120913,1,0,0:0:0:0:
152,224,121019,1,8,0:0:0:0:
152,224,121072,1,8,0:0:0:0:
152,224,121124,1,8,0:0:0:0:
128,172,121230,1,0,0:0:0:0:
156,176,121283,1,8,0:0:0:0:
180,172,121389,1,8,0:0:0:0:
156,176,121441,1,0,0:0:0:0:
216,120,121547,1,8,0:0:0:0:
216,120,121653,1,0,0:0:0:0:
180,172,121705,1,0,0:0:0:0:
136,164,121758,1,0,0:0:0:0:
136,164,121811,1,0,0:0:0:0:
136,164,121864,1,8,0:0:0:0:
136,164,121917,1,8,0:0:0:0:
136,164,121970,1,8,0:0:0:0:
136,164,122022,1,8,0:0:0:0:
136,164,122075,1,0,0:0:0:0:
144,252,122181,1,0,0:0:0:0:
144,252,122286,1,8,0:0:0:0:
144,252,122392,1,8,0:0:0:0:
136,252,122445,1,8,0:0:0:0:
144,252,122498,1,0,0:0:0:0:
136,252,122603,1,0,0:0:0:0:
136,248,122656,1,0,0:0:0:0:
136,252,122709,1,8,0:0:0:0:
136,248,122815,1,8,0:0:0:0:
136,248,122920,1,8,0:0:0:0:
136,248,122973,1,0,0:0:0:0:
136,248,123079,1,0,0:0:0:0:
136,248,123131,1,8,0:0:0:0:
144,148,123237,1,8,0:0:0:0:
144,148,123343,1,0,0:0:0:0:
144,148,123396,1,0,0:0:0:0:
144,148,123448,1,0,0:0:0:0:
144,148,123501,1,0,0:0:0:0:
144,148,123554,1,8,0:0:0:0:
144,148,123660,1,8,0:0:0:0:
144,148,123765,1,0,0:0:0:0:
144,148,123871,1,0,0:0:0:0:
144,148,123924,1,0,0:0:0:0:
144,148,123977,1,8,0:0:0:0:
144,148,124082,1,8,0:0:0:0:
144,148,124188,1,0,0:0:0:0:
144,148,124293,1,0,0:0:0:0:
144,148,124399,1,8,0:0:0:0:
144,148,124505,1,8,0:0:0:0:
144,148,124558,1,8,0:0:0:0:
144,148,124610,1,0,0:0:0:0:
144,148,124716,1,0,0:0:0:0:
144,148,124822,1,8,0:0:0:0:
136,148,124927,1,8,0:0:0:0:
136,148,125033,1,0,0:0:0:0:
136,148,125086,1,0,0:0:0:0:
136,148,125139,1,8,0:0:0:0:
136,148,125191,1,0,0:0:0:0:
136,152,125244,1,8,0:0:0:0:
136,152,125297,1,8,0:0:0:0:
136,152,125350,1,0,0:0:0:0:
144,148,125403,1,8,0:0:0:0:
256,192,125455,12,0,127990,0:0:0:0:
120,152,128835,5,0,0:0:0:0:
120,152,129258,1,0,0:0:0:0:
120,152,129680,1,0,0:0:0:0:
120,152,130103,1,0,0:0:0:0:
120,152,130525,1,8,0:0:0:0:
120,152,130737,1,8,0:0:0:0:
120,152,130842,1,8,0:0:0:0:
120,152,131054,1,8,0:0:0:0:
120,152,131159,1,8,0:0:0:0:
140,132,131370,1,0,0:0:0:0:
140,132,131476,1,0,0:0:0:0:
140,132,131582,1,0,0:0:0:0:
140,132,131687,1,0,0:0:0:0:
140,132,131793,1,8,0:0:0:0:
140,132,131899,1,8,0:0:0:0:
140,132,132004,1,0,0:0:0:0:
140,132,132215,1,0,0:0:0:0:
140,132,132427,1,8,0:0:0:0:
140,132,132532,1,8,0:0:0:0:
140,132,132638,1,8,0:0:0:0:
140,132,132849,1,0,0:0:0:0:
140,132,133061,1,8,0:0:0:0:
140,132,133166,1,8,0:0:0:0:
140,132,133272,1,8,0:0:0:0:
140,132,133483,1,0,0:0:0:0:
140,132,133694,1,8,0:0:0:0:
140,132,133800,1,8,0:0:0:0:
140,132,133906,1,8,0:0:0:0:
140,132,134117,1,0,0:0:0:0:
140,132,134328,1,8,0:0:0:0:
140,132,134434,1,8,0:0:0:0:
140,132,134539,1,8,0:0:0:0:
140,132,134751,1,0,0:0:0:0:
140,132,134962,1,8,0:0:0:0:
176,132,135068,1,0,0:0:0:0:
140,132,135173,1,8,0:0:0:0:
140,132,135385,1,8,0:0:0:0:
140,132,135596,1,0,0:0:0:0:
140,132,135807,1,8,0:0:0:0:
140,132,135913,1,8,0:0:0:0:
140,132,136018,1,8,0:0:0:0:
140,132,136230,1,0,0:0:0:0:
140,132,136441,1,8,0:0:0:0:
140,132,136547,1,8,0:0:0:0:
140,132,136652,1,8,0:0:0:0:
156,160,136863,1,0,0:0:0:0:
156,160,136969,1,0,0:0:0:0:
156,160,137075,1,8,0:0:0:0:
156,160,137180,1,8,0:0:0:0:
156,160,137286,1,0,0:0:0:0:
328,164,138554,1,8,0:0:0:0:
328,164,138606,1,8,0:0:0:0:
328,164,138659,1,8,0:0:0:0:
144,188,138765,1,8,0:0:0:0:
328,164,138870,1,8,0:0:0:0:
192,172,138976,1,4,0:0:0:0:
296,244,139082,1,0,0:0:0:0:
296,244,139135,1,0,0:0:0:0:
296,244,139187,1,8,0:0:0:0:
296,244,139293,1,0,0:0:0:0:
280,240,139399,1,0,0:0:0:0:
280,240,139451,1,0,0:0:0:0:
280,240,139504,1,8,0:0:0:0:
280,240,139557,1,8,0:0:0:0:
280,240,139610,1,0,0:0:0:0:
280,240,139715,1,8,0:0:0:0:
280,240,139821,1,0,0:0:0:0:
280,240,139927,1,0,0:0:0:0:
280,240,139980,1,0,0:0:0:0:
280,240,140032,1,8,0:0:0:0:
280,240,140138,1,0,0:0:0:0:
280,240,140244,1,8,0:0:0:0:
280,240,140296,1,0,0:0:0:0:
280,240,140349,1,8,0:0:0:0:
280,240,140402,1,8,0:0:0:0:
280,240,140455,1,0,0:0:0:0:
280,240,140561,1,8,0:0:0:0:
280,240,140666,1,0,0:0:0:0:
280,240,140772,1,0,0:0:0:0:
280,240,140825,1,0,0:0:0:0:
280,240,140877,1,8,0:0:0:0:
280,240,140983,1,0,0:0:0:0:
280,240,141089,1,0,0:0:0:0:
280,240,141142,1,0,0:0:0:0:
280,240,141194,1,8,0:0:0:0:
280,240,141247,1,8,0:0:0:0:
280,240,141300,1,0,0:0:0:0:
280,240,141406,1,8,0:0:0:0:
280,240,141511,1,0,0:0:0:0:
280,240,141617,1,0,0:0:0:0:
280,240,141670,1,0,0:0:0:0:
280,240,141723,1,8,0:0:0:0:
260,144,141828,1,0,0:0:0:0:
260,144,141934,1,8,0:0:0:0:
260,144,141987,1,8,0:0:0:0:
260,144,142039,1,0,0:0:0:0:
260,144,142092,1,8,0:0:0:0:
260,144,142145,1,0,0:0:0:0:
260,144,142251,1,8,0:0:0:0:
260,144,142356,1,0,0:0:0:0:
260,144,142462,1,0,0:0:0:0:
260,144,142515,1,0,0:0:0:0:
260,144,142568,1,8,0:0:0:0:
260,144,142673,1,0,0:0:0:0:
260,144,142779,1,0,0:0:0:0:
260,144,142832,1,0,0:0:0:0:
260,144,142885,1,8,0:0:0:0:
260,144,142937,1,8,0:0:0:0:
260,144,142990,1,0,0:0:0:0:
260,144,143096,1,8,0:0:0:0:
192,172,143201,1,0,0:0:0:0:
260,144,143307,1,0,0:0:0:0:
208,100,143360,1,0,0:0:0:0:
260,144,143413,1,8,0:0:0:0:
192,172,143518,1,0,0:0:0:0:
172,52,143624,1,8,0:0:0:0:
172,52,143677,1,0,0:0:0:0:
172,52,143729,1,8,0:0:0:0:
172,52,143782,1,8,0:0:0:0:
172,52,143835,1,0,0:0:0:0:
192,172,143941,1,0,0:0:0:0:
192,132,144046,1,0,0:0:0:0:
192,132,144152,1,0,0:0:0:0:
192,132,144205,1,0,0:0:0:0:
192,132,144258,1,8,0:0:0:0:
192,132,144363,1,0,0:0:0:0:
192,132,144469,1,0,0:0:0:0:
192,132,144522,1,0,0:0:0:0:
192,132,144575,1,8,0:0:0:0:
192,132,144627,1,8,0:0:0:0:
192,172,144680,1,0,0:0:0:0:
192,132,144786,1,8,0:0:0:0:
192,132,144892,1,0,0:0:0:0:
192,132,144944,1,0,0:0:0:0:
192,132,144997,1,0,0:0:0:0:
192,132,145050,1,8,0:0:0:0:
192,132,145103,1,8,0:0:0:0:
192,132,145156,1,0,0:0:0:0:
204,152,145208,1,0,0:0:0:0:
192,132,145261,1,0,0:0:0:0:
192,132,145314,1,8,0:0:0:0:
192,132,145367,1,0,0:0:0:0:
192,132,145420,1,8,0:0:0:0:
192,132,145473,1,8,0:0:0:0:
192,132,145525,1,0,0:0:0:0:
192,132,145578,1,8,0:0:0:0:
192,132,145631,1,0,0:0:0:0:
192,172,145737,1,4,0:0:0:0:
296,244,145843,1,0,0:0:0:0:
296,244,145896,1,0,0:0:0:0:
296,244,145948,1,8,0:0:0:0:
296,244,146054,1,0,0:0:0:0:
280,240,146160,1,0,0:0:0:0:
280,240,146212,1,0,0:0:0:0:
280,240,146265,1,8,0:0:0:0:
280,240,146318,1,8,0:0:0:0:
280,240,146371,1,0,0:0:0:0:
280,240,146476,1,8,0:0:0:0:
280,240,146582,1,0,0:0:0:0:
280,240,146688,1,0,0:0:0:0:
280,240,146741,1,0,0:0:0:0:
280,240,146793,1,8,0:0:0:0:
280,240,146899,1,0,0:0:0:0:
280,240,147005,1,8,0:0:0:0:
280,240,147057,1,0,0:0:0:0:
280,240,147110,1,8,0:0:0:0:
280,240,147163,1,8,0:0:0:0:
280,240,147216,1,0,0:0:0:0:
280,240,147322,1,8,0:0:0:0:
280,240,147427,1,0,0:0:0:0:
280,240,147533,1,0,0:0:0:0:
280,240,147586,1,0,0:0:0:0:
280,240,147638,1,8,0:0:0:0:
280,240,147744,1,0,0:0:0:0:
280,240,147850,1,0,0:0:0:0:
280,240,147903,1,0,0:0:0:0:
280,240,147955,1,8,0:0:0:0:
280,240,148008,1,8,0:0:0:0:
280,240,148061,1,0,0:0:0:0:
280,240,148167,1,8,0:0:0:0:
212,156,148272,1,0,0:0:0:0:
212,156,148377,1,0,0:0:0:0:
212,156,148430,1,0,0:0:0:0:
212,156,148483,1,8,0:0:0:0:
212,156,148589,1,0,0:0:0:0:
212,156,148694,1,8,0:0:0:0:
212,156,148747,1,0,0:0:0:0:
212,156,148800,1,8,0:0:0:0:
212,156,148853,1,8,0:0:0:0:
212,156,148906,1,0,0:0:0:0:
212,156,148958,1,0,0:0:0:0:
212,156,149011,1,8,0:0:0:0:
212,156,149117,1,0,0:0:0:0:
212,156,149170,1,0,0:0:0:0:
212,156,149223,1,0,0:0:0:0:
212,156,149275,1,0,0:0:0:0:
212,156,149328,1,8,0:0:0:0:
212,156,149381,1,8,0:0:0:0:
212,156,149434,1,8,0:0:0:0:
212,156,149539,1,0,0:0:0:0:
212,156,149592,1,0,0:0:0:0:
212,156,149645,1,0,0:0:0:0:
212,156,149698,1,0,0:0:0:0:
212,156,149751,1,8,0:0:0:0:
212,156,149804,1,8,0:0:0:0:
212,156,149856,1,8,0:0:0:0:
212,100,149962,1,0,0:0:0:0:
212,100,150015,1,0,0:0:0:0:
212,100,150068,1,8,0:0:0:0:
212,100,150120,1,8,0:0:0:0:
212,100,150173,1,0,0:0:0:0:
212,100,150226,1,0,0:0:0:0:
212,100,150279,1,8,0:0:0:0:
212,100,150385,1,0,0:0:0:0:
212,100,150437,1,0,0:0:0:0:
212,100,150490,1,8,0:0:0:0:
212,100,150543,1,8,0:0:0:0:
212,100,150596,1,0,0:0:0:0:
212,100,150649,1,0,0:0:0:0:
212,100,150701,1,8,0:0:0:0:
212,100,150807,1,0,0:0:0:0:
212,100,150860,1,0,0:0:0:0:
212,100,150913,1,0,0:0:0:0:
212,100,150965,1,0,0:0:0:0:
212,100,151018,1,8,0:0:0:0:
212,100,151071,1,8,0:0:0:0:
212,100,151124,1,8,0:0:0:0:
212,100,151177,1,8,0:0:0:0:
212,100,151230,1,0,0:0:0:0:
212,100,151282,1,0,0:0:0:0:
212,100,151335,1,0,0:0:0:0:
212,100,151388,1,0,0:0:0:0:
212,100,151441,1,8,0:0:0:0:
212,100,151494,1,8,0:0:0:0:
212,100,151546,1,8,0:0:0:0:
212,100,151599,1,8,0:0:0:0:
212,100,151652,1,0,0:0:0:0:
212,100,151705,1,0,0:0:0:0:
212,100,151758,1,8,0:0:0:0:
212,100,151811,1,8,0:0:0:0:
212,100,151863,1,0,0:0:0:0:
212,100,151916,1,0,0:0:0:0:
212,100,151969,1,8,0:0:0:0:
212,100,152022,1,8,0:0:0:0:
212,100,152075,1,0,0:0:0:0:
212,100,152127,1,8,0:0:0:0:
212,100,152180,1,0,0:0:0:0:
212,100,152233,1,8,0:0:0:0:
212,100,152286,1,0,0:0:0:0:
212,100,152392,1,8,0:0:0:0:
200,244,152497,1,0,0:0:0:0:
200,244,152708,1,0,0:0:0:0:
248,164,152920,1,0,0:0:0:0:
248,164,153131,1,8,0:0:0:0:
248,164,153237,1,8,0:0:0:0:
248,164,153342,1,4,0:0:0:0:
248,164,153554,1,0,0:0:0:0:
248,164,153765,1,8,0:0:0:0:
248,164,153976,1,0,0:0:0:0:
248,164,154187,1,0,0:0:0:0:
248,164,154399,1,0,0:0:0:0:
248,164,154610,1,0,0:0:0:0:
248,164,154821,1,8,0:0:0:0:
248,164,154927,1,8,0:0:0:0:
248,164,155032,1,4,0:0:0:0:
248,164,155244,1,0,0:0:0:0:
248,164,155455,1,8,0:0:0:0:
248,164,155561,1,8,0:0:0:0:
248,164,155666,1,8,0:0:0:0:
248,164,155877,1,0,0:0:0:0:
248,164,156089,1,0,0:0:0:0:
248,164,156300,1,0,0:0:0:0:
248,164,156511,1,8,0:0:0:0:
248,164,156617,1,8,0:0:0:0:
248,164,156723,1,4,0:0:0:0:
248,164,156934,1,0,0:0:0:0:
248,164,157145,1,8,0:0:0:0:
248,164,157356,1,0,0:0:0:0:
248,164,157568,1,0,0:0:0:0:
248,164,157779,1,0,0:0:0:0:
248,164,157990,1,0,0:0:0:0:
248,164,158201,1,8,0:0:0:0:
248,164,158307,1,8,0:0:0:0:
248,164,158413,1,4,0:0:0:0:
248,164,158624,1,0,0:0:0:0:
256,232,158835,1,8,0:0:0:0:
256,232,158941,1,0,0:0:0:0:
256,232,159152,1,8,0:0:0:0:
200,244,159258,1,0,0:0:0:0:
200,244,159469,1,0,0:0:0:0:
248,164,159681,1,0,0:0:0:0:
248,164,159892,1,8,0:0:0:0:
248,164,159998,1,8,0:0:0:0:
248,164,160103,1,4,0:0:0:0:
248,164,160315,1,0,0:0:0:0:
248,164,160526,1,8,0:0:0:0:
248,164,160737,1,0,0:0:0:0:
248,164,160948,1,0,0:0:0:0:
248,164,161160,1,0,0:0:0:0:
248,164,161371,1,0,0:0:0:0:
248,164,161582,1,8,0:0:0:0:
248,164,161688,1,8,0:0:0:0:
248,164,161793,1,4,0:0:0:0:
248,164,162005,1,0,0:0:0:0:
248,164,162215,1,8,0:0:0:0:
248,164,162321,1,8,0:0:0:0:
248,164,162427,1,8,0:0:0:0:
192,332,162638,2,0,P|180:192|476:180,2,490
200,188,164328,5,0,0:0:0:0:
200,188,164434,1,0,0:0:0:0:
200,188,164539,1,8,0:0:0:0:
200,188,164645,1,0,0:0:0:0:
200,188,164751,1,8,0:0:0:0:
200,188,164962,1,8,0:0:0:0:
200,188,165173,1,8,0:0:0:0:
200,188,165279,1,8,0:0:0:0:
200,188,165385,1,8,0:0:0:0:
200,188,165596,1,8,0:0:0:0:
200,188,165807,1,8,0:0:0:0:
200,188,165913,1,8,0:0:0:0:
256,192,166018,12,0,169399,0:0:0:0:
260,184,169821,5,0,0:0:0:0:
260,184,170032,1,8,0:0:0:0:
260,184,170138,1,0,0:0:0:0:
260,184,170349,1,0,0:0:0:0:
260,184,170455,1,8,0:0:0:0:
260,184,170666,1,0,0:0:0:0:
260,184,170772,1,0,0:0:0:0:
260,184,170877,1,8,0:0:0:0:
260,184,171089,1,8,0:0:0:0:
260,184,171194,1,8,0:0:0:0:
260,184,171300,1,0,0:0:0:0:
260,184,171511,1,0,0:0:0:0:
260,184,171722,1,8,0:0:0:0:
260,184,171828,1,0,0:0:0:0:
260,184,172039,1,0,0:0:0:0:
260,184,172145,1,8,0:0:0:0:
260,184,172356,1,8,0:0:0:0:
260,184,172462,1,0,0:0:0:0:
260,184,172568,1,8,0:0:0:0:
260,184,172779,1,0,0:0:0:0:
260,184,172885,1,8,0:0:0:0:
260,184,172990,1,0,0:0:0:0:
260,184,173201,1,0,0:0:0:0:
260,184,173413,1,8,0:0:0:0:
260,184,173518,1,0,0:0:0:0:
260,184,173730,1,0,0:0:0:0:
260,184,173835,1,8,0:0:0:0:
260,184,174046,1,0,0:0:0:0:
260,184,174152,1,0,0:0:0:0:
260,184,174258,1,8,0:0:0:0:
260,184,174469,1,8,0:0:0:0:
260,184,174575,1,8,0:0:0:0:
260,184,174680,1,0,0:0:0:0:
260,184,174892,1,0,0:0:0:0:
260,184,175103,1,8,0:0:0:0:
260,184,175208,1,0,0:0:0:0:
260,184,175420,1,0,0:0:0:0:
260,184,175525,1,8,0:0:0:0:
260,184,175737,1,0,0:0:0:0:
260,184,175842,1,8,0:0:0:0:
260,184,175948,1,8,0:0:0:0:
260,184,176159,1,8,0:0:0:0:
260,184,176265,1,0,0:0:0:0:
260,184,176370,1,0,0:0:0:0:
260,184,176582,1,0,0:0:0:0:
260,184,176793,1,8,0:0:0:0:
260,184,176899,1,0,0:0:0:0:
260,184,177110,1,0,0:0:0:0:
260,184,177215,1,8,0:0:0:0:
260,184,177321,1,0,0:0:0:0:
260,184,177532,1,0,0:0:0:0:
260,184,177638,1,8,0:0:0:0:
260,184,177744,1,0,0:0:0:0:
260,184,177849,1,0,0:0:0:0:
260,184,177955,1,8,0:0:0:0:
260,184,178061,1,0,0:0:0:0:
260,184,178272,1,0,0:0:0:0:
260,184,178483,1,8,0:0:0:0:
260,184,178589,1,0,0:0:0:0:
260,184,178800,1,0,0:0:0:0:
260,184,178906,1,8,0:0:0:0:
200,136,179011,1,0,0:0:0:0:
200,136,179117,1,4,0:0:0:0:
200,136,179328,1,4,0:0:0:0:
204,128,179539,1,0,0:0:0:0:
204,128,179751,1,8,0:0:0:0:
204,128,179856,1,0,0:0:0:0:
204,128,180068,1,0,0:0:0:0:
204,128,180173,1,8,0:0:0:0:
204,128,180385,1,0,0:0:0:0:
204,128,180490,1,0,0:0:0:0:
204,128,180596,1,8,0:0:0:0:
204,128,180807,1,8,0:0:0:0:
204,128,180913,1,8,0:0:0:0:
204,128,181018,1,0,0:0:0:0:
204,128,181230,1,0,0:0:0:0:
160,152,181441,1,8,0:0:0:0:
160,152,181546,1,0,0:0:0:0:
160,152,181758,1,0,0:0:0:0:
160,152,181863,1,8,0:0:0:0:
160,152,182075,1,0,0:0:0:0:
160,152,182180,1,8,0:0:0:0:
160,152,182286,1,8,0:0:0:0:
160,152,182392,1,8,0:0:0:0:
160,152,182497,1,0,0:0:0:0:
160,152,182708,1,8,0:0:0:0:
160,152,182920,1,0,0:0:0:0:
160,152,183131,1,8,0:0:0:0:
160,152,183237,1,0,0:0:0:0:
160,152,183448,1,0,0:0:0:0:
160,152,183554,1,8,0:0:0:0:
160,152,183765,1,0,0:0:0:0:
160,152,183870,1,0,0:0:0:0:
160,152,183976,1,8,0:0:0:0:
160,152,184187,1,8,0:0:0:0:
160,152,184293,1,8,0:0:0:0:
160,152,184399,1,0,0:0:0:0:
160,152,184610,1,0,0:0:0:0:
160,152,184821,1,8,0:0:0:0:
160,152,184927,1,0,0:0:0:0:
160,152,185138,1,0,0:0:0:0:
160,152,185244,1,8,0:0:0:0:
160,152,185455,1,0,0:0:0:0:
160,152,185561,1,8,0:0:0:0:
160,152,185666,1,0,0:0:0:0:
160,152,185772,1,8,0:0:0:0:
160,152,185877,1,0,0:0:0:0:
160,152,186089,1,8,0:0:0:0:
160,152,186300,1,0,0:0:0:0:
160,152,186511,1,8,0:0:0:0:
160,152,186617,1,0,0:0:0:0:
160,152,186828,1,0,0:0:0:0:
160,152,186934,1,8,0:0:0:0:
160,152,187145,1,0,0:0:0:0:
160,152,187251,1,0,0:0:0:0:
160,152,187356,1,8,0:0:0:0:
160,152,187568,1,8,0:0:0:0:
160,152,187673,1,8,0:0:0:0:
160,152,187779,1,0,0:0:0:0:
160,152,187990,1,0,0:0:0:0:
160,152,188096,1,8,0:0:0:0:
160,152,188201,1,0,0:0:0:0:
160,152,188307,1,8,0:0:0:0:
160,152,188413,1,0,0:0:0:0:
160,152,188625,1,8,0:0:0:0:
160,152,188730,1,8,0:0:0:0:
160,152,188836,1,0,0:0:0:0:
160,152,188941,1,8,0:0:0:0:
160,152,189047,1,0,0:0:0:0:
160,152,189153,1,8,0:0:0:0:
160,152,189258,1,0,0:0:0:0:
160,152,189469,1,8,0:0:0:0:
100,184,189680,5,4,0:0:0:0:
256,192,191370,12,0,192637,0:0:0:0:
120,140,193061,5,4,0:0:0:0:
120,140,193166,1,0,0:0:0:0:
96,196,193219,1,0,0:0:0:0:
120,140,193272,1,8,0:0:0:0:
120,140,193377,1,0,0:0:0:0:
120,140,193483,1,8,0:0:0:0:
120,140,193536,1,8,0:0:0:0:
120,140,193589,1,0,0:0:0:0:
120,140,193694,1,8,0:0:0:0:
120,140,193800,1,0,0:0:0:0:
120,140,193906,1,0,0:0:0:0:
120,140,193958,1,0,0:0:0:0:
120,140,194011,1,0,0:0:0:0:
120,140,194117,1,8,0:0:0:0:
120,140,194223,1,0,0:0:0:0:
120,140,194328,1,0,0:0:0:0:
120,140,194381,1,0,0:0:0:0:
120,140,194434,1,8,0:0:0:0:
96,196,194487,1,8,0:0:0:0:
120,140,194539,1,0,0:0:0:0:
120,140,194645,1,8,0:0:0:0:
120,140,194751,1,0,0:0:0:0:
120,140,194856,1,0,0:0:0:0:
116,184,194909,1,0,0:0:0:0:
120,140,194962,1,8,0:0:0:0:
120,140,195068,1,0,0:0:0:0:
120,140,195173,1,8,0:0:0:0:
120,140,195226,1,8,0:0:0:0:
120,140,195279,1,0,0:0:0:0:
120,140,195385,1,8,0:0:0:0:
120,140,195490,1,0,0:0:0:0:
120,140,195596,1,0,0:0:0:0:
120,140,195649,1,0,0:0:0:0:
120,140,195701,1,0,0:0:0:0:
120,140,195807,1,8,0:0:0:0:
120,140,195913,1,0,0:0:0:0:
120,140,196018,1,8,0:0:0:0:
120,140,196071,1,8,0:0:0:0:
120,140,196124,1,8,0:0:0:0:
120,140,196177,1,8,0:0:0:0:
120,140,196230,1,0,0:0:0:0:
120,140,196335,1,8,0:0:0:0:
204,160,196441,1,0,0:0:0:0:
204,160,196494,1,0,0:0:0:0:
204,160,196546,1,8,0:0:0:0:
204,160,196599,1,8,0:0:0:0:
204,160,196652,1,0,0:0:0:0:
204,160,196758,1,8,0:0:0:0:
204,160,196811,1,8,0:0:0:0:
204,160,196863,1,0,0:0:0:0:
204,160,196916,1,0,0:0:0:0:
204,160,196969,1,8,0:0:0:0:
204,160,197022,1,8,0:0:0:0:
204,160,197075,1,0,0:0:0:0:
204,160,197180,1,8,0:0:0:0:
204,160,197286,1,0,0:0:0:0:
204,160,197339,1,0,0:0:0:0:
204,160,197392,1,8,0:0:0:0:
204,160,197444,1,8,0:0:0:0:
204,160,197497,1,0,0:0:0:0:
204,160,197603,1,8,0:0:0:0:
204,160,197656,1,8,0:0:0:0:
204,160,197708,1,0,0:0:0:0:
204,160,197761,1,8,0:0:0:0:
204,160,197814,1,8,0:0:0:0:
204,160,197867,1,8,0:0:0:0:
204,160,197920,1,0,0:0:0:0:
204,160,198025,1,8,0:0:0:0:
120,140,198131,1,0,0:0:0:0:
120,140,198184,1,0,0:0:0:0:
120,140,198237,1,0,0:0:0:0:
120,140,198289,1,0,0:0:0:0:
120,140,198342,1,8,0:0:0:0:
120,140,198395,1,8,0:0:0:0:
120,140,198448,1,0,0:0:0:0:
120,140,198554,1,8,0:0:0:0:
120,140,198606,1,8,0:0:0:0:
120,140,198659,1,8,0:0:0:0:
120,140,198712,1,8,0:0:0:0:
120,140,198765,1,0,0:0:0:0:
120,140,198818,1,0,0:0:0:0:
120,140,198870,1,8,0:0:0:0:
120,140,198976,1,0,0:0:0:0:
120,140,199029,1,0,0:0:0:0:
120,140,199082,1,0,0:0:0:0:
120,140,199135,1,0,0:0:0:0:
120,140,199187,1,8,0:0:0:0:
120,140,199240,1,8,0:0:0:0:
120,140,199293,1,0,0:0:0:0:
120,140,199346,1,0,0:0:0:0:
120,140,199399,1,8,0:0:0:0:
120,140,199451,1,8,0:0:0:0:
120,140,199504,1,8,0:0:0:0:
120,140,199557,1,8,0:0:0:0:
120,140,199610,1,0,0:0:0:0:
120,140,199663,1,8,0:0:0:0:
120,140,199715,1,0,0:0:0:0:
120,140,199768,1,8,0:0:0:0:
120,140,199821,5,0,0:0:0:0:
120,140,199926,1,0,0:0:0:0:
148,172,199980,1,0,0:0:0:0:
120,140,200032,1,8,0:0:0:0:
120,140,200137,1,0,0:0:0:0:
120,140,200243,1,8,0:0:0:0:
120,140,200296,1,8,0:0:0:0:
120,140,200349,1,0,0:0:0:0:
120,140,200454,1,8,0:0:0:0:
120,140,200560,1,0,0:0:0:0:
120,140,200666,1,0,0:0:0:0:
120,140,200718,1,0,0:0:0:0:
120,140,200771,1,0,0:0:0:0:
120,140,200877,1,8,0:0:0:0:
120,140,200983,1,0,0:0:0:0:
120,140,201088,1,8,0:0:0:0:
120,140,201141,1,8,0:0:0:0:
120,140,201194,1,0,0:0:0:0:
148,172,201247,1,0,0:0:0:0:
120,140,201299,1,8,0:0:0:0:
120,140,201405,1,8,0:0:0:0:
120,140,201511,1,0,0:0:0:0:
120,140,201616,1,0,0:0:0:0:
148,172,201670,1,0,0:0:0:0:
120,140,201722,1,8,0:0:0:0:
120,140,201828,1,0,0:0:0:0:
120,140,201933,1,8,0:0:0:0:
120,140,201986,1,8,0:0:0:0:
120,140,202039,1,0,0:0:0:0:
120,140,202145,1,8,0:0:0:0:
120,140,202250,1,0,0:0:0:0:
120,140,202356,1,0,0:0:0:0:
120,140,202409,1,0,0:0:0:0:
120,140,202461,1,0,0:0:0:0:
120,140,202567,1,8,0:0:0:0:
120,140,202673,1,0,0:0:0:0:
120,140,202778,1,8,0:0:0:0:
120,140,202831,1,0,0:0:0:0:
120,140,202884,1,8,0:0:0:0:
120,140,202937,1,8,0:0:0:0:
120,140,202990,1,0,0:0:0:0:
120,140,203095,1,8,0:0:0:0:
256,152,203201,1,0,0:0:0:0:
256,152,203254,1,0,0:0:0:0:
256,152,203307,1,0,0:0:0:0:
256,152,203360,1,0,0:0:0:0:
256,152,203413,1,8,0:0:0:0:
256,152,203465,1,8,0:0:0:0:
248,184,203518,1,0,0:0:0:0:
204,116,203624,1,0,0:0:0:0:
204,116,203677,1,0,0:0:0:0:
204,116,203730,1,8,0:0:0:0:
204,116,203782,1,0,0:0:0:0:
204,116,203835,1,8,0:0:0:0:
204,116,203888,1,8,0:0:0:0:
204,116,203941,1,0,0:0:0:0:
204,116,204046,1,0,0:0:0:0:
204,116,204099,1,8,0:0:0:0:
204,116,204152,1,8,0:0:0:0:
204,116,204205,1,0,0:0:0:0:
204,116,204258,1,8,0:0:0:0:
204,116,204311,1,8,0:0:0:0:
204,116,204363,1,0,0:0:0:0:
204,116,204469,1,0,0:0:0:0:
204,116,204522,1,8,0:0:0:0:
204,116,204575,1,8,0:0:0:0:
204,116,204627,1,8,0:0:0:0:
204,116,204680,1,0,0:0:0:0:
204,116,204733,1,8,0:0:0:0:
204,116,204786,1,0,0:0:0:0:
204,116,204892,1,8,0:0:0:0:
204,116,204944,1,8,0:0:0:0:
204,116,204997,1,8,0:0:0:0:
204,116,205050,1,8,0:0:0:0:
204,116,205103,1,0,0:0:0:0:
204,116,205156,1,0,0:0:0:0:
204,116,205208,1,0,0:0:0:0:
204,116,205261,1,0,0:0:0:0:
204,116,205314,1,8,0:0:0:0:
204,116,205367,1,8,0:0:0:0:
204,116,205420,1,0,0:0:0:0:
204,116,205473,1,0,0:0:0:0:
204,116,205525,1,8,0:0:0:0:
204,116,205578,1,0,0:0:0:0:
204,116,205631,1,8,0:0:0:0:
204,116,205737,1,0,0:0:0:0:
204,116,205789,1,0,0:0:0:0:
204,116,205842,1,0,0:0:0:0:
204,116,205895,1,0,0:0:0:0:
204,116,205948,1,8,0:0:0:0:
204,116,206001,1,8,0:0:0:0:
204,116,206054,1,0,0:0:0:0:
204,116,206106,1,0,0:0:0:0:
204,116,206159,1,8,0:0:0:0:
204,116,206212,1,0,0:0:0:0:
204,116,206265,1,8,0:0:0:0:
204,116,206318,1,8,0:0:0:0:
204,116,206370,1,0,0:0:0:0:
204,116,206423,1,8,0:0:0:0:
204,116,206476,1,0,0:0:0:0:
204,116,206582,1,4,0:0:0:0:
108,148,206687,1,0,0:0:0:0:
108,148,206740,1,0,0:0:0:0:
120,140,206793,1,8,0:0:0:0:
120,140,206898,1,0,0:0:0:0:
120,140,207004,1,8,0:0:0:0:
120,140,207057,1,8,0:0:0:0:
120,140,207110,1,0,0:0:0:0:
120,140,207215,1,8,0:0:0:0:
120,140,207321,1,0,0:0:0:0:
120,140,207427,1,0,0:0:0:0:
120,140,207479,1,0,0:0:0:0:
120,140,207532,1,0,0:0:0:0:
120,140,207638,1,8,0:0:0:0:
120,140,207744,1,0,0:0:0:0:
120,140,207849,1,0,0:0:0:0:
120,140,207902,1,0,0:0:0:0:
120,140,207955,1,8,0:0:0:0:
112,152,208008,1,8,0:0:0:0:
120,140,208060,1,0,0:0:0:0:
120,140,208166,1,8,0:0:0:0:
120,140,208272,1,0,0:0:0:0:
120,140,208377,1,0,0:0:0:0:
112,152,208430,1,0,0:0:0:0:
120,140,208483,1,8,0:0:0:0:
120,140,208589,1,0,0:0:0:0:
120,140,208694,1,8,0:0:0:0:
120,140,208747,1,8,0:0:0:0:
120,140,208800,1,0,0:0:0:0:
120,140,208906,1,8,0:0:0:0:
120,140,209011,1,0,0:0:0:0:
120,140,209117,1,0,0:0:0:0:
120,140,209170,1,0,0:0:0:0:
120,140,209222,1,0,0:0:0:0:
120,140,209328,1,8,0:0:0:0:
120,140,209434,1,0,0:0:0:0:
120,140,209539,1,8,0:0:0:0:
120,140,209592,1,8,0:0:0:0:
120,140,209645,1,8,0:0:0:0:
120,140,209698,1,8,0:0:0:0:
120,140,209751,1,0,0:0:0:0:
120,140,209856,1,8,0:0:0:0:
204,160,209962,1,0,0:0:0:0:
204,160,210015,1,0,0:0:0:0:
204,160,210067,1,8,0:0:0:0:
204,160,210120,1,8,0:0:0:0:
204,160,210173,1,0,0:0:0:0:
204,160,210279,1,8,0:0:0:0:
204,160,210332,1,8,0:0:0:0:
204,160,210384,1,0,0:0:0:0:
204,160,210437,1,0,0:0:0:0:
204,160,210490,1,8,0:0:0:0:
204,160,210543,1,8,0:0:0:0:
204,160,210596,1,0,0:0:0:0:
204,160,210701,1,8,0:0:0:0:
204,160,210807,1,0,0:0:0:0:
204,160,210860,1,0,0:0:0:0:
204,160,210913,1,8,0:0:0:0:
204,160,210965,1,8,0:0:0:0:
204,160,211018,1,0,0:0:0:0:
204,160,211124,1,8,0:0:0:0:
204,160,211177,1,8,0:0:0:0:
204,160,211229,1,0,0:0:0:0:
204,160,211282,1,8,0:0:0:0:
204,160,211335,1,8,0:0:0:0:
204,160,211388,1,8,0:0:0:0:
204,160,211441,1,0,0:0:0:0:
204,160,211546,1,8,0:0:0:0:
120,140,211652,1,0,0:0:0:0:
120,140,211705,1,0,0:0:0:0:
120,140,211758,1,0,0:0:0:0:
120,140,211810,1,0,0:0:0:0:
120,140,211863,1,8,0:0:0:0:
120,140,211916,1,8,0:0:0:0:
120,140,211969,1,0,0:0:0:0:
120,140,212075,1,8,0:0:0:0:
120,140,212127,1,8,0:0:0:0:
120,140,212180,1,8,0:0:0:0:
120,140,212233,1,8,0:0:0:0:
120,140,212286,1,0,0:0:0:0:
120,140,212339,1,0,0:0:0:0:
120,140,212391,1,8,0:0:0:0:
120,140,212497,1,0,0:0:0:0:
120,140,212550,1,0,0:0:0:0:
120,140,212603,1,0,0:0:0:0:
120,140,212656,1,0,0:0:0:0:
120,140,212708,1,8,0:0:0:0:
120,140,212761,1,8,0:0:0:0:
120,140,212814,1,0,0:0:0:0:
120,140,212867,1,0,0:0:0:0:
120,140,212920,1,8,0:0:0:0:
120,140,212972,1,8,0:0:0:0:
120,140,213025,1,8,0:0:0:0:
120,140,213078,1,8,0:0:0:0:
120,140,213131,1,0,0:0:0:0:
120,140,213184,1,8,0:0:0:0:
120,140,213236,1,0,0:0:0:0:
120,140,213289,1,8,0:0:0:0:
120,140,213342,5,0,0:0:0:0:
120,140,213447,1,0,0:0:0:0:
116,156,213501,1,0,0:0:0:0:
120,140,213553,1,8,0:0:0:0:
120,140,213658,1,0,0:0:0:0:
120,140,213764,1,8,0:0:0:0:
120,140,213817,1,8,0:0:0:0:
120,140,213870,1,0,0:0:0:0:
120,140,213975,1,8,0:0:0:0:
120,140,214081,1,0,0:0:0:0:
120,140,214187,1,0,0:0:0:0:
120,140,214239,1,0,0:0:0:0:
120,140,214292,1,0,0:0:0:0:
120,140,214398,1,8,0:0:0:0:
120,140,214504,1,0,0:0:0:0:
120,140,214609,1,8,0:0:0:0:
120,140,214662,1,8,0:0:0:0:
120,140,214715,1,0,0:0:0:0:
116,156,214768,1,0,0:0:0:0:
120,140,214821,1,8,0:0:0:0:
120,140,214926,1,8,0:0:0:0:
120,140,215032,1,0,0:0:0:0:
120,140,215137,1,0,0:0:0:0:
172,160,215191,1,0,0:0:0:0:
120,140,215243,1,8,0:0:0:0:
120,140,215349,1,0,0:0:0:0:
120,140,215454,1,8,0:0:0:0:
120,140,215507,1,8,0:0:0:0:
120,140,215560,1,0,0:0:0:0:
120,140,215666,1,8,0:0:0:0:
120,140,215771,1,0,0:0:0:0:
120,140,215877,1,0,0:0:0:0:
120,140,215930,1,0,0:0:0:0:
120,140,215982,1,0,0:0:0:0:
120,140,216088,1,8,0:0:0:0:
120,140,216194,1,0,0:0:0:0:
120,140,216299,1,8,0:0:0:0:
120,140,216352,1,0,0:0:0:0:
120,140,216405,1,8,0:0:0:0:
120,140,216458,1,8,0:0:0:0:
120,140,216511,1,0,0:0:0:0:
120,140,216616,1,8,0:0:0:0:
264,172,216723,1,0,0:0:0:0:
264,172,216775,1,0,0:0:0:0:
264,172,216828,1,0,0:0:0:0:
264,172,216881,1,0,0:0:0:0:
264,172,216934,1,8,0:0:0:0:
264,172,216987,1,8,0:0:0:0:
264,172,217039,1,8,0:0:0:0:
264,172,217145,1,0,0:0:0:0:
264,172,217198,1,0,0:0:0:0:
264,172,217251,1,0,0:0:0:0:
264,172,217304,1,0,0:0:0:0:
264,172,217356,1,8,0:0:0:0:
264,172,217409,1,8,0:0:0:0:
264,172,217462,1,8,0:0:0:0:
264,172,217568,1,0,0:0:0:0:
264,172,217620,1,0,0:0:0:0:
264,172,217673,1,8,0:0:0:0:
264,172,217726,1,8,0:0:0:0:
264,172,217779,1,0,0:0:0:0:
264,172,217832,1,0,0:0:0:0:
264,172,217885,1,8,0:0:0:0:
264,172,217990,1,0,0:0:0:0:
264,172,218043,1,0,0:0:0:0:
264,172,218096,1,8,0:0:0:0:
264,172,218149,1,8,0:0:0:0:
264,172,218201,1,0,0:0:0:0:
264,172,218254,1,0,0:0:0:0:
264,172,218307,1,8,0:0:0:0:
264,172,218413,1,0,0:0:0:0:
264,172,218465,1,0,0:0:0:0:
264,172,218518,1,0,0:0:0:0:
264,172,218571,1,0,0:0:0:0:
264,172,218624,1,8,0:0:0:0:
264,172,218677,1,8,0:0:0:0:
264,172,218730,1,8,0:0:0:0:
264,172,218782,1,8,0:0:0:0:
264,172,218835,1,0,0:0:0:0:
264,172,218888,1,0,0:0:0:0:
264,168,218941,1,0,0:0:0:0:
264,168,218994,1,0,0:0:0:0:
264,172,219046,1,8,0:0:0:0:
264,172,219099,1,8,0:0:0:0:
264,172,219152,1,8,0:0:0:0:
264,172,219205,1,8,0:0:0:0:
264,172,219258,1,0,0:0:0:0:
264,168,219311,1,0,0:0:0:0:
264,168,219363,1,8,0:0:0:0:
264,168,219416,1,8,0:0:0:0:
264,168,219469,1,0,0:0:0:0:
264,168,219522,1,0,0:0:0:0:
264,168,219575,1,8,0:0:0:0:
264,168,219627,1,8,0:0:0:0:
264,168,219680,1,0,0:0:0:0:
264,168,219733,1,8,0:0:0:0:
264,168,219786,1,8,0:0:0:0:
264,168,219839,1,8,0:0:0:0:
264,168,219892,1,0,0:0:0:0:
264,168,219997,1,8,0:0:0:0:
256,192,220103,12,0,222638,0:0:0:0:
268,216,223483,5,8,0:0:0:0:
268,216,223536,1,8,0:0:0:0:
268,216,223589,1,0,0:0:0:0:
268,216,223694,1,8,0:0:0:0:
268,216,223800,1,0,0:0:0:0:
268,216,223906,1,8,0:0:0:0:
268,216,223958,1,8,0:0:0:0:
268,216,224011,1,0,0:0:0:0:
268,216,224117,1,8,0:0:0:0:
268,216,224223,1,0,0:0:0:0:
268,216,224328,1,8,0:0:0:0:
268,216,224381,1,8,0:0:0:0:
268,216,224434,1,0,0:0:0:0:
268,216,224539,1,8,0:0:0:0:
268,216,224645,1,0,0:0:0:0:
268,216,224751,1,8,0:0:0:0:
268,216,224804,1,8,0:0:0:0:
268,216,224856,1,0,0:0:0:0:
268,216,224962,1,8,0:0:0:0:
268,216,225068,1,0,0:0:0:0:
268,216,225173,1,8,0:0:0:0:
268,216,225226,1,8,0:0:0:0:
268,216,225279,1,0,0:0:0:0:
268,216,225385,1,8,0:0:0:0:
268,216,225437,1,8,0:0:0:0:
268,216,225490,1,0,0:0:0:0:
268,216,225596,1,8,0:0:0:0:
268,216,225649,1,8,0:0:0:0:
268,216,225701,1,0,0:0:0:0:
268,216,225807,1,8,0:0:0:0:
268,216,225860,1,8,0:0:0:0:
268,216,225913,1,0,0:0:0:0:
268,216,226018,1,8,0:0:0:0:
268,216,226071,1,8,0:0:0:0:
268,216,226124,1,0,0:0:0:0:
268,216,226177,1,0,0:0:0:0:
268,216,226230,1,8,0:0:0:0:
268,216,226282,1,8,0:0:0:0:
268,216,226335,1,0,0:0:0:0:
268,216,226388,1,0,0:0:0:0:
268,216,226441,1,8,0:0:0:0:
268,216,226494,1,8,0:0:0:0:
268,216,226546,1,0,0:0:0:0:
268,216,226599,1,0,0:0:0:0:
268,216,226652,1,8,0:0:0:0:
268,216,226705,1,8,0:0:0:0:
268,216,226758,1,8,0:0:0:0:
268,216,226811,1,8,0:0:0:0:
256,192,226863,12,0,227708,0:0:0:0:
340,176,229399,5,12,0:0:0:0:
340,176,229610,1,4,0:0:0:0:
340,176,229821,1,4,0:0:0:0:
340,176,230032,1,4,0:0:0:0:
340,200,230244,1,4,0:0:0:0:
340,200,230455,1,8,0:0:0:0:
340,200,230666,1,0,0:0:0:0:
340,200,230772,1,0,0:0:0:0:
340,200,230877,1,8,0:0:0:0:
340,200,231089,1,0,0:0:0:0:
340,200,231300,1,8,0:0:0:0:
340,200,231406,1,0,0:0:0:0:
340,200,231617,1,0,0:0:0:0:
340,200,231723,1,8,0:0:0:0:
340,200,231828,1,0,0:0:0:0:
340,200,231934,1,0,0:0:0:0:
340,200,232145,1,8,0:0:0:0:
340,200,232356,1,0,0:0:0:0:
340,200,232462,1,0,0:0:0:0:
340,200,232568,1,8,0:0:0:0:
340,200,232779,1,0,0:0:0:0:
340,200,232990,1,8,0:0:0:0:
340,200,233096,1,0,0:0:0:0:
340,200,233307,1,8,0:0:0:0:
340,200,233413,1,8,0:0:0:0:
340,200,233518,1,0,0:0:0:0:
340,200,233624,1,0,0:0:0:0:
340,200,233835,1,8,0:0:0:0:
340,200,234046,1,0,0:0:0:0:
340,200,234152,1,0,0:0:0:0:
340,200,234258,1,8,0:0:0:0:
340,200,234469,1,0,0:0:0:0:
340,200,234680,1,8,0:0:0:0:
340,200,234786,1,0,0:0:0:0:
340,200,234997,1,0,0:0:0:0:
340,200,235103,1,8,0:0:0:0:
340,200,235208,1,0,0:0:0:0:
340,200,235314,1,0,0:0:0:0:
340,200,235525,1,8,0:0:0:0:
340,200,235737,1,0,0:0:0:0:
340,200,235842,1,0,0:0:0:0:
340,200,235948,1,8,0:0:0:0:
340,200,236159,1,0,0:0:0:0:
340,200,236265,1,8,0:0:0:0:
340,200,236370,1,8,0:0:0:0:
340,200,236476,1,0,0:0:0:0:
340,200,236687,1,8,0:0:0:0:
340,200,236793,1,8,0:0:0:0:
340,200,236846,1,8,0:0:0:0:
340,200,236899,1,0,0:0:0:0:
340,200,237004,1,4,0:0:0:0:
340,200,237215,1,8,0:0:0:0:
340,200,237426,1,0,0:0:0:0:
340,200,237532,1,0,0:0:0:0:
340,200,237637,1,8,0:0:0:0:
340,200,237849,1,0,0:0:0:0:
164,180,237955,1,0,0:0:0:0:
340,200,238060,1,8,0:0:0:0:
340,200,238166,1,0,0:0:0:0:
340,200,238377,1,0,0:0:0:0:
340,200,238483,1,8,0:0:0:0:
340,200,238588,1,0,0:0:0:0:
340,200,238694,1,0,0:0:0:0:
340,200,238905,1,8,0:0:0:0:
340,200,239116,1,0,0:0:0:0:
340,200,239222,1,0,0:0:0:0:
340,200,239328,1,8,0:0:0:0:
340,200,239539,1,0,0:0:0:0:
164,180,239645,1,0,0:0:0:0:
340,200,239750,1,8,0:0:0:0:
340,200,239856,1,0,0:0:0:0:
340,200,240067,1,8,0:0:0:0:
340,200,240173,1,8,0:0:0:0:
340,200,240278,1,0,0:0:0:0:
340,200,240384,1,0,0:0:0:0:
340,200,240595,1,8,0:0:0:0:
340,200,240806,1,0,0:0:0:0:
340,200,240912,1,0,0:0:0:0:
340,200,241018,1,8,0:0:0:0:
340,200,241229,1,0,0:0:0:0:
164,180,241335,1,0,0:0:0:0:
340,200,241440,1,8,0:0:0:0:
340,200,241546,1,0,0:0:0:0:
340,200,241757,1,0,0:0:0:0:
340,200,241863,1,8,0:0:0:0:
340,200,241968,1,0,0:0:0:0:
208,196,242075,1,0,0:0:0:0:
208,196,242180,1,0,0:0:0:0:
208,196,242286,1,8,0:0:0:0:
208,196,242392,1,0,0:0:0:0:
208,196,242497,1,8,0:0:0:0:
208,196,242603,1,8,0:0:0:0:
208,196,242708,1,0,0:0:0:0:
208,196,242814,1,8,0:0:0:0:
208,196,242920,1,0,0:0:0:0:
208,196,242973,1,0,0:0:0:0:
208,196,243025,1,0,0:0:0:0:
208,192,243078,1,0,0:0:0:0:
208,196,243131,1,8,0:0:0:0:
208,192,243237,1,0,0:0:0:0:
208,192,243342,1,8,0:0:0:0:
208,192,243395,1,8,0:0:0:0:
208,192,243448,1,8,0:0:0:0:
208,192,243501,1,8,0:0:0:0:
208,192,243554,1,0,0:0:0:0:
208,192,243659,1,8,0:0:0:0:
200,200,243765,1,4,0:0:0:0:
152,208,245032,5,4,0:0:0:0:
152,208,245244,1,12,0:0:0:0:
