osu file format v14

[General]
AudioFilename: op.mp3
AudioLeadIn: 0
PreviewTime: 46778
Countdown: 0
SampleSet: Soft
StackLeniency: 0.5
Mode: 0
LetterboxInBreaks: 0
StoryFireInFront: 0
WidescreenStoryboard: 1

[Editor]
DistanceSpacing: 0.4
BeatDivisor: 4
GridSize: 4
TimelineZoom: 1.7

[Metadata]
Title:Kyouran Hey Kids!! (TV Size)
TitleUnicode:狂乱 Hey Kids!! (TV Size)
Artist:THE ORAL CIGARETTES
ArtistUnicode:THE ORAL CIGARETTES
Creator:Nevo
Version:Shinki
Source:ノラガミ ARAGOTO
Tags:noragami season 2 s2 opening byd bite you death airincat Gottagof4st onlybiscuit japanese anime toc short
BeatmapID:1943424
BeatmapSetID:930621

[Difficulty]
HPDrainRate:5.4
CircleSize:4
OverallDifficulty:8.2
ApproachRate:9.5
SliderMultiplier:3
SliderTickRate:1

[Events]
//Background and Video events
0,0,"bg.png",0,0
Video,70,"opening.avi"
//Break Periods
//Storyboard Layer 0 (Background)
//Storyboard Layer 1 (Fail)
//Storyboard Layer 2 (Pass)
//Storyboard Layer 3 (Foreground)
//Storyboard Sound Samples

[TimingPoints]
617,422.5352112676,4,2,2,40,1,0
617,-200,4,2,2,40,0,0
5687,-100,4,2,2,60,0,0
6955,-333.3333333333,4,2,2,50,0,0
7377,-100,4,2,2,60,0,0
20898,-133.3333333333,4,2,2,50,0,0
27447,-133.3333333333,4,2,1,50,0,0
27659,-133.3333333333,4,2,2,50,0,0
32624,-133.3333333333,4,2,1,50,0,0
32729,-133.3333333333,4,2,2,50,0,0
33152,-133.3333333333,4,2,2,30,0,0
33363,-133.3333333333,4,2,2,40,0,0
33574,-133.3333333333,4,2,2,50,0,0
33786,-133.3333333333,4,2,2,60,0,0
33997,-222.2222222222,4,2,2,50,0,0
34419,-222.2222222222,4,2,2,60,0,0
34525,-100,4,2,2,60,0,0
40335,-133.3333333333,4,2,1,50,0,0
40440,-133.3333333333,4,2,2,50,0,0
40757,-133.3333333333,4,2,1,50,0,0
40863,-133.3333333333,4,2,2,50,0,0
41180,-133.3333333333,4,2,1,50,0,0
47095,-181.8181818182,4,2,2,50,0,0
47518,-100,4,2,2,50,0,0
47940,-83.33333333333,4,2,2,70,0,1
61039,-83.33333333333,4,2,1,70,0,1
61145,-83.33333333333,4,2,2,60,0,1
61567,-83.33333333333,4,2,2,5,0,1
61673,-83.33333333333,4,2,2,60,0,1
61778,-83.33333333333,4,2,2,5,0,1
61884,-83.33333333333,4,2,2,60,0,1
61990,-83.33333333333,4,2,2,5,0,1
62095,-83.33333333333,4,2,2,60,0,1
62201,-83.33333333333,4,2,2,5,0,1
62307,-83.33333333333,4,2,1,60,0,1
62412,-83.33333333333,4,2,2,5,0,1
62518,-83.33333333333,4,2,2,60,0,1
63257,-83.33333333333,4,2,2,5,0,1
63363,-83.33333333333,4,2,2,60,0,1
63469,-83.33333333333,4,2,2,5,0,1
63574,-83.33333333333,4,2,2,60,0,1
63680,-83.33333333333,4,2,2,5,0,1
63786,-83.33333333333,4,2,2,60,0,1
63891,-83.33333333333,4,2,2,5,0,1
63997,-83.33333333333,4,2,1,60,0,1
64102,-83.33333333333,4,2,2,5,0,1
64208,-83.33333333333,4,2,2,60,0,1
64842,-100,4,2,2,60,0,0
65687,-100,4,2,1,60,0,0
65793,-100,4,2,2,60,0,0
67377,-100,4,2,1,60,0,0
67588,-100,4,2,2,60,0,0
68328,-100,4,2,2,5,0,0
68433,-100,4,2,2,60,0,0
68539,-100,4,2,2,5,0,0
68645,-100,4,2,2,60,0,0
68750,-100,4,2,2,5,0,0
68856,-100,4,2,2,60,0,0
68962,-100,4,2,2,5,0,0
69067,-100,4,2,1,60,0,0
69173,-100,4,2,2,5,0,0
69278,-100,4,2,2,60,0,0
70018,-100,4,2,2,5,0,0
70124,-100,4,2,2,60,0,0
70229,-100,4,2,2,5,0,0
70335,-100,4,2,2,60,0,0
70440,-100,4,2,2,5,0,0
70546,-100,4,2,1,60,0,0
70652,-100,4,2,2,5,0,0
70757,-100,4,2,2,60,0,0
70863,-100,4,2,2,5,0,0
70969,-100,4,2,2,60,0,0
71602,-133.3333333333,4,2,2,60,0,0
74560,-100,4,2,2,60,0,0
74983,-83.33333333333,4,2,2,70,0,1
85124,-83.33333333333,4,2,2,60,0,0

[Colours]
Combo1 : 252,218,27
Combo2 : 187,128,4
Combo3 : 135,33,115
Combo4 : 27,86,118

[HitObjects]
39,292,617,6,0,P|79:269|180:288,1,150,4|2,3:2|0:3,0:0:0:0:
253,336,1250,1,0,0:0:0:0:
277,173,1462,2,0,P|255:216|251:254,1,75,2|0,0:3|0:0,0:0:0:0:
273,83,1884,2,0,P|233:97|203:121,1,75,2|0,0:3|0:0,0:0:0:0:
339,237,2307,6,0,L|496:221,1,150,2|2,0:3|0:3,0:0:0:0:
509,140,2940,1,0,0:0:0:0:
446,54,3152,2,0,L|365:44,1,75,2|0,0:3|0:0,0:0:0:0:
347,138,3574,2,0,L|429:128,1,75,2|0,0:3|0:0,0:0:0:0:
269,9,3997,6,0,P|216:4|136:62,1,150,2|2,0:3|0:3,0:0:0:0:
155,146,4631,1,0,0:0:0:0:
0,125,4842,2,0,P|29:114|78:114,1,75,2|2,0:3|0:3,0:0:0:0:
173,237,5264,2,0,P|126:233|98:223,1,75,2|0,0:3|3:0,0:0:0:0:
261,122,5687,5,8,0:0:0:0:
16,57,6955,5,8,0:0:0:0:
0,200,7377,5,4,3:2:0:0:
0,200,7483,2,0,B|39:198|39:198|78:216,1,75,0|8,0:0|0:0,0:0:0:0:
84,295,7694,1,0,0:0:0:0:
84,295,7800,2,0,B|129:296|153:258|153:258|189:257|231:283,1,150,0|8,3:2|0:0,0:0:0:0:
270,359,8116,2,0,P|251:288|290:226,1,150
378,199,8433,1,8,0:0:0:0:
463,224,8539,1,0,0:0:0:0:
390,272,8645,2,0,L|373:172,1,75,0|0,3:0|3:0,0:0:0:0:
458,63,8856,2,0,L|445:151,1,75,8|0,0:0|0:0,0:0:0:0:
209,83,9067,5,0,3:0:0:0:
209,83,9173,2,0,B|244:67|244:67|291:72,1,75,0|8,0:0|0:0,0:0:0:0:
308,158,9384,1,0,0:0:0:0:
308,158,9490,2,0,B|256:151|256:151|215:189|215:189|139:178,1,150,0|8,3:0|0:0,0:0:0:0:
33,198,9807,2,0,B|86:203|86:203|117:177|117:177|190:184,1,150,0|0,0:0|3:0,0:0:0:0:
327,258,10124,1,8,0:0:0:0:
411,251,10229,1,0,0:0:0:0:
464,314,10335,2,0,L|364:297,1,75,0|0,3:0|3:0,0:0:0:0:
253,379,10546,2,0,L|341:366,1,75,8|0,0:0|0:0,0:0:0:0:
117,232,10757,5,0,3:0:0:0:
117,232,10863,2,0,B|100:266|100:266|105:318,1,75,0|8,0:0|0:0,0:0:0:0:
196,204,11074,1,0,0:0:0:0:
196,204,11180,2,0,L|174:49,1,150,0|8,3:0|0:0,0:0:0:0:
276,116,11497,2,0,B|290:226|290:226|265:256,1,150,0|0,0:0|0:0,0:0:0:0:
172,368,11814,1,8,0:0:0:0:
101,326,11919,1,0,0:0:0:0:
43,381,12025,2,0,L|51:302,1,75,0|0,3:0|3:0,0:0:0:0:
151,183,12236,2,0,L|159:262,1,75,8|0,0:0|0:0,0:0:0:0:
7,144,12447,5,0,3:0:0:0:
7,144,12553,2,0,P|38:134|81:134,1,75,0|8,0:0|0:0,0:0:0:0:
236,217,12764,1,0,0:0:0:0:
236,217,12870,2,0,P|267:227|310:227,1,75,0|0,3:0|3:0,0:0:0:0:
446,143,13081,1,8,0:0:0:0:
287,0,13187,6,0,B|264:44|264:44|279:155,1,150,0|0,0:0|0:0,0:0:0:0:
316,299,13504,1,8,0:0:0:0:
383,336,13609,1,8,0:0:0:0:
449,297,13715,1,8,0:0:0:0:
436,221,13820,1,8,0:0:0:0:
446,143,13926,1,8,0:0:0:0:
512,104,14031,1,8,0:0:0:0:
512,21,14138,5,4,3:2:0:0:
512,21,14243,2,0,L|424:34,1,75,0|8,0:0|0:0,0:0:0:0:
350,107,14455,1,0,0:0:0:0:
350,107,14560,2,0,L|265:89,1,75,0|0,3:2|3:0,0:0:0:0:
163,205,14771,1,8,0:0:0:0:
163,205,14877,2,0,B|235:192|235:192|312:209,1,150,0|0,0:0|0:0,0:0:0:0:
183,363,15194,1,8,0:0:0:0:
116,322,15300,1,0,0:0:0:0:
53,370,15405,2,0,L|139:358,1,75,0|0,3:0|3:0,0:0:0:0:
273,287,15617,2,0,L|197:282,1,75,8|0,0:0|0:0,0:0:0:0:
330,345,15828,5,0,3:0:0:0:
330,345,15933,2,0,P|351:317|357:276,1,75,0|8,0:0|0:0,0:0:0:0:
285,176,16145,1,0,0:0:0:0:
285,176,16250,2,0,B|357:197|357:197|447:182,1,150,0|8,3:0|0:0,0:0:0:0:
505,56,16567,2,0,B|443:99|443:99|369:112,1,150,0|0,0:0|0:0,0:0:0:0:
194,74,16884,1,8,0:0:0:0:
113,51,16990,1,0,0:0:0:0:
48,102,17095,2,0,L|59:176,1,75,0|0,3:0|3:0,0:0:0:0:
127,289,17307,2,0,L|138:214,1,75,8|0,0:0|0:0,0:0:0:0:
286,74,17518,5,0,3:0:0:0:
286,74,17624,2,0,B|319:69|319:69|373:87,1,75,0|8,0:0|0:0,0:0:0:0:
501,169,17835,1,0,0:0:0:0:
501,169,17940,2,0,B|458:136|420:144|420:144|390:171|334:165,1,150,0|8,3:0|0:0,0:0:0:0:
234,263,18257,2,0,B|261:268|291:241|291:241|329:233|372:266,1,150,0|0,0:0|0:0,0:0:0:0:
360,371,18574,1,8,0:0:0:0:
271,384,18680,1,0,0:0:0:0:
202,342,18786,2,0,L|111:329,1,75,0|0,3:0|3:0,0:0:0:0:
0,278,18997,2,0,L|91:265,1,75,8|0,0:0|0:0,0:0:0:0:
290,131,19208,5,0,3:0:0:0:
227,82,19314,1,0,0:0:0:0:
157,118,19419,2,0,L|73:126,1,75,8|0,0:0|0:0,0:0:0:0:
263,285,19631,5,0,3:0:0:0:
326,236,19737,1,0,3:0:0:0:
396,272,19842,2,0,L|480:280,1,75,8|0,0:0|0:0,0:0:0:0:
214,179,20053,5,8,0:0:0:0:
167,248,20158,1,8,0:0:0:0:
185,329,20264,1,10,0:0:0:0:
254,375,20369,1,8,0:0:0:0:
336,377,20476,2,0,L|419:369,1,75,10|8,0:0|0:0,0:0:0:0:
505,201,20687,2,0,L|422:193,1,75,10|8,0:0|0:0,0:0:0:0:
60,58,20898,6,0,B|52:93|52:93|68:182,1,112.5000042915,6|0,3:2|0:0,0:0:0:0:
189,239,21321,2,0,B|167:108,1,112.5000042915,8|0,0:0|0:0,0:0:0:0:
293,179,21743,2,0,B|306:255|306:255|298:290,1,112.5000042915,0|0,3:0|0:0,0:0:0:0:
222,342,22060,1,0,0:0:0:0:
222,342,22166,2,0,P|160:347|102:328,1,112.5000042915,8|8,0:0|0:0,0:0:0:0:
62,262,22482,1,8,0:0:0:0:
62,262,22588,6,0,L|77:122,1,112.5000042915,0|0,3:2|0:0,0:0:0:0:
193,49,23011,2,0,L|204:161,1,112.5000042915,8|0,0:0|0:0,0:0:0:0:
324,262,23433,2,0,L|335:150,1,112.5000042915,0|0,3:2|0:0,0:0:0:0:
464,66,23856,1,8,0:0:0:0:
487,197,24067,1,0,0:0:0:0:
374,118,24278,6,0,B|330:105|330:105|251:121,1,112.5000042915,0|0,3:2|0:0,0:0:0:0:
212,226,24595,1,0,0:0:0:0:
212,226,24701,2,0,L|341:197,1,112.5000042915,8|0,0:0|0:0,0:0:0:0:
266,306,25124,2,0,B|201:319|201:319|157:306,1,112.5000042915,0|0,3:0|0:0,0:0:0:0:
24,234,25546,1,8,0:0:0:0:
130,94,25757,1,8,0:0:0:0:
202,135,25863,1,8,0:0:0:0:
261,74,25969,6,0,B|323:64|323:64|391:81,1,112.5000042915,0|0,3:2|0:0,0:0:0:0:
430,167,26286,1,0,0:0:0:0:
430,167,26391,2,0,B|368:177|368:177|300:160,1,112.5000042915,8|0,0:0|0:0,0:0:0:0:
184,248,26814,2,0,B|246:238|246:238|314:255,1,112.5000042915,0|0,3:0|0:0,0:0:0:0:
409,341,27236,1,8,0:0:0:0:
252,377,27447,1,8,0:3:0:0:
182,327,27553,1,8,0:3:0:0:
111,375,27659,6,0,P|52:383|0:362,1,112.5000042915,4|0,3:2|0:0,0:0:0:0:
67,189,28081,2,0,B|86:228|86:228|68:326,1,112.5000042915,8|0,0:0|0:0,0:0:0:0:
5,116,28504,2,0,P|57:98|112:106,1,112.5000042915,0|0,3:0|0:0,0:0:0:0:
239,244,28926,1,8,0:0:0:0:
355,147,29138,1,8,0:0:0:0:
294,90,29243,1,8,0:0:0:0:
271,168,29349,6,0,L|291:289,1,112.5000042915,0|0,3:2|0:0,0:0:0:0:
453,112,29771,2,0,L|433:233,1,112.5000042915,8|0,0:0|0:0,0:0:0:0:
163,60,30194,2,0,L|183:181,1,112.5000042915,0|0,3:0|0:0,0:0:0:0:
498,26,30617,1,8,0:0:0:0:
322,0,30828,1,0,1:2:0:0:
253,48,30933,1,0,1:2:0:0:
270,135,31039,6,0,L|294:259,1,112.5000042915,0|0,3:2|0:0,0:0:0:0:
477,218,31462,2,0,L|357:176,1,112.5000042915,8|0,0:0|0:0,0:0:0:0:
301,355,31884,2,0,L|396:272,1,112.5000042915,0|0,3:0|0:0,0:0:0:0:
113,151,32307,5,8,0:0:0:0:
200,283,32518,1,8,0:3:0:0:
247,213,32624,1,8,0:3:0:0:
222,139,32729,2,0,P|141:139|101:160,1,112.5000042915,6|0,3:2|0:0,0:0:0:0:
3,33,33152,1,10,0:0:0:0:
40,24,33257,1,8,0:0:0:0:
79,24,33363,1,10,0:0:0:0:
116,33,33468,1,8,0:0:0:0:
152,49,33574,1,10,3:2:0:0:
198,57,33679,1,8,3:2:0:0:
244,53,33785,1,8,3:2:0:0:
288,38,33890,1,8,3:2:0:0:
325,9,33997,6,0,B|332:137,1,101.2499969101,2|0,3:2|0:0,0:0:0:0:
476,179,34419,5,6,3:2:0:0:
476,179,34525,2,0,B|433:187|398:164|398:164|370:198|314:192,1,150,0|0,0:0|0:0,0:0:0:0:
451,93,34842,2,0,B|464:119|464:119|439:273,1,150,0|8,3:2|0:0,0:0:0:0:
391,316,35159,1,0,0:0:0:0:
305,281,35264,2,0,P|229:274|229:274,1,75,0|0,3:0|0:0,0:0:0:0:
110,169,35476,2,0,P|134:209|151:265,1,75,8|0,0:0|0:0,0:0:0:0:
48,89,35687,2,0,P|24:129|7:185,1,75,0|0,3:0|3:0,0:0:0:0:
132,15,35898,2,0,P|156:55|173:111,1,75,8|0,0:0|0:0,0:0:0:0:
228,182,36109,5,0,3:0:0:0:
228,182,36215,2,0,L|345:173,1,75,0|10,0:0|0:0,0:0:0:0:
434,226,36426,1,0,0:0:0:0:
434,226,36532,2,0,B|379:226|379:226|343:257|343:257|271:263,1,150,2|10,3:2|0:0,0:0:0:0:
196,347,36849,1,0,0:0:0:0:
196,347,36955,2,0,P|273:292|362:349,1,150,2|8,3:2|0:0,0:0:0:0:
442,375,37271,1,0,0:0:0:0:
442,375,37377,2,0,L|433:210,1,150,2|8,3:2|0:0,0:0:0:0:
357,77,37800,5,6,3:2:0:0:
357,77,37905,2,0,B|314:66|314:66|272:79,1,75,0|8,0:0|0:0,0:0:0:0:
249,173,38117,1,0,0:0:0:0:
249,173,38222,2,0,B|320:151|320:151|414:187,1,150,0|8,3:0|0:0,0:0:0:0:
270,267,38539,2,0,L|167:262,1,75,0|0,0:0|3:0,0:0:0:0:
14,184,38750,1,0,0:0:0:0:
15,87,38856,1,8,0:0:0:0:
107,59,38962,1,0,0:0:0:0:
162,136,39067,1,0,3:0:0:0:
105,212,39173,1,0,3:0:0:0:
82,138,39278,5,8,0:0:0:0:
356,31,39490,6,0,L|446:58,1,75,8|8,3:2|0:0,0:0:0:0:
500,120,39701,2,0,L|410:147,1,75,10|8,0:0|0:0,0:0:0:0:
294,176,39912,2,0,L|384:203,1,75,10|8,0:0|0:0,0:0:0:0:
438,265,40123,2,0,L|348:292,1,75,10|8,0:0|0:0,0:0:0:0:
262,356,40335,6,0,P|206:347|154:367,3,112.5000042915,10|8|10|8,3:0|3:0|3:0|3:3,0:0:0:0:
173,41,41180,6,0,B|147:86|147:86|175:226,1,168.7500064373,6|0,3:2|3:0,0:0:0:0:
255,309,41814,1,0,3:0:0:0:
257,101,42025,1,8,1:2:0:0:
169,200,42447,1,0,0:0:0:0:
339,41,42870,6,0,B|365:86|365:86|337:226,1,168.7500064373,0|0,3:0|3:0,0:0:0:0:
257,309,43504,1,0,3:0:0:0:
255,101,43715,1,8,1:2:0:0:
343,200,44137,1,0,3:0:0:0:
41,184,44560,5,0,3:0:0:0:
41,184,44666,2,0,L|58:266,1,56.25000214577,0|0,0:0|0:0,0:0:0:0:
205,304,44877,5,0,3:0:0:0:
205,304,44983,2,0,L|214:220,1,56.25000214577,0|0,0:0|0:0,0:0:0:0:
363,183,45194,5,0,3:0:0:0:
363,183,45300,2,0,L|372:266,1,56.25000214577,0|8,0:0|1:2,0:0:0:0:
187,67,45617,1,0,0:0:0:0:
457,106,45828,1,8,1:2:0:0:
326,35,46039,1,0,0:0:0:0:
101,197,46250,5,8,1:2:0:0:
34,266,46356,1,8,0:3:0:0:
78,351,46462,1,8,0:3:0:0:
172,336,46567,1,8,0:3:0:0:
186,240,46673,1,8,1:2:0:0:
62,62,46884,2,0,L|75:126,1,56.25000214577,2|0,0:0|0:0,0:0:0:0:
265,201,47095,6,0,B|310:205|356:181|356:181|345:202|339:226,1,123.7500037766,2|0,0:0|0:0,0:0:0:0:
392,274,47518,6,0,P|361:236|442:266,1,225,2|0,0:0|0:0,0:0:0:0:
420,360,47940,6,0,B|348:349|348:349|305:371|305:371|222:361,1,179.9999945068,4|10,3:2|0:0,0:0:0:0:
188,175,48363,1,0,3:0:0:0:
188,175,48469,1,0,3:0:0:0:
188,175,48574,6,0,P|233:164|301:168,1,89.99999725342,10|0,0:0|0:0,0:0:0:0:
439,339,48786,2,0,P|406:305|376:244,1,89.99999725342,2|0,3:2|0:0,0:0:0:0:
456,40,48997,2,0,P|443:84|405:141,1,89.99999725342,8|0,0:0|0:0,0:0:0:0:
245,44,49208,1,2,3:2:0:0:
245,44,49314,1,0,3:0:0:0:
245,44,49419,2,0,L|359:34,1,89.99999725342,10|0,0:0|0:0,0:0:0:0:
218,269,49631,6,0,B|171:256|171:256|128:262,1,89.99999725342,2|0,3:2|0:0,0:0:0:0:
354,183,49842,2,0,B|313:188|313:188|266:175,1,89.99999725342,10|0,0:0|0:0,0:0:0:0:
386,347,50053,2,0,B|339:334|339:334|296:340,1,89.99999725342,2|0,3:2|3:0,0:0:0:0:
500,257,50264,2,0,B|459:262|459:262|412:249,1,89.99999725342,10|0,0:0|0:0,0:0:0:0:
381,74,50476,2,0,P|506:117|426:170,1,269.9999917603,2|0,3:2|0:0,0:0:0:0:
232,211,50898,1,2,3:2:0:0:
232,211,51004,1,0,3:0:0:0:
232,211,51109,2,0,L|136:206,1,89.99999725342,8|0,0:0|0:0,0:0:0:0:
313,353,51321,6,0,P|359:333|427:328,1,89.99999725342,4|0,3:2|0:0,0:0:0:0:
351,150,51532,2,0,L|333:253,1,89.99999725342,10|0,0:0|0:0,0:0:0:0:
252,87,51743,1,2,3:2:0:0:
252,87,51849,1,0,3:0:0:0:
252,87,51955,2,0,P|184:87|138:112,1,89.99999725342,10|0,0:0|0:0,0:0:0:0:
65,212,52166,6,0,L|83:109,1,89.99999725342,6|0,3:2|0:0,0:0:0:0:
234,259,52377,2,0,L|216:156,1,89.99999725342,8|0,0:0|0:0,0:0:0:0:
53,317,52588,1,2,3:2:0:0:
53,317,52694,1,0,3:0:0:0:
53,317,52800,2,0,P|114:300|160:306,1,89.99999725342,8|0,0:0|0:0,0:0:0:0:
443,370,53011,6,0,P|391:314|502:334,1,269.9999917603,6|0,3:2|0:0,0:0:0:0:
303,299,53433,1,0,3:0:0:0:
303,299,53539,1,0,3:0:0:0:
303,299,53645,2,0,P|310:264|345:204,1,89.99999725342,10|0,0:0|0:0,0:0:0:0:
246,64,53856,2,0,L|235:200,1,89.99999725342,2|0,3:2|0:0,0:0:0:0:
161,285,54067,2,0,P|154:250|119:190,1,89.99999725342,8|0,0:0|0:0,0:0:0:0:
226,355,54278,5,10,0:0:0:0:
312,384,54384,1,8,0:0:0:0:
392,339,54490,1,10,0:0:0:0:
391,249,54595,1,8,0:0:0:0:
310,208,54701,6,0,L|203:215,1,89.99999725342,4|0,3:2|0:0,0:0:0:0:
247,32,54912,2,0,L|254:139,1,89.99999725342,10|0,0:0|0:0,0:0:0:0:
132,288,55124,1,0,3:0:0:0:
132,288,55229,1,0,3:0:0:0:
132,288,55335,2,0,P|88:283|42:293,1,89.99999725342,10|0,0:0|0:0,0:0:0:0:
256,159,55546,2,0,P|212:164|166:153,1,89.99999725342,2|0,3:2|0:0,0:0:0:0:
376,295,55757,2,0,P|332:290|286:300,1,89.99999725342,8|0,0:0|0:0,0:0:0:0:
465,357,55969,1,2,3:2:0:0:
465,357,56074,1,0,3:0:0:0:
465,357,56180,2,0,L|456:234,1,89.99999725342,10|0,0:0|0:0,0:0:0:0:
147,210,56391,6,0,P|155:254|178:293,1,89.99999725342,2|0,3:2|0:0,0:0:0:0:
166,121,56602,2,0,P|141:158|129:202,1,89.99999725342,10|0,0:0|0:0,0:0:0:0:
240,70,56814,2,0,P|196:78|158:101,1,89.99999725342,2|0,3:2|3:0,0:0:0:0:
330,87,57025,2,0,P|293:62|250:50,1,89.99999725342,10|0,0:0|0:0,0:0:0:0:
332,230,57236,6,0,L|441:218,1,89.99999725342,2|0,3:2|0:0,0:0:0:0:
256,355,57447,2,0,L|147:343,1,89.99999725342,10|0,0:0|0:0,0:0:0:0:
237,176,57659,1,2,3:2:0:0:
237,176,57764,1,0,3:0:0:0:
237,176,57870,2,0,L|225:285,1,89.99999725342,10|0,0:0|0:0,0:0:0:0:
76,122,58081,6,0,B|124:105|124:105|203:110,1,89.99999725342,4|0,3:2|0:0,0:0:0:0:
49,210,58293,2,0,P|-10:147|7:63,1,179.9999945068,10|0,0:0|3:0,0:0:0:0:
79,12,58609,1,0,3:0:0:0:
164,28,58715,2,0,L|262:36,1,89.99999725342,10|0,0:0|0:0,0:0:0:0:
391,128,58926,6,0,B|343:111|343:111|264:116,1,89.99999725342,4|0,3:2|0:0,0:0:0:0:
417,216,59138,2,0,P|476:153|459:68,1,179.9999945068,10|0,0:0|3:0,0:0:0:0:
388,8,59454,1,0,3:0:0:0:
295,23,59560,2,0,L|305:127,1,89.99999725342,10|0,0:0|0:0,0:0:0:0:
235,280,59771,6,0,L|245:176,1,89.99999725342,6|0,3:2|0:0,0:0:0:0:
61,215,59983,2,0,L|165:225,1,89.99999725342,8|0,0:0|0:0,0:0:0:0:
325,255,60194,1,8,0:0:0:0:
421,243,60300,1,8,0:0:0:0:
440,149,60405,1,10,0:0:0:0:
355,105,60511,1,8,0:0:0:0:
281,167,60617,6,0,B|183:135|183:135|63:148,1,179.9999945068,2|8,3:2|0:0,0:0:0:0:
61,215,60933,1,8,0:0:0:0:
86,295,61039,2,0,L|203:282,1,89.99999725342,10|8,3:3|3:3,0:0:0:0:
338,344,61250,2,0,L|221:331,1,89.99999725342,10|8,0:0|0:0,0:0:0:0:
350,167,61462,6,0,P|368:210|382:266,1,89.99999725342,4|0,3:2|0:0,0:0:0:0:
362,159,61673,2,0,P|380:202|394:258,1,89.99999725342,0|0,3:2|0:0,0:0:0:0:
374,151,61884,2,0,P|392:194|406:250,1,89.99999725342,0|0,3:0|0:0,0:0:0:0:
386,143,62096,2,0,P|404:186|418:242,1,89.99999725342,0|0,3:2|0:0,0:0:0:0:
398,135,62307,2,0,P|416:178|430:234,1,89.99999725342,8|0,1:2|0:0,0:0:0:0:
256,55,62729,1,0,0:0:0:0:
255,144,62940,1,8,0:0:0:0:
121,74,63152,6,0,P|103:117|89:173,1,89.99999725342,0|0,3:2|0:0,0:0:0:0:
109,66,63363,2,0,P|91:109|77:165,1,89.99999725342,0|0,3:2|0:0,0:0:0:0:
97,58,63574,2,0,P|79:101|65:157,1,89.99999725342,0|0,3:2|0:0,0:0:0:0:
85,50,63786,2,0,P|67:93|53:149,1,89.99999725342,0|0,3:2|0:0,0:0:0:0:
73,42,63997,2,0,P|55:85|41:141,1,89.99999725342,8|0,1:2|0:0,0:0:0:0:
256,299,64419,1,0,0:0:0:0:
255,190,64631,1,8,0:0:0:0:
40,326,64842,6,0,B|143:283|143:283|301:305,2,225,0|0|8,3:0|3:0|0:2,0:0:0:0:
124,126,65687,2,0,B|109:236|109:236|11:362,2,225,8|0|8,1:2|3:0|0:0,0:0:0:0:
255,298,66532,2,0,B|166:230|166:230|106:82,2,225,0|0|8,3:2|3:0|0:2,0:0:0:0:
472,175,67377,1,8,1:2:0:0:
351,38,67694,1,8,0:0:0:0:
240,177,68011,1,8,0:0:0:0:
351,145,68222,6,0,L|348:238,1,75,4|0,3:2|0:0,0:0:0:0:
366,163,68433,2,0,L|363:256,1,75,0|0,3:2|0:0,0:0:0:0:
381,181,68645,2,0,L|378:274,1,75,0|0,3:0|0:0,0:0:0:0:
396,199,68856,2,0,L|393:292,1,75,0|0,3:2|0:0,0:0:0:0:
411,217,69067,2,0,L|408:310,1,75,8|0,1:2|0:0,0:0:0:0:
255,359,69490,1,0,0:0:0:0:
255,284,69701,1,8,0:0:0:0:
161,145,69912,6,0,L|164:238,1,75,0|0,3:2|0:0,0:0:0:0:
146,163,70123,2,0,L|149:256,1,75,0|0,3:0|0:0,0:0:0:0:
131,181,70335,2,0,L|134:274,1,75,0|0,3:2|0:0,0:0:0:0:
116,199,70546,2,0,L|119:292,1,75,0|0,3:0|0:0,0:0:0:0:
101,217,70757,2,0,L|104:310,1,75,8|0,1:2|0:0,0:0:0:0:
256,91,71180,2,0,L|256:5,3,75,8|8|8|8,0:0|0:0|0:0|0:0,0:0:0:0:
189,163,71602,6,0,P|130:128|1:153,1,168.7500064373,6|8,3:3|0:0,0:0:0:0:
316,236,72236,2,0,P|375:201|504:226,1,168.7500064373,6|8,3:3|0:0,0:0:0:0:
189,309,72870,1,8,0:0:0:0:
157,285,72975,1,8,0:0:0:0:
120,271,73081,1,8,0:0:0:0:
81,268,73186,1,8,0:0:0:0:
43,275,73292,1,8,0:0:0:0:
412,384,73926,2,0,L|405:299,1,56.25000214577,2|0,0:0|0:0,0:0:0:0:
240,183,74138,6,0,P|316:171|259:221,1,168.7500064373,2|0,0:0|0:0,0:0:0:0:
211,273,74560,6,0,B|261:245|340:256|311:288|384:303|465:278,1,225,2|0,0:0|0:0,0:0:0:0:
471,222,74983,6,0,L|459:129,1,89.99999725342,4|0,3:2|0:0,0:0:0:0:
301,31,75194,2,0,L|289:123,1,89.99999725342,10|0,0:0|0:0,0:0:0:0:
466,35,75405,1,0,3:0:0:0:
466,35,75511,1,0,3:0:0:0:
466,35,75617,2,0,P|421:41|383:71,1,89.99999725342,10|0,0:0|0:0,0:0:0:0:
252,221,75828,2,0,L|364:205,1,89.99999725342,2|0,3:2|0:0,0:0:0:0:
174,84,76039,2,0,L|62:68,1,89.99999725342,10|0,0:0|0:0,0:0:0:0:
98,254,76250,1,2,3:2:0:0:
98,254,76356,1,0,3:0:0:0:
98,254,76462,2,0,L|114:142,1,89.99999725342,10|0,0:0|0:0,0:0:0:0:
283,318,76673,6,0,B|231:321|231:321|184:303,1,89.99999725342,2|0,3:2|0:0,0:0:0:0:
362,282,76884,2,8,B|327:320|327:320|281:341,1,89.99999725342,10|0,0:0|0:0,0:0:0:0:
389,200,77095,2,0,B|392:252|392:252|374:299,1,89.99999725342,2|0,3:2|3:0,0:0:0:0:
351,116,77306,2,8,B|389:150|389:150|410:196,1,89.99999725342,10|0,0:0|0:0,0:0:0:0:
211,175,77518,6,0,L|205:60,1,89.99999725342,2|0,3:2|0:0,0:0:0:0:
355,26,77729,2,0,L|349:141,1,89.99999725342,8|0,0:0|0:0,0:0:0:0:
485,253,77940,1,2,3:2:0:0:
485,253,78046,1,0,3:0:0:0:
485,253,78152,2,0,L|479:138,1,89.99999725342,8|0,0:0|0:0,0:0:0:0:
250,61,78363,6,0,P|160:46|81:91,1,179.9999945068,4|10,3:2|0:0,0:0:0:0:
36,166,78680,1,0,0:0:0:0:
36,166,78786,2,0,L|62:297,1,89.99999725342,2|0,3:2|3:0,0:0:0:0:
250,293,78997,2,0,L|276:162,1,89.99999725342,10|0,0:0|0:0,0:0:0:0:
123,379,79208,6,0,B|197:362|197:362|235:378|235:378|351:363,1,179.9999945068,6|8,3:2|0:0,0:0:0:0:
417,296,79525,1,0,0:0:0:0:
417,296,79631,2,0,P|351:293|302:308,1,89.99999725342,2|0,3:2|3:0,0:0:0:0:
178,206,79842,2,0,P|222:210|266:203,1,89.99999725342,8|0,0:0|0:0,0:0:0:0:
374,89,80053,6,0,B|351:119|351:119|363:211,1,89.99999725342,6|0,3:2|0:0,0:0:0:0:
496,264,80264,2,0,B|519:234|519:234|507:142,1,89.99999725342,10|0,0:0|0:0,0:0:0:0:
462,73,80476,1,0,3:0:0:0:
462,73,80581,1,0,3:0:0:0:
462,73,80687,2,0,L|371:89,1,89.99999725342,10|0,0:0|0:0,0:0:0:0:
193,23,80898,2,0,L|284:39,1,89.99999725342,2|0,3:2|0:0,0:0:0:0:
142,125,81109,2,0,L|53:140,1,89.99999725342,8|0,0:0|0:0,0:0:0:0:
133,288,81321,5,10,0:0:0:0:
221,296,81426,1,8,0:0:0:0:
298,251,81532,1,10,0:0:0:0:
384,241,81637,1,8,0:0:0:0:
458,286,81743,6,0,L|450:388,1,89.99999725342,4|0,3:2|0:0,0:0:0:0:
290,161,81955,2,0,L|298:263,1,89.99999725342,10|0,0:0|0:0,0:0:0:0:
458,44,82166,1,0,3:0:0:0:
458,44,82271,1,0,3:0:0:0:
458,44,82377,2,0,L|450:146,1,89.99999725342,10|0,0:0|0:0,0:0:0:0:
271,68,82588,2,0,L|373:76,1,89.99999725342,2|0,3:2|0:0,0:0:0:0:
221,224,82800,2,0,L|119:232,1,89.99999725342,8|0,0:0|0:0,0:0:0:0:
117,67,83011,2,0,P|150:108|167:158,1,89.99999725342,2|0,3:2|3:0,0:0:0:0:
26,232,83222,2,0,P|45:182|79:143,1,89.99999725342,10|0,0:0|0:0,0:0:0:0:
232,66,83433,6,0,P|276:72|316:91,1,89.99999725342,2|0,3:2|0:0,0:0:0:0:
388,258,83645,2,0,P|371:216|367:171,1,89.99999725342,10|0,0:0|0:0,0:0:0:0:
477,27,83856,1,2,3:2:0:0:
477,27,83962,1,0,3:0:0:0:
477,27,84067,2,0,P|449:62|412:87,1,89.99999725342,10|0,0:0|0:0,0:0:0:0:
176,178,84278,6,0,L|291:166,1,89.99999725342,2|0,3:2|0:0,0:0:0:0:
477,267,84490,2,0,L|387:257,1,89.99999725342,10|0,0:0|0:0,0:0:0:0:
115,361,84701,1,10,0:0:0:0:
169,354,84806,1,8,0:0:0:0:
224,348,84912,1,10,0:0:0:0:
279,342,85018,1,8,0:0:0:0:
333,334,85124,5,6,3:2:0:0:
136,99,87659,1,8,0:0:0:0:
220,211,87870,5,0,3:0:0:0:
61,171,88081,1,0,3:0:0:0:
296,60,88293,1,0,3:0:0:0:
284,348,88504,5,12,3:2:0:0:
