osu file format v14

[General]
AudioFilename: op.mp3
AudioLeadIn: 0
PreviewTime: 46778
Countdown: 0
SampleSet: Soft
StackLeniency: 0.6
Mode: 0
LetterboxInBreaks: 0
StoryFireInFront: 0
WidescreenStoryboard: 1

[Editor]
DistanceSpacing: 0.4
BeatDivisor: 4
GridSize: 8
TimelineZoom: 1.7

[Metadata]
Title:Kyouran Hey Kids!! (TV Size)
TitleUnicode:狂乱 Hey Kids!! (TV Size)
Artist:THE ORAL CIGARETTES
ArtistUnicode:THE ORAL CIGARETTES
Creator:Nevo
Version:Airin's Hard
Source:ノラガミ ARAGOTO
Tags:noragami season 2 s2 opening byd bite you death airincat Gottagof4st onlybiscuit japanese anime toc short
BeatmapID:1955910
BeatmapSetID:930621

[Difficulty]
HPDrainRate:4
CircleSize:3.8
OverallDifficulty:6
ApproachRate:8
SliderMultiplier:2.5
SliderTickRate:1

[Events]
//Background and Video events
0,0,"bg.png",0,0
Video,70,"opening.avi"
//Break Periods
//Storyboard Layer 0 (Background)
//Storyboard Layer 1 (Fail)
//Storyboard Layer 2 (Pass)
//Storyboard Layer 3 (Foreground)
//Storyboard Sound Samples

[TimingPoints]
617,422.5352112676,4,2,2,40,1,0
617,-181.8181818182,4,2,2,40,0,0
5687,-200,4,2,2,60,0,0
6955,-200,4,2,2,50,0,0
7377,-133.3333333333,4,2,2,60,0,0
20898,-153.8461538462,4,2,2,50,0,0
27447,-153.8461538462,4,2,1,50,0,0
27659,-153.8461538462,4,2,2,50,0,0
32624,-133.3333333333,4,2,1,50,0,0
32729,-133.3333333333,4,2,2,50,0,0
33152,-133.3333333333,4,2,2,30,0,0
33363,-133.3333333333,4,2,2,40,0,0
33574,-133.3333333333,4,2,2,50,0,0
33786,-133.3333333333,4,2,2,60,0,0
33997,-222.2222222222,4,2,2,50,0,0
34419,-133.3333333333,4,2,2,60,0,0
34525,-133.3333333333,4,2,2,60,0,0
40335,-153.8461538462,4,2,1,50,0,0
40440,-153.8461538462,4,2,2,50,0,0
40757,-153.8461538462,4,2,1,50,0,0
40863,-153.8461538462,4,2,2,50,0,0
41180,-181.8181818182,4,2,1,50,0,0
47095,-181.8181818182,4,2,2,50,0,0
47518,-100,4,2,2,50,0,0
47940,-117.6470588235,4,2,2,70,0,1
60617,-121.9512195122,4,2,2,70,0,1
61039,-142.8571428571,4,2,1,70,0,1
61145,-142.8571428571,4,2,2,60,0,1
61462,-142.8571428571,4,2,2,60,0,0
61567,-142.8571428571,4,2,2,5,0,0
61673,-142.8571428571,4,2,2,60,0,0
61778,-142.8571428571,4,2,2,5,0,0
61884,-142.8571428571,4,2,2,60,0,0
61990,-142.8571428571,4,2,2,5,0,0
62095,-142.8571428571,4,2,2,60,0,0
62201,-142.8571428571,4,2,2,5,0,0
62307,-142.8571428571,4,2,1,60,0,0
62412,-142.8571428571,4,2,2,5,0,0
62518,-142.8571428571,4,2,2,60,0,0
63257,-142.8571428571,4,2,2,5,0,0
63363,-142.8571428571,4,2,2,60,0,0
63469,-142.8571428571,4,2,2,5,0,0
63574,-142.8571428571,4,2,2,60,0,0
63680,-142.8571428571,4,2,2,5,0,0
63786,-142.8571428571,4,2,2,60,0,0
63891,-142.8571428571,4,2,2,5,0,0
63997,-142.8571428571,4,2,1,60,0,0
64102,-142.8571428571,4,2,2,5,0,0
64208,-142.8571428571,4,2,2,60,0,0
64842,-142.8571428571,4,2,2,60,0,0
65687,-142.8571428571,4,2,1,60,0,0
65793,-142.8571428571,4,2,2,60,0,0
67377,-142.8571428571,4,2,1,60,0,0
67588,-142.8571428571,4,2,2,60,0,0
68328,-142.8571428571,4,2,2,5,0,0
68433,-142.8571428571,4,2,2,60,0,0
68539,-142.8571428571,4,2,2,5,0,0
68645,-142.8571428571,4,2,2,60,0,0
68750,-142.8571428571,4,2,2,5,0,0
68856,-142.8571428571,4,2,2,60,0,0
68962,-142.8571428571,4,2,2,5,0,0
69067,-142.8571428571,4,2,1,60,0,0
69173,-142.8571428571,4,2,2,5,0,0
69278,-142.8571428571,4,2,2,60,0,0
70018,-142.8571428571,4,2,2,5,0,0
70124,-142.8571428571,4,2,2,60,0,0
70229,-142.8571428571,4,2,2,5,0,0
70335,-142.8571428571,4,2,2,60,0,0
70440,-142.8571428571,4,2,2,5,0,0
70546,-142.8571428571,4,2,1,60,0,0
70652,-142.8571428571,4,2,2,5,0,0
70757,-142.8571428571,4,2,2,60,0,0
70863,-142.8571428571,4,2,2,5,0,0
70969,-142.8571428571,4,2,2,60,0,0
71602,-200,4,2,2,60,0,0
74983,-114.9425287356,4,2,2,70,0,1
85124,-83.33333333333,4,2,2,60,0,0

[Colours]
Combo1 : 252,218,27
Combo2 : 187,128,4
Combo3 : 135,33,115
Combo4 : 27,86,118

[HitObjects]
43,296,617,6,0,P|22:251|28:197,2,103.1250031471,4|0|0,3:2|0:0|0:0,0:0:0:0:
110,237,1462,2,0,P|145:236|176:248,1,68.75000209808,2|0,0:3|0:0,0:0:0:0:
196,169,1884,2,0,P|225:185|247:212,1,68.75000209808,2|0,0:3|0:0,0:0:0:0:
315,291,2307,6,0,P|320:240|356:204,2,103.1250031471,2|0|0,0:3|0:0|0:0,0:0:0:0:
405,346,3152,2,0,P|406:311|398:278,1,68.75000209808,2|0,0:3|0:0,0:0:0:0:
481,262,3574,2,0,P|464:231|441:207,1,68.75000209808,2|0,0:3|0:0,0:0:0:0:
364,120,3997,6,0,P|359:67|391:10,2,103.1250031471,2|0|0,0:3|0:0|0:0,0:0:0:0:
288,170,4842,2,0,L|209:163,1,68.75000209808,2|2,0:3|0:3,0:0:0:0:
99,221,5264,2,0,L|138:231,1,34.37500104904,2|0,0:3|0:0,0:0:0:0:
152,303,5476,2,0,L|203:296,1,34.37500104904,0|0,3:0|0:0,0:0:0:0:
266,318,5687,5,8,0:0:0:0:
430,26,6955,1,8,0:0:0:0:
430,26,7377,6,0,B|430:133,1,93.75000357628,4|8,3:2|0:0,0:0:0:0:
383,182,7694,1,0,0:0:0:0:
383,182,7800,2,0,L|382:244,2,46.87500178814,0|0|8,3:2|3:0|0:0,0:0:0:0:
321,134,8117,2,0,P|274:123|226:138,1,93.75000357628,0|0,0:0|0:0,0:0:0:0:
165,174,8433,1,8,0:0:0:0:
85,103,8645,2,0,P|87:74|96:51,2,46.87500178814,0|0|8,3:0|3:0|0:0,0:0:0:0:
12,166,9067,6,0,P|37:200|43:259,1,93.75000357628,0|8,3:0|0:0,0:0:0:0:
41,332,9384,1,0,0:0:0:0:
41,332,9490,2,0,L|36:392,2,46.87500178814,0|0|8,3:0|3:0|0:0,0:0:0:0:
115,295,9807,2,0,B|221:306,1,93.75000357628,0|0,0:0|3:0,0:0:0:0:
285,313,10124,1,8,0:0:0:0:
294,206,10335,1,0,3:0:0:0:
229,125,10546,1,8,0:0:0:0:
314,64,10757,6,0,L|416:68,1,93.75000357628,0|8,3:0|0:0,0:0:0:0:
466,122,11074,1,0,0:0:0:0:
466,122,11180,2,0,L|526:124,2,46.87500178814,0|0|8,3:0|3:0|0:0,0:0:0:0:
404,171,11497,2,0,B|384:211|384:211|396:264,1,93.75000357628,0|0,0:0|0:0,0:0:0:0:
431,327,11814,1,8,0:0:0:0:
323,364,12025,2,0,L|273:365,2,46.87500178814,0|0|8,3:0|3:0|0:0,0:0:0:0:
252,265,12447,6,0,L|157:268,1,93.75000357628,0|8,3:0|0:0,0:0:0:0:
23,244,12870,2,0,P|15:266|14:294,2,46.87500178814,0|0|8,3:0|3:0|0:0,0:0:0:0:
48,169,13187,2,0,P|59:119|49:73,1,93.75000357628,0|0,0:0|0:0,0:0:0:0:
23,6,13504,1,8,0:0:0:0:
136,47,13715,2,0,L|188:43,3,46.87500178814,8|8|8|8,0:0|0:0|0:0|0:0,0:0:0:0:
250,85,14138,6,0,P|297:96|353:79,1,93.75000357628,4|8,3:2|0:0,0:0:0:0:
409,46,14455,1,0,0:0:0:0:
409,46,14560,2,0,L|406:-3,2,46.87500178814,0|0|8,3:2|3:0|0:0,0:0:0:0:
467,101,14877,2,0,L|470:205,1,93.75000357628,0|0,0:0|0:0,0:0:0:0:
469,272,15194,1,8,0:0:0:0:
383,338,15405,2,0,L|383:390,2,46.87500178814,0|0|8,3:0|3:0|0:0,0:0:0:0:
320,246,15828,6,0,P|275:231|223:239,1,93.75000357628,0|8,3:0|0:0,0:0:0:0:
165,282,16145,1,0,0:0:0:0:
165,282,16250,2,0,L|163:336,2,46.87500178814,0|0|8,3:0|3:0|0:0,0:0:0:0:
104,229,16567,2,0,L|106:134,1,93.75000357628,0|0,0:0|0:0,0:0:0:0:
109,59,16884,1,8,0:0:0:0:
209,8,17095,1,0,3:0:0:0:
293,71,17307,1,8,0:0:0:0:
268,174,17518,6,0,P|219:186|166:169,1,93.75000357628,0|8,3:0|0:0,0:0:0:0:
112,134,17835,1,0,0:0:0:0:
112,134,17940,2,0,L|111:72,2,46.87500178814,0|0|8,3:0|3:0|0:0,0:0:0:0:
63,196,18257,2,0,B|63:297,1,93.75000357628,0|0,0:0|0:0,0:0:0:0:
69,364,18574,1,8,0:0:0:0:
179,337,18786,2,0,L|241:336,2,46.87500178814,0|0|8,3:0|3:0|0:0,0:0:0:0:
225,247,19208,6,0,L|329:244,1,93.75000357628,0|8,3:0|0:0,0:0:0:0:
422,181,19631,2,0,L|478:182,2,46.87500178814,0|0|8,3:0|3:0|0:0,0:0:0:0:
371,74,20053,2,0,P|344:57|317:49,3,46.87500178814,8|8|10|8,0:0|0:0|0:0|0:0,0:0:0:0:
257,25,20476,2,0,P|228:21|203:23,3,46.87500178814,10|8|10|8,0:0|0:0|0:0|0:0,0:0:0:0:
133,36,20898,6,0,P|78:73|73:178,1,162.4999925613,6|8,3:2|0:0,0:0:0:0:
139,231,21532,2,0,L|227:228,1,81.24999628067,0|0,0:0|3:0,0:0:0:0:
312,193,21955,1,0,0:0:0:0:
366,274,22166,2,0,P|405:283|444:274,1,81.24999628067,8|8,0:0|0:0,0:0:0:0:
462,258,22483,1,8,0:0:0:0:
474,237,22588,6,0,B|477:175|477:175|462:137|462:137|465:78,1,162.4999925613,0|8,3:2|0:0,0:0:0:0:
380,30,23222,2,0,P|336:24|292:39,1,81.24999628067,0|0,0:0|3:2,0:0:0:0:
214,78,23645,1,0,0:0:0:0:
119,77,23856,2,0,P|100:39|96:1,1,81.24999628067,8|0,0:0|0:0,0:0:0:0:
172,155,24278,6,0,P|198:204|212:318,1,162.4999925613,0|8,3:2|0:0,0:0:0:0:
121,298,24912,2,0,P|115:257|100:218,1,81.24999628067,0|0,0:0|3:0,0:0:0:0:
49,145,25335,1,0,0:0:0:0:
133,120,25546,2,0,P|172:112|206:91,1,81.24999628067,8|8,0:0|0:0,0:0:0:0:
229,67,25863,1,8,0:0:0:0:
249,51,25969,6,0,P|300:34|397:88,1,162.4999925613,0|8,3:2|0:0,0:0:0:0:
431,174,26602,2,0,L|422:264,1,81.24999628067,0|0,0:0|3:0,0:0:0:0:
382,345,27025,1,0,0:0:0:0:
321,257,27236,1,8,0:0:0:0:
253,331,27447,1,8,0:3:0:0:
238,342,27553,1,8,0:3:0:0:
226,352,27659,6,0,B|186:345|186:345|125:362|125:362|60:345,1,162.4999925613,4|8,3:2|0:0,0:0:0:0:
1,276,28293,2,0,P|-1:236|10:197,1,81.24999628067,0|0,0:0|3:0,0:0:0:0:
69,120,28715,1,0,0:0:0:0:
167,136,28926,2,0,P|227:137|254:128,1,81.24999628067,8|8,0:0|0:0,0:0:0:0:
267,117,29243,1,8,0:0:0:0:
285,101,29349,6,0,B|328:74|328:74|393:74|417:134,1,162.4999925613,0|8,3:2|0:0,0:0:0:0:
431,220,29983,2,0,L|425:309,1,81.24999628067,0|0,0:0|3:0,0:0:0:0:
345,362,30405,1,0,0:0:0:0:
283,285,30617,2,0,L|286:201,1,81.24999628067,8|0,0:0|1:2,0:0:0:0:
266,99,31039,6,0,P|187:74|191:149,1,162.4999925613,0|8,3:2|0:0,0:0:0:0:
85,196,31673,2,0,P|130:152|165:229,1,162.4999925613,0|0,0:0|0:0,0:0:0:0:
269,274,32307,2,0,P|229:283|202:321,1,81.24999628067,8|8,0:0|0:3,0:0:0:0:
197,330,32624,1,8,0:3:0:0:
192,346,32729,6,0,L|95:350,1,93.75000357628,6|0,3:2|0:0,0:0:0:0:
22,260,33152,2,0,P|18:229|23:206,3,46.87500178814,10|8|10|8,0:0|0:0|0:0|0:0,0:0:0:0:
39,139,33574,2,0,P|50:112|64:96,3,46.87500178814,10|8|8|8,3:2|3:2|3:2|3:2,0:0:0:0:
118,49,33997,1,2,3:2:0:0:
118,49,34419,6,0,P|161:40|211:55,1,93.75000357628,6|8,3:2|0:0,0:0:0:0:
276,106,34736,1,0,0:0:0:0:
276,106,34842,2,0,L|276:163,2,46.87500178814,0|0|8,3:2|3:0|0:0,0:0:0:0:
324,41,35159,2,0,L|417:41,1,93.75000357628,0|0,0:0|0:0,0:0:0:0:
493,46,35476,1,8,0:0:0:0:
495,156,35687,2,0,L|494:209,2,46.87500178814,0|0|8,3:0|3:0|0:0,0:0:0:0:
372,133,36109,6,0,L|264:131,1,93.75000357628,0|10,3:0|0:0,0:0:0:0:
227,72,36426,1,0,0:0:0:0:
227,72,36532,2,0,L|238:12,2,46.87500178814,2|0|10,3:2|3:0|0:0,0:0:0:0:
123,94,36955,2,0,L|85:58,2,46.87500178814,2|0|8,3:2|3:0|0:0,0:0:0:0:
102,196,37377,2,0,L|54:201,2,46.87500178814,2|0|8,3:2|3:0|0:0,0:0:0:0:
193,255,37800,6,0,L|183:360,1,93.75000357628,6|8,3:2|0:0,0:0:0:0:
106,364,38117,1,0,0:0:0:0:
106,364,38222,2,0,L|49:358,2,46.87500178814,0|0|8,3:0|3:0|0:0,0:0:0:0:
184,348,38539,2,0,L|300:356,1,93.75000357628,0|0,0:0|0:0,0:0:0:0:
352,364,38856,1,8,0:0:0:0:
429,282,39067,2,0,P|430:254|426:233,2,46.87500178814,0|0|8,3:0|3:0|0:0,0:0:0:0:
402,145,39490,6,0,P|397:122|385:101,3,46.87500178814,8|8|10|8,3:2|0:0|0:0|0:0,0:0:0:0:
331,49,39912,2,0,P|307:26|277:11,3,46.87500178814,10|8|10|8,0:0|0:0|0:0|0:0,0:0:0:0:
225,0,40335,2,0,P|177:4|141:16,1,81.24999628067,10|8,3:0|3:0,0:0:0:0:
77,101,40757,2,0,P|125:105|161:122,1,81.24999628067,10|8,3:0|3:3,0:0:0:0:
240,183,41180,6,0,P|189:197|144:250,2,103.1250031471,6|0|0,3:2|3:0|3:0,0:0:0:0:
373,181,42025,1,8,1:2:0:0:
373,181,42447,1,0,0:0:0:0:
373,181,42870,6,0,P|371:123|391:67,2,103.1250031471,0|0|0,3:0|3:0|3:0,0:0:0:0:
426,290,43715,1,8,1:2:0:0:
426,290,44138,1,0,3:0:0:0:
426,290,44560,6,0,P|461:247|517:231,2,103.1250031471,0|0|0,3:0|3:0|3:0,0:0:0:0:
356,354,45405,2,0,L|275:345,1,68.75000209808,8|0,1:2|0:0,0:0:0:0:
231,272,45828,2,0,L|152:279,1,68.75000209808,8|0,1:2|0:0,0:0:0:0:
74,331,46250,2,0,L|38:326,3,34.37500104904,8|8|8|8,1:2|0:3|0:3|0:3,0:0:0:0:
14,256,46673,5,8,1:2:0:0:
22,164,47940,6,0,L|32:289,2,106.2500020266,4|10|0,3:2|0:0|3:0,0:0:0:0:
18,82,48469,1,0,3:0:0:0:
18,82,48574,1,10,0:0:0:0:
149,149,48786,2,0,P|201:165|256:157,1,106.2500020266,2|8,3:2|0:0,0:0:0:0:
396,146,49208,2,0,P|377:173|368:213,1,53.12500101328,2|0,3:2|3:0,0:0:0:0:
447,209,49419,2,0,P|444:241|456:281,1,53.12500101328,10|0,0:0|0:0,0:0:0:0:
507,312,49631,6,0,P|462:337|410:328,1,106.2500020266,2|10,3:2|0:0,0:0:0:0:
278,291,50053,2,0,P|251:297|227:311,1,53.12500101328,2|0,3:2|3:0,0:0:0:0:
183,243,50264,2,0,P|163:261|150:285,1,53.12500101328,10|0,0:0|0:0,0:0:0:0:
100,352,50476,2,0,P|73:305|74:247,1,106.2500020266,2|8,3:2|0:0,0:0:0:0:
93,127,50898,2,0,P|88:92|79:72,2,53.12500101328,2|0|8,3:2|3:0|0:0,0:0:0:0:
180,31,51321,6,0,P|245:23|291:41,1,106.2500020266,4|10,3:2|0:0,0:0:0:0:
369,141,51743,2,0,P|362:167|362:194,1,53.12500101328,2|0,3:2|3:0,0:0:0:0:
286,214,51955,2,0,P|296:239|297:266,1,53.12500101328,10|0,0:0|0:0,0:0:0:0:
259,334,52166,2,0,P|321:339|357:315,1,106.2500020266,6|8,3:2|0:0,0:0:0:0:
433,223,52588,2,0,L|503:227,2,53.12500101328,2|0|8,3:2|3:0|0:0,0:0:0:0:
291,132,53011,5,6,3:2:0:0:
199,228,53222,2,0,L|86:235,1,106.2500020266,8|0,0:0|3:0,0:0:0:0:
18,241,53539,1,0,3:0:0:0:
18,241,53645,1,10,0:0:0:0:
22,105,53856,2,0,P|73:112|120:154,1,106.2500020266,2|8,3:2|0:0,0:0:0:0:
199,228,54278,2,0,L|261:226,3,53.12500101328,10|8|10|8,0:0|0:0|0:0|0:0,0:0:0:0:
307,169,54701,6,0,L|301:49,2,106.2500020266,4|10|0,3:2|0:0|3:0,0:0:0:0:
365,227,55229,1,0,3:0:0:0:
365,227,55335,1,10,0:0:0:0:
295,337,55546,2,0,P|242:357|184:335,1,106.2500020266,2|8,3:2|0:0,0:0:0:0:
90,267,55969,2,0,P|89:230|95:213,1,53.12500101328,2|0,3:2|3:0,0:0:0:0:
19,187,56180,2,0,P|36:154|49:142,1,53.12500101328,10|0,0:0|0:0,0:0:0:0:
110,86,56391,6,0,B|150:81|150:81|179:94|179:94|235:91,1,106.2500020266,2|10,3:2|0:0,0:0:0:0:
313,7,56814,2,0,B|273:12|273:12|244:-1|244:-1|188:2,1,106.2500020266,2|10,3:2|0:0,0:0:0:0:
234,175,57236,1,2,3:2:0:0:
316,101,57447,1,10,0:0:0:0:
401,172,57659,2,0,L|403:230,1,53.12500101328,2|0,3:2|3:0,0:0:0:0:
430,295,57870,6,0,P|381:298|331:259,1,106.2500020266,10|4,0:0|3:2,0:0:0:0:
234,175,58293,2,0,L|119:178,1,106.2500020266,10|0,0:0|3:0,0:0:0:0:
61,224,58609,1,0,3:0:0:0:
61,224,58715,2,0,P|46:166|71:116,1,106.2500020266,10|4,0:0|3:2,0:0:0:0:
154,48,59138,2,0,L|262:51,1,106.2500020266,10|0,0:0|3:0,0:0:0:0:
339,58,59455,1,0,3:0:0:0:
339,58,59560,1,10,0:0:0:0:
394,155,59771,2,0,P|432:122|447:62,2,106.2500020266,6|8|8,3:2|0:0|0:0,0:0:0:0:
294,120,60405,5,10,0:0:0:0:
206,177,60617,2,0,B|207:222|207:222|197:240|197:240|196:283,1,102.500001564,2|8,3:2|0:0,0:0:0:0:
236,359,61039,1,10,3:3:0:0:
298,273,61250,1,10,0:0:0:0:
206,177,61462,6,0,L|113:167,3,87.49999732971,4|0|0|0,3:2|3:2|3:0|3:2,0:0:0:0:
121,74,62307,2,0,P|45:110|33:198,1,174.9999946594,8|0,1:2|0:0,0:0:0:0:
115,257,62940,1,8,0:0:0:0:
206,177,63152,6,0,L|209:85,3,87.49999732971,0|0|0|0,3:2|3:2|3:2|3:2,0:0:0:0:
316,126,63997,2,0,B|385:124|385:124|420:147|420:147|493:144,1,174.9999946594,8|0,1:2|0:0,0:0:0:0:
455,238,64631,1,8,0:0:0:0:
339,226,64842,6,0,P|275:233|218:265,2,131.2499959946,0|0|8,3:0|3:0|0:2,0:0:0:0:
266,333,65687,2,0,P|207:307|142:306,2,131.2499959946,8|0|8,1:2|3:0|0:0,0:0:0:0:
151,383,66532,2,0,P|114:330|58:297,1,131.2499959946,0|0,3:2|3:0,0:0:0:0:
150,194,67166,1,8,0:2:0:0:
62,169,67377,2,0,B|55:217|55:217|65:245|65:245|55:310,2,131.2499959946,8|8|8,1:2|0:0|0:0,0:0:0:0:
206,94,68222,5,4,3:2:0:0:
296,123,68433,1,0,3:2:0:0:
296,219,68645,1,0,3:0:0:0:
206,247,68856,1,0,3:2:0:0:
149,170,69067,2,0,L|61:168,2,87.49999732971,8|0|0,1:2|0:0|0:0,0:0:0:0:
206,94,69701,1,8,0:0:0:0:
296,219,69912,6,0,L|383:219,1,87.49999732971,0|0,3:2|3:0,0:0:0:0:
444,149,70335,1,0,3:2:0:0:
394,66,70546,1,0,3:0:0:0:
293,94,70757,2,0,L|205:94,1,87.49999732971,8|0,1:2|0:0,0:0:0:0:
131,33,71180,2,0,L|75:31,3,43.74999866486,8|8|8|8,0:0|0:0|0:0|0:0,0:0:0:0:
22,71,71602,6,0,L|13:167,1,93.75,6|8,3:3|0:0,0:0:0:0:
150,165,72236,2,0,L|155:264,1,93.75,6|8,3:3|0:0,0:0:0:0:
29,281,72870,2,0,L|23:328,3,31.25,8|8|8|8,0:0|0:0|0:0|0:0,0:0:0:0:
12,384,73293,1,8,0:0:0:0:
68,112,74983,6,0,P|66:52|41:8,2,108.7500009127,4|10|0,3:2|0:0|3:0,0:0:0:0:
48,194,75511,1,0,3:0:0:0:
48,194,75617,1,10,0:0:0:0:
150,270,75828,2,0,P|207:284|269:254,1,108.7500009127,2|10,3:2|0:0,0:0:0:0:
332,172,76250,2,0,L|324:112,2,54.37500045633,2|0|10,3:2|3:0|0:0,0:0:0:0:
421,270,76673,5,2,3:2:0:0:
341,343,76884,1,10,0:0:0:0:
252,267,77095,2,0,P|246:234|252:207,1,54.37500045633,2|0,3:2|3:0,0:0:0:0:
174,198,77307,2,0,P|185:167|204:146,1,54.37500045633,10|0,0:0|0:0,0:0:0:0:
144,86,77518,2,0,L|261:57,1,108.7500009127,2|8,3:2|0:0,0:0:0:0:
383,26,77940,2,0,L|440:13,2,54.37500045633,2|0|8,3:2|3:0|0:0,0:0:0:0:
439,131,78363,6,0,P|483:163|497:215,1,108.7500009127,4|10,3:2|0:0,0:0:0:0:
389,321,78786,2,0,P|356:323|331:334,1,54.37500045633,2|0,3:2|3:0,0:0:0:0:
305,257,78997,2,0,P|277:275|261:297,1,54.37500045633,10|0,0:0|0:0,0:0:0:0:
210,355,79208,2,0,P|186:300|198:247,1,108.7500009127,6|8,3:2|0:0,0:0:0:0:
239,133,79631,2,0,P|251:100|251:63,2,54.37500045633,2|0|8,3:2|3:0|0:0,0:0:0:0:
86,191,80053,5,6,3:2:0:0:
194,253,80264,2,0,L|316:256,1,108.7500009127,10|0,0:0|3:0,0:0:0:0:
385,260,80581,1,0,3:0:0:0:
385,260,80687,1,10,0:0:0:0:
405,134,80898,2,0,P|346:135|300:170,1,108.7500009127,2|8,3:2|0:0,0:0:0:0:
194,253,81321,2,0,L|131:248,3,54.37500045633,10|8|10|8,0:0|0:0|0:0|0:0,0:0:0:0:
75,192,81743,6,0,B|77:146|77:146|92:121|92:121|89:73,2,108.7500009127,4|10|0,3:2|0:0|3:0,0:0:0:0:
48,267,82271,1,0,3:0:0:0:
48,267,82377,1,10,0:0:0:0:
153,349,82588,2,0,L|264:345,1,108.7500009127,2|8,3:2|0:0,0:0:0:0:
421,340,83011,2,0,P|428:309|442:282,1,54.37500045633,2|0,3:2|3:0,0:0:0:0:
361,265,83222,2,0,P|354:234|340:207,1,54.37500045633,10|0,0:0|0:0,0:0:0:0:
421,177,83433,6,0,P|428:115|459:66,1,108.7500009127,2|10,3:2|0:0,0:0:0:0:
294,32,83856,2,0,P|270:46|249:70,1,54.37500045633,2|0,3:2|3:0,0:0:0:0:
187,24,84067,2,0,P|174:48|167:79,1,54.37500045633,10|0,0:0|0:0,0:0:0:0:
92,87,84278,2,0,L|113:205,1,108.7500009127,2|10,3:2|0:0,0:0:0:0:
195,279,84701,2,0,L|189:340,3,54.37500045633,10|8|10|8,0:0|0:0|0:0|0:0,0:0:0:0:
124,384,85124,5,6,3:2:0:0:
263,218,87659,5,8,0:0:0:0:
243,76,87870,1,0,3:0:0:0:
177,147,88081,1,0,3:0:0:0:
118,215,88293,1,0,3:0:0:0:
263,218,88504,5,12,3:2:0:0:
