osu file format v14

[General]
AudioFilename: audio.mp3
AudioLeadIn: 0
PreviewTime: 46946
Countdown: 0
SampleSet: Normal
StackLeniency: 0.7
Mode: 1
LetterboxInBreaks: 0
WidescreenStoryboard: 1

[Editor]
DistanceSpacing: 0.9
BeatDivisor: 4
GridSize: 32
TimelineZoom: 2.999999

[Metadata]
Title:Kyouran Hey Kids!!
TitleUnicode:狂乱Hey Kids!!
Artist:THE ORAL CIGARETTES
ArtistUnicode:THE ORAL CIGARETTES
Creator:Prophecy
Version:aabc's Oni
Source:ノラガミ ARAGOTO
Tags:Noragami TV SIZE OP1 KwaN IamKwaN KwaNtan aabc aabc271 [R] Ron
BeatmapID:1030837
BeatmapSetID:483110

[Difficulty]
HPDrainRate:6
CircleSize:5
OverallDifficulty:5
ApproachRate:7
SliderMultiplier:1.4
SliderTickRate:1

[Events]
//Background and Video events
0,0,"yato2.jpg",0,70
//Break Periods
//Storyboard Layer 0 (Background)
//Storyboard Layer 1 (Fail)
//Storyboard Layer 2 (Pass)
//Storyboard Layer 3 (Foreground)
//Storyboard Sound Samples

[TimingPoints]
679,422.535211267606,4,1,0,72,1,0
679,-108.695652173913,4,1,0,72,0,0
7439,-92.5925925925926,4,1,0,88,0,0
20960,-92.5925925925926,4,1,0,84,0,0
21277,-95.2380952380952,4,1,0,84,0,0
34481,-92.5925925925926,4,1,0,88,0,0
41242,-92.5925925925926,4,1,0,86,0,0
41559,-93.8967136150235,4,1,0,86,0,0
41664,-94.3396226415094,4,1,0,86,0,0
41876,-95.2380952380952,4,1,0,86,0,0
42087,-96.1538461538461,4,1,0,86,0,0
42509,-98.0392156862745,4,1,0,86,0,0
42932,-100,4,1,0,86,0,0
48002,-89.2857142857143,4,1,0,98,0,1
61524,-89.2857142857143,4,1,0,92,0,0
61735,-89.4854586129754,4,1,0,92,0,0
62157,-89.8876404494382,4,1,0,92,0,0
62369,-90.0900900900901,4,1,0,92,0,0
62791,-90.497737556561,4,1,0,92,0,0
63214,-90.9090909090909,4,1,0,92,0,0
63425,-91.1161731207289,4,1,0,92,0,0
63531,-91.2200684150513,4,1,0,92,0,0
63636,-91.324200913242,4,1,0,92,0,0
63848,-91.533180778032,4,1,0,92,0,0
64059,-91.743119266055,4,1,0,92,0,0
64481,-92.1658986175114,4,1,0,92,0,0
64904,-92.5925925925925,4,1,0,92,0,0
65115,-92.8074245939674,4,1,0,92,0,0
65221,-92.9152148664343,4,1,0,92,0,0
65326,-93.0232558139534,4,1,0,92,0,0
65538,-93.2400932400931,4,1,0,92,0,0
65749,-93.4579439252335,4,1,0,92,0,0
66171,-93.8967136150234,4,1,0,92,0,0
66594,-94.3396226415093,4,1,0,92,0,0
66805,-94.562647754137,4,1,0,92,0,0
67017,-94.7867298578198,4,1,0,92,0,0
67122,-94.8991696322656,4,1,0,92,0,0
67228,-95.0118764845604,4,1,0,92,0,0
67439,-95.2380952380951,4,1,0,92,0,0
67650,-95.4653937947492,4,1,0,92,0,0
67756,-95.5794504181599,4,1,0,92,0,0
67862,-95.6937799043061,4,1,0,92,0,0
68073,-95.9232613908871,4,1,0,92,0,0
68284,-96.153846153846,4,1,0,88,0,0
75045,-86.2068965517241,4,1,0,98,0,1
85186,-86.2068965517241,4,1,0,96,0,0
85397,-86.2068965517241,4,1,0,76,0,0
86876,-86.2068965517241,4,1,0,76,0,0
87932,-86.2068965517241,4,1,0,98,0,0

[HitObjects]
256,192,679,5,4,0:0:0:0:
256,192,995,5,8,0:0:0:0:
256,192,1312,5,0,0:0:0:0:
256,192,1524,5,8,0:0:0:0:
256,192,1735,1,8,0:0:0:0:
256,192,1946,5,0,0:0:0:0:
256,192,2157,1,0,0:0:0:0:
256,192,2369,1,0,0:0:0:0:
256,192,2686,5,8,0:0:0:0:
256,192,3002,5,0,0:0:0:0:
256,192,3214,5,8,0:0:0:0:
256,192,3425,1,8,0:0:0:0:
256,192,3636,5,0,0:0:0:0:
256,192,3848,1,0,0:0:0:0:
256,192,4059,1,0,0:0:0:0:
256,192,4376,5,8,0:0:0:0:
256,192,4693,5,0,0:0:0:0:
256,192,4904,5,8,0:0:0:0:
256,192,5115,1,8,0:0:0:0:
256,192,5326,5,0,0:0:0:0:
256,192,5538,1,0,0:0:0:0:
256,192,5749,5,12,0:0:0:0:
256,192,7017,1,8,0:0:0:0:
256,192,7439,5,0,0:0:0:0:
256,192,7545,5,8,0:0:0:0:
256,192,7756,1,8,0:0:0:0:
256,192,7862,1,8,0:0:0:0:
256,192,8073,5,0,0:0:0:0:
256,192,8179,5,8,0:0:0:0:
256,192,8390,5,0,0:0:0:0:
256,192,8495,5,8,0:0:0:0:
256,192,8601,5,0,0:0:0:0:
256,192,8707,5,8,0:0:0:0:
256,192,8918,5,0,0:0:0:0:
256,192,9129,1,0,0:0:0:0:
256,192,9235,5,8,0:0:0:0:
256,192,9446,1,8,0:0:0:0:
256,192,9552,1,8,0:0:0:0:
256,192,9763,5,0,0:0:0:0:
256,192,9869,5,8,0:0:0:0:
256,192,10080,5,0,0:0:0:0:
256,192,10186,5,8,0:0:0:0:
256,192,10291,5,0,0:0:0:0:
256,192,10397,1,0,0:0:0:0:
256,192,10608,5,8,0:0:0:0:
256,192,10819,5,0,0:0:0:0:
256,192,10925,5,8,0:0:0:0:
256,192,11136,1,8,0:0:0:0:
256,192,11242,1,8,0:0:0:0:
256,192,11453,5,0,0:0:0:0:
256,192,11559,5,8,0:0:0:0:
256,192,11770,5,0,0:0:0:0:
256,192,11876,5,8,0:0:0:0:
256,192,11981,5,0,0:0:0:0:
256,192,12087,5,8,0:0:0:0:
256,192,12298,5,0,0:0:0:0:
256,192,12509,5,8,0:0:0:0:
256,192,12615,5,0,0:0:0:0:
256,192,12721,1,0,0:0:0:0:
256,192,12932,1,0,0:0:0:0:
256,192,13038,5,8,0:0:0:0:
256,192,13249,1,8,0:0:0:0:
256,192,13460,1,8,0:0:0:0:
256,192,13566,1,8,0:0:0:0:
256,192,13671,5,0,0:0:0:0:
256,192,13777,1,0,0:0:0:0:
256,192,13988,1,0,0:0:0:0:
256,192,14200,1,4,0:0:0:0:
256,192,14411,1,0,0:0:0:0:
256,192,14517,5,8,0:0:0:0:
256,192,14622,1,8,0:0:0:0:
256,192,14833,5,0,0:0:0:0:
256,192,14939,5,8,0:0:0:0:
256,192,15150,5,0,0:0:0:0:
256,192,15256,5,8,0:0:0:0:
256,192,15362,5,0,0:0:0:0:
256,192,15467,5,8,0:0:0:0:
256,192,15679,5,0,0:0:0:0:
256,192,15890,1,0,0:0:0:0:
256,192,16101,1,0,0:0:0:0:
256,192,16207,5,8,0:0:0:0:
256,192,16312,1,8,0:0:0:0:
256,192,16524,5,0,0:0:0:0:
256,192,16629,5,8,0:0:0:0:
256,192,16840,5,0,0:0:0:0:
256,192,16946,5,8,0:0:0:0:
256,192,17052,5,0,0:0:0:0:
256,192,17157,1,0,0:0:0:0:
256,192,17369,5,8,0:0:0:0:
256,192,17580,5,0,0:0:0:0:
256,192,17791,1,0,0:0:0:0:
256,192,17897,5,8,0:0:0:0:
256,192,18002,1,8,0:0:0:0:
256,192,18214,5,0,0:0:0:0:
256,192,18319,5,8,0:0:0:0:
256,192,18531,5,0,0:0:0:0:
256,192,18636,5,8,0:0:0:0:
256,192,18742,5,0,0:0:0:0:
256,192,18848,5,8,0:0:0:0:
256,192,19059,5,0,0:0:0:0:
256,192,19270,5,8,0:0:0:0:
256,192,19376,5,0,0:0:0:0:
256,192,19481,1,0,0:0:0:0:
256,192,19693,1,0,0:0:0:0:
256,192,19798,5,8,0:0:0:0:
256,192,20009,1,8,0:0:0:0:
256,192,20221,1,8,0:0:0:0:
256,192,20326,1,8,0:0:0:0:
256,192,20432,5,0,0:0:0:0:
256,192,20538,1,0,0:0:0:0:
256,192,20749,5,8,0:0:0:0:
256,192,20960,1,12,0:0:0:0:
256,192,21277,1,8,0:0:0:0:
256,192,21383,5,0,0:0:0:0:
256,192,21594,1,0,0:0:0:0:
256,192,21805,1,0,0:0:0:0:
256,192,22017,1,0,0:0:0:0:
256,192,22122,1,0,0:0:0:0:
256,192,22228,5,8,0:0:0:0:
256,192,22439,1,8,0:0:0:0:
256,192,22650,5,0,0:0:0:0:
256,192,22967,5,8,0:0:0:0:
256,192,23073,1,8,0:0:0:0:
256,192,23284,5,0,0:0:0:0:
256,192,23495,5,8,0:0:0:0:
256,192,23707,5,0,0:0:0:0:
256,192,23812,1,0,0:0:0:0:
256,192,23918,1,0,0:0:0:0:
256,192,24129,5,8,0:0:0:0:
256,192,24340,1,8,0:0:0:0:
256,192,24657,1,8,0:0:0:0:
256,192,24763,5,0,0:0:0:0:
256,192,24974,1,0,0:0:0:0:
256,192,25186,1,0,0:0:0:0:
256,192,25397,5,8,0:0:0:0:
256,192,25502,5,0,0:0:0:0:
256,192,25608,5,8,0:0:0:0:
256,192,25819,1,8,0:0:0:0:
256,192,26031,1,8,0:0:0:0:
256,192,26348,1,8,0:0:0:0:
256,192,26453,5,0,0:0:0:0:
256,192,26664,1,0,0:0:0:0:
256,192,26876,1,0,0:0:0:0:
256,192,27087,1,0,0:0:0:0:
256,192,27193,1,0,0:0:0:0:
256,192,27298,1,0,0:0:0:0:
256,192,27509,5,8,0:0:0:0:
256,192,27721,1,12,0:0:0:0:
256,192,28038,1,8,0:0:0:0:
256,192,28143,5,0,0:0:0:0:
256,192,28355,1,0,0:0:0:0:
256,192,28566,1,0,0:0:0:0:
256,192,28671,5,8,0:0:0:0:
256,192,28777,5,0,0:0:0:0:
256,192,28988,1,0,0:0:0:0:
256,192,29200,5,8,0:0:0:0:
256,192,29305,1,8,0:0:0:0:
256,192,29411,5,0,0:0:0:0:
256,192,29728,5,8,0:0:0:0:
256,192,29833,1,8,0:0:0:0:
256,192,30045,5,0,0:0:0:0:
256,192,30256,5,8,0:0:0:0:
256,192,30362,1,8,0:0:0:0:
256,192,30467,5,0,0:0:0:0:
256,192,30679,1,0,0:0:0:0:
256,192,30890,5,8,0:0:0:0:
256,192,31101,1,12,0:0:0:0:
256,192,31312,5,0,0:0:0:0:
256,192,31418,1,0,0:0:0:0:
256,192,31735,5,12,0:0:0:0:
256,192,31946,5,0,0:0:0:0:
256,192,32052,1,0,0:0:0:0:
256,192,32369,5,12,0:0:0:0:
256,192,32580,5,0,0:0:0:0:
256,192,32686,1,0,0:0:0:0:
256,192,33002,5,8,0:0:0:0:
256,192,33214,1,8,0:0:0:0:
256,192,33319,1,8,0:0:0:0:
256,192,33425,1,8,0:0:0:0:
256,192,33531,1,8,0:0:0:0:
256,192,33636,5,0,0:0:0:0:
256,192,33848,1,0,0:0:0:0:
256,192,33953,1,0,0:0:0:0:
256,192,34059,1,0,0:0:0:0:
256,192,34481,5,12,0:0:0:0:
256,192,34693,5,0,0:0:0:0:
256,192,34798,5,8,0:0:0:0:
256,192,34904,1,8,0:0:0:0:
256,192,35115,5,0,0:0:0:0:
256,192,35221,5,8,0:0:0:0:
256,192,35432,5,0,0:0:0:0:
256,192,35538,5,8,0:0:0:0:
256,192,35643,5,0,0:0:0:0:
256,192,35749,5,8,0:0:0:0:
256,192,35960,5,0,0:0:0:0:
256,192,36171,1,0,0:0:0:0:
256,192,36383,5,8,0:0:0:0:
256,192,36488,1,8,0:0:0:0:
256,192,36594,5,0,0:0:0:0:
256,192,36805,1,0,0:0:0:0:
256,192,37017,1,0,0:0:0:0:
256,192,37122,1,0,0:0:0:0:
256,192,37228,1,0,0:0:0:0:
256,192,37333,1,0,0:0:0:0:
256,192,37439,5,8,0:0:0:0:
256,192,37650,5,0,0:0:0:0:
256,192,37862,5,8,0:0:0:0:
256,192,38073,5,0,0:0:0:0:
256,192,38179,5,8,0:0:0:0:
256,192,38284,1,8,0:0:0:0:
256,192,38495,5,0,0:0:0:0:
256,192,38601,5,8,0:0:0:0:
256,192,38812,5,0,0:0:0:0:
256,192,38918,5,8,0:0:0:0:
256,192,39024,5,0,0:0:0:0:
256,192,39129,5,8,0:0:0:0:
256,192,39340,5,0,0:0:0:0:
256,192,39552,1,0,0:0:0:0:
256,192,39763,5,8,0:0:0:0:
256,192,39869,5,0,0:0:0:0:
256,192,39974,5,8,0:0:0:0:
256,192,40186,1,8,0:0:0:0:
256,192,40397,5,0,0:0:0:0:
256,192,40502,1,0,0:0:0:0:
256,192,40608,1,0,0:0:0:0:
256,192,40714,1,0,0:0:0:0:
256,192,40819,5,8,0:0:0:0:
256,192,41031,5,0,0:0:0:0:
256,192,41242,5,12,0:0:0:0:
256,192,41559,5,0,0:0:0:0:
256,192,41664,5,8,0:0:0:0:
256,192,41876,5,0,0:0:0:0:
256,192,42087,1,4,0:0:0:0:
256,192,42509,5,8,0:0:0:0:
256,192,42932,5,0,0:0:0:0:
256,192,43249,1,0,0:0:0:0:
256,192,43355,5,8,0:0:0:0:
256,192,43566,5,0,0:0:0:0:
256,192,43777,5,12,0:0:0:0:
256,192,43988,1,8,0:0:0:0:
256,192,44093,1,8,0:0:0:0:
256,192,44200,5,0,0:0:0:0:
256,192,44411,1,0,0:0:0:0:
256,192,44622,5,8,0:0:0:0:
256,192,44939,1,8,0:0:0:0:
256,192,45045,5,0,0:0:0:0:
256,192,45256,1,0,0:0:0:0:
256,192,45467,5,12,0:0:0:0:
256,192,45784,1,8,0:0:0:0:
256,192,45890,5,0,0:0:0:0:
256,192,46101,1,0,0:0:0:0:
256,192,46312,5,8,0:0:0:0:
256,192,46418,1,8,0:0:0:0:
256,192,46524,1,8,0:0:0:0:
256,192,46629,1,8,0:0:0:0:
256,192,46735,1,8,0:0:0:0:
256,192,48002,1,12,0:0:0:0:
256,192,48214,5,0,0:0:0:0:
256,192,48425,1,0,0:0:0:0:
256,192,48531,1,0,0:0:0:0:
256,192,48636,5,8,0:0:0:0:
256,192,48848,5,0,0:0:0:0:
256,192,49059,1,0,0:0:0:0:
256,192,49164,1,0,0:0:0:0:
256,192,49270,5,8,0:0:0:0:
256,192,49481,1,8,0:0:0:0:
256,192,49693,5,0,0:0:0:0:
256,192,49904,5,8,0:0:0:0:
256,192,50009,1,8,0:0:0:0:
256,192,50115,5,0,0:0:0:0:
256,192,50326,5,8,0:0:0:0:
256,192,50538,1,12,0:0:0:0:
256,192,50960,5,4,0:0:0:0:
256,192,51383,1,0,0:0:0:0:
256,192,51594,5,8,0:0:0:0:
256,192,51700,1,8,0:0:0:0:
256,192,51805,1,8,0:0:0:0:
256,192,52017,1,8,0:0:0:0:
256,192,52228,5,0,0:0:0:0:
256,192,52439,1,0,0:0:0:0:
256,192,52545,1,0,0:0:0:0:
256,192,52650,5,8,0:0:0:0:
256,192,52861,5,0,0:0:0:0:
256,192,53073,5,8,0:0:0:0:
256,192,53284,5,0,0:0:0:0:
256,192,53707,1,0,0:0:0:0:
256,192,53918,5,8,0:0:0:0:
256,192,54129,1,8,0:0:0:0:
256,192,54235,5,0,0:0:0:0:
256,192,54340,5,8,0:0:0:0:
256,192,54552,5,0,0:0:0:0:
256,192,54763,5,12,0:0:0:0:
256,192,54974,5,0,0:0:0:0:
256,192,55186,1,0,0:0:0:0:
256,192,55291,1,0,0:0:0:0:
256,192,55397,5,8,0:0:0:0:
256,192,55608,5,0,0:0:0:0:
256,192,55819,1,0,0:0:0:0:
256,192,55925,1,0,0:0:0:0:
256,192,56031,5,8,0:0:0:0:
256,192,56242,1,8,0:0:0:0:
256,192,56453,5,0,0:0:0:0:
256,192,56664,5,8,0:0:0:0:
256,192,56770,1,8,0:0:0:0:
256,192,56876,5,0,0:0:0:0:
256,192,57087,5,8,0:0:0:0:
256,192,57298,1,8,0:0:0:0:
256,192,57404,1,8,0:0:0:0:
256,192,57509,5,0,0:0:0:0:
256,192,57615,1,0,0:0:0:0:
256,192,57721,1,0,0:0:0:0:
256,192,57932,1,4,0:0:0:0:
256,192,58355,5,8,0:0:0:0:
256,192,58460,1,8,0:0:0:0:
256,192,58566,1,8,0:0:0:0:
256,192,58777,5,4,0:0:0:0:
256,192,59200,5,8,0:0:0:0:
256,192,59305,1,8,0:0:0:0:
256,192,59411,5,0,0:0:0:0:
256,192,59622,5,8,0:0:0:0:
256,192,59833,1,12,0:0:0:0:
256,192,60045,5,0,0:0:0:0:
256,192,60256,5,8,0:0:0:0:
256,192,60362,1,8,0:0:0:0:
256,192,60467,5,0,0:0:0:0:
256,192,60679,5,8,0:0:0:0:
256,192,60890,1,8,0:0:0:0:
256,192,60995,5,0,0:0:0:0:
256,192,61101,5,8,0:0:0:0:
256,192,61312,5,0,0:0:0:0:
256,192,61524,5,12,0:0:0:0:
256,192,61735,5,0,0:0:0:0:
256,192,62157,1,0,0:0:0:0:
256,192,62369,1,4,0:0:0:0:
256,192,62791,5,8,0:0:0:0:
256,192,63214,5,0,0:0:0:0:
256,192,63425,5,8,0:0:0:0:
256,192,63531,1,8,0:0:0:0:
256,192,63636,5,0,0:0:0:0:
256,192,63848,5,8,0:0:0:0:
256,192,64059,1,12,0:0:0:0:
256,192,64481,5,0,0:0:0:0:
256,192,64904,1,0,0:0:0:0:
256,192,65115,5,8,0:0:0:0:
256,192,65221,1,8,0:0:0:0:
256,192,65326,1,8,0:0:0:0:
256,192,65538,1,8,0:0:0:0:
256,192,65749,5,4,0:0:0:0:
256,192,66171,1,0,0:0:0:0:
256,192,66594,5,8,0:0:0:0:
256,192,66805,5,0,0:0:0:0:
256,192,67017,1,0,0:0:0:0:
256,192,67122,1,0,0:0:0:0:
256,192,67228,1,0,0:0:0:0:
256,192,67439,5,12,0:0:0:0:
256,192,67650,5,0,0:0:0:0:
256,192,67756,5,8,0:0:0:0:
256,192,67862,5,0,0:0:0:0:
256,192,68073,1,0,0:0:0:0:
256,192,68284,5,8,0:0:0:0:
256,192,68495,5,0,0:0:0:0:
256,192,68918,5,8,0:0:0:0:
256,192,69129,1,12,0:0:0:0:
256,192,69552,1,8,0:0:0:0:
256,192,69974,1,8,0:0:0:0:
256,192,70186,1,8,0:0:0:0:
256,192,70291,5,0,0:0:0:0:
256,192,70397,1,0,0:0:0:0:
256,192,70608,1,0,0:0:0:0:
256,192,70819,1,4,0:0:0:0:
256,192,71031,1,0,0:0:0:0:
256,192,71136,1,0,0:0:0:0:
256,192,71242,1,0,0:0:0:0:
256,192,71453,5,8,0:0:0:0:
256,192,71664,5,0,0:0:0:0:
256,192,71981,5,8,0:0:0:0:
256,192,72298,5,0,0:0:0:0:
256,192,72615,5,8,0:0:0:0:
256,192,72932,1,8,0:0:0:0:
256,192,73038,5,0,0:0:0:0:
256,192,73143,5,8,0:0:0:0:
256,192,73249,5,0,0:0:0:0:
256,192,73355,5,8,0:0:0:0:
256,192,75045,1,12,0:0:0:0:
256,192,75256,5,0,0:0:0:0:
256,192,75467,1,0,0:0:0:0:
256,192,75573,1,0,0:0:0:0:
256,192,75679,5,8,0:0:0:0:
256,192,75890,5,0,0:0:0:0:
256,192,75995,1,0,0:0:0:0:
256,192,76101,1,0,0:0:0:0:
256,192,76207,1,0,0:0:0:0:
256,192,76312,5,8,0:0:0:0:
256,192,76524,1,8,0:0:0:0:
256,192,76735,5,0,0:0:0:0:
256,192,76946,5,8,0:0:0:0:
256,192,77052,1,8,0:0:0:0:
256,192,77157,5,0,0:0:0:0:
256,192,77369,5,8,0:0:0:0:
256,192,77580,1,12,0:0:0:0:
256,192,78002,5,4,0:0:0:0:
256,192,78425,1,0,0:0:0:0:
256,192,78636,5,8,0:0:0:0:
256,192,78742,1,8,0:0:0:0:
256,192,78848,1,8,0:0:0:0:
256,192,79059,1,8,0:0:0:0:
256,192,79270,5,0,0:0:0:0:
256,192,79481,1,0,0:0:0:0:
256,192,79587,1,0,0:0:0:0:
256,192,79693,5,8,0:0:0:0:
256,192,79904,5,0,0:0:0:0:
256,192,80115,5,8,0:0:0:0:
256,192,80326,5,0,0:0:0:0:
256,192,80538,1,0,0:0:0:0:
256,192,80643,1,0,0:0:0:0:
256,192,80749,1,0,0:0:0:0:
256,192,80960,5,8,0:0:0:0:
256,192,81171,1,8,0:0:0:0:
256,192,81277,5,0,0:0:0:0:
256,192,81383,5,8,0:0:0:0:
256,192,81594,5,0,0:0:0:0:
256,192,81805,5,12,0:0:0:0:
256,192,82017,5,0,0:0:0:0:
256,192,82228,1,0,0:0:0:0:
256,192,82333,1,0,0:0:0:0:
256,192,82439,5,8,0:0:0:0:
256,192,82650,1,8,0:0:0:0:
256,192,82756,1,8,0:0:0:0:
256,192,82862,5,0,0:0:0:0:
256,192,82967,1,0,0:0:0:0:
256,192,83073,5,8,0:0:0:0:
256,192,83284,1,8,0:0:0:0:
256,192,83495,1,8,0:0:0:0:
256,192,83707,5,0,0:0:0:0:
256,192,83812,5,8,0:0:0:0:
256,192,83918,1,8,0:0:0:0:
256,192,84129,1,8,0:0:0:0:
256,192,84340,5,0,0:0:0:0:
256,192,84552,1,0,0:0:0:0:
256,192,84657,1,0,0:0:0:0:
256,192,84763,1,0,0:0:0:0:
256,192,84974,5,8,0:0:0:0:
256,192,85186,1,12,0:0:0:0:
256,192,87721,1,8,0:0:0:0:
256,192,87932,5,4,0:0:0:0:
256,192,88143,1,4,0:0:0:0:
256,192,88355,5,12,0:0:0:0:
256,192,88566,1,12,0:0:0:0:
