osu file format v14

[General]
AudioFilename: audio.mp3
AudioLeadIn: 0
PreviewTime: 46946
Countdown: 0
SampleSet: Normal
StackLeniency: 0.7
Mode: 1
LetterboxInBreaks: 0
WidescreenStoryboard: 1

[Editor]
Bookmarks: 7439,20960
DistanceSpacing: 0.9
BeatDivisor: 4
GridSize: 32
TimelineZoom: 1.1

[Metadata]
Title:Kyouran Hey Kids!!
TitleUnicode:狂乱Hey Kids!!
Artist:THE ORAL CIGARETTES
ArtistUnicode:THE ORAL CIGARETTES
Creator:Prophecy
Version:Ron's Muzukashii
Source:ノラガミ ARAGOTO
Tags:Noragami TV SIZE OP1 KwaN IamKwaN KwaNtan aabc aabc271 [R] Ron
BeatmapID:1032538
BeatmapSetID:483110

[Difficulty]
HPDrainRate:6
CircleSize:5
OverallDifficulty:5
ApproachRate:5
SliderMultiplier:1.4
SliderTickRate:1

[Events]
//Background and Video events
0,0,"yato2.jpg",0,70
//Break Periods
//Storyboard Layer 0 (Background)
//Storyboard Layer 1 (Fail)
//Storyboard Layer 2 (Pass)
//Storyboard Layer 3 (Foreground)
//Storyboard Sound Samples

[TimingPoints]
679,422.535211267606,4,1,0,80,1,0
7439,-100,4,1,0,100,0,0
20960,-100,4,1,0,80,0,0
34481,-100,4,1,0,100,0,0
41242,-100,4,1,0,80,0,0
48002,-100,4,1,0,100,0,1
61524,-100,4,1,0,80,0,0
75045,-100,4,1,0,100,0,1
85186,-100,4,1,0,100,0,0

[HitObjects]
256,192,679,5,4,0:0:0:0:
256,192,1312,1,8,0:0:0:0:
256,192,1524,1,8,0:0:0:0:
256,192,1946,1,8,0:0:0:0:
256,192,2369,1,0,0:0:0:0:
256,192,3002,1,8,0:0:0:0:
256,192,3214,1,8,0:0:0:0:
256,192,3636,1,8,0:0:0:0:
256,192,4059,1,0,0:0:0:0:
256,192,4693,1,8,0:0:0:0:
256,192,4904,1,8,0:0:0:0:
256,192,5326,1,8,0:0:0:0:
256,192,5749,1,4,0:0:0:0:
256,192,7017,1,8,0:0:0:0:
256,192,7439,1,4,0:0:0:0:
256,192,7862,1,8,0:0:0:0:
256,192,8284,1,0,0:0:0:0:
256,192,8495,1,8,0:0:0:0:
256,192,8601,1,8,0:0:0:0:
256,192,8707,1,8,0:0:0:0:
256,192,8918,1,8,0:0:0:0:
256,192,9129,1,0,0:0:0:0:
256,192,9552,1,8,0:0:0:0:
256,192,9974,1,0,0:0:0:0:
256,192,10186,1,0,0:0:0:0:
256,192,10291,1,0,0:0:0:0:
256,192,10397,1,0,0:0:0:0:
256,192,10608,1,8,0:0:0:0:
256,192,10819,1,0,0:0:0:0:
256,192,11242,1,8,0:0:0:0:
256,192,11664,1,0,0:0:0:0:
256,192,11876,1,8,0:0:0:0:
256,192,11981,1,8,0:0:0:0:
256,192,12087,1,8,0:0:0:0:
256,192,12509,1,0,0:0:0:0:
256,192,12721,1,8,0:0:0:0:
256,192,12932,1,0,0:0:0:0:
256,192,13038,1,0,0:0:0:0:
256,192,13143,1,0,0:0:0:0:
256,192,13355,1,0,0:0:0:0:
256,192,13566,1,8,0:0:0:0:
256,192,13777,1,8,0:0:0:0:
256,192,14200,1,0,0:0:0:0:
256,192,14623,1,8,0:0:0:0:
256,192,15045,1,0,0:0:0:0:
256,192,15256,1,8,0:0:0:0:
256,192,15362,1,8,0:0:0:0:
256,192,15468,1,8,0:0:0:0:
256,192,15679,1,8,0:0:0:0:
256,192,15890,1,0,0:0:0:0:
256,192,16313,1,8,0:0:0:0:
256,192,16735,1,0,0:0:0:0:
256,192,16947,1,0,0:0:0:0:
256,192,17052,1,0,0:0:0:0:
256,192,17158,1,0,0:0:0:0:
256,192,17369,1,8,0:0:0:0:
256,192,17580,1,0,0:0:0:0:
256,192,18003,1,8,0:0:0:0:
256,192,18425,1,0,0:0:0:0:
256,192,18637,1,8,0:0:0:0:
256,192,18742,1,8,0:0:0:0:
256,192,18848,1,8,0:0:0:0:
256,192,19270,1,0,0:0:0:0:
256,192,19481,1,8,0:0:0:0:
256,192,19693,1,0,0:0:0:0:
256,192,19798,1,0,0:0:0:0:
256,192,19904,1,0,0:0:0:0:
256,192,20115,1,0,0:0:0:0:
256,192,20326,1,8,0:0:0:0:
256,192,20538,1,8,0:0:0:0:
256,192,20960,1,4,0:0:0:0:
256,192,21383,1,0,0:0:0:0:
256,192,21594,1,8,0:0:0:0:
256,192,22017,1,0,0:0:0:0:
256,192,22228,1,8,0:0:0:0:
256,192,22439,1,8,0:0:0:0:
256,192,22650,1,0,0:0:0:0:
256,192,23073,1,0,0:0:0:0:
256,192,23284,1,8,0:0:0:0:
256,192,23707,1,8,0:0:0:0:
256,192,23918,1,0,0:0:0:0:
256,192,24129,1,0,0:0:0:0:
256,192,24340,1,8,0:0:0:0:
256,192,24763,1,0,0:0:0:0:
256,192,24974,1,8,0:0:0:0:
256,192,25397,1,8,0:0:0:0:
256,192,25608,1,8,0:0:0:0:
256,192,25819,1,0,0:0:0:0:
256,192,26031,1,8,0:0:0:0:
256,192,26453,1,8,0:0:0:0:
256,192,26664,1,8,0:0:0:0:
256,192,27087,1,0,0:0:0:0:
256,192,27298,1,8,0:0:0:0:
256,192,27509,1,0,0:0:0:0:
256,192,27721,1,0,0:0:0:0:
256,192,28143,1,8,0:0:0:0:
256,192,28355,1,0,0:0:0:0:
256,192,28777,1,0,0:0:0:0:
256,192,28989,1,8,0:0:0:0:
256,192,29200,1,8,0:0:0:0:
256,192,29411,1,0,0:0:0:0:
256,192,29833,1,0,0:0:0:0:
256,192,30045,1,8,0:0:0:0:
256,192,30467,1,0,0:0:0:0:
256,192,30679,1,0,0:0:0:0:
256,192,31101,1,8,0:0:0:0:
256,192,31418,1,8,0:0:0:0:
256,192,31735,1,8,0:0:0:0:
256,192,32052,1,8,0:0:0:0:
256,192,32369,1,8,0:0:0:0:
256,192,32686,1,8,0:0:0:0:
256,192,33002,1,0,0:0:0:0:
256,192,33214,1,0,0:0:0:0:
256,192,33425,1,0,0:0:0:0:
256,192,33636,1,0,0:0:0:0:
256,192,34059,1,0,0:0:0:0:
256,192,34481,1,12,0:0:0:0:
256,192,34904,1,0,0:0:0:0:
256,192,35326,1,0,0:0:0:0:
256,192,35537,1,8,0:0:0:0:
256,192,35643,1,8,0:0:0:0:
256,192,35749,1,8,0:0:0:0:
256,192,35960,1,8,0:0:0:0:
256,192,36171,1,0,0:0:0:0:
256,192,36594,1,8,0:0:0:0:
256,192,37016,1,0,0:0:0:0:
256,192,37228,1,0,0:0:0:0:
256,192,37333,1,0,0:0:0:0:
256,192,37439,1,0,0:0:0:0:
256,192,37650,1,8,0:0:0:0:
256,192,37861,1,0,0:0:0:0:
256,192,38284,1,8,0:0:0:0:
256,192,38707,1,0,0:0:0:0:
256,192,38918,1,8,0:0:0:0:
256,192,39024,1,8,0:0:0:0:
256,192,39129,1,8,0:0:0:0:
256,192,39552,1,0,0:0:0:0:
256,192,39763,1,0,0:0:0:0:
256,192,39869,1,0,0:0:0:0:
256,192,39974,1,0,0:0:0:0:
256,192,40186,1,8,0:0:0:0:
256,192,40397,1,0,0:0:0:0:
256,192,40608,1,0,0:0:0:0:
256,192,40819,1,8,0:0:0:0:
256,192,41242,5,4,0:0:0:0:
256,192,41559,1,0,0:0:0:0:
256,192,41876,1,0,0:0:0:0:
256,192,42087,1,8,0:0:0:0:
256,192,42509,1,8,0:0:0:0:
256,192,42932,1,0,0:0:0:0:
256,192,43249,1,0,0:0:0:0:
256,192,43566,1,0,0:0:0:0:
256,192,43777,1,8,0:0:0:0:
256,192,44200,1,8,0:0:0:0:
256,192,44622,1,0,0:0:0:0:
256,192,44939,1,8,0:0:0:0:
256,192,45256,1,0,0:0:0:0:
256,192,45467,1,8,0:0:0:0:
256,192,45890,1,8,0:0:0:0:
256,192,46312,1,8,0:0:0:0:
256,192,46418,1,8,0:0:0:0:
256,192,46524,1,8,0:0:0:0:
256,192,46735,1,12,0:0:0:0:
256,192,48002,1,4,0:0:0:0:
256,192,48214,1,8,0:0:0:0:
256,192,48636,1,8,0:0:0:0:
256,192,48848,1,0,0:0:0:0:
256,192,49059,1,8,0:0:0:0:
256,192,49270,1,8,0:0:0:0:
256,192,49376,1,8,0:0:0:0:
256,192,49481,1,8,0:0:0:0:
256,192,49693,1,0,0:0:0:0:
256,192,50115,1,0,0:0:0:0:
256,192,50326,1,8,0:0:0:0:
256,192,50537,1,0,0:0:0:0:
256,192,50960,1,8,0:0:0:0:
256,192,51383,1,0,0:0:0:0:
256,192,51594,1,8,0:0:0:0:
256,192,51805,1,0,0:0:0:0:
256,192,51911,1,0,0:0:0:0:
256,192,52017,1,0,0:0:0:0:
256,192,52227,1,8,0:0:0:0:
256,192,52439,1,0,0:0:0:0:
256,192,52650,1,8,0:0:0:0:
256,192,53073,1,8,0:0:0:0:
256,192,53284,1,0,0:0:0:0:
256,192,53707,1,0,0:0:0:0:
256,192,53918,1,0,0:0:0:0:
256,192,54340,1,8,0:0:0:0:
256,192,54552,1,0,0:0:0:0:
256,192,54657,1,0,0:0:0:0:
256,192,54763,1,0,0:0:0:0:
256,192,54974,1,8,0:0:0:0:
256,192,55397,1,0,0:0:0:0:
256,192,55608,1,8,0:0:0:0:
256,192,56031,1,8,0:0:0:0:
256,192,56242,1,8,0:0:0:0:
256,192,56453,1,0,0:0:0:0:
256,192,56664,1,8,0:0:0:0:
256,192,56875,1,8,0:0:0:0:
256,192,56981,1,8,0:0:0:0:
256,192,57087,1,8,0:0:0:0:
256,192,57298,1,0,0:0:0:0:
256,192,57509,1,8,0:0:0:0:
256,192,57720,1,0,0:0:0:0:
256,192,57932,1,8,0:0:0:0:
256,192,58354,1,8,0:0:0:0:
256,192,58566,1,0,0:0:0:0:
256,192,58777,1,8,0:0:0:0:
256,192,59199,1,0,0:0:0:0:
256,192,59622,1,8,0:0:0:0:
256,192,59833,1,8,0:0:0:0:
256,192,60467,1,8,0:0:0:0:
256,192,60679,1,0,0:0:0:0:
256,192,61101,1,8,0:0:0:0:
256,192,61312,1,0,0:0:0:0:
256,192,61524,1,0,0:0:0:0:
256,192,61735,1,8,0:0:0:0:
256,192,62157,1,0,0:0:0:0:
256,192,62369,1,8,0:0:0:0:
256,192,62791,1,0,0:0:0:0:
256,192,63214,1,0,0:0:0:0:
256,192,63425,1,0,0:0:0:0:
256,192,63848,1,0,0:0:0:0:
256,192,64059,1,8,0:0:0:0:
256,192,64481,1,8,0:0:0:0:
256,192,64904,1,0,0:0:0:0:
256,192,65115,1,8,0:0:0:0:
256,192,65326,1,0,0:0:0:0:
256,192,65749,1,8,0:0:0:0:
256,192,65960,1,0,0:0:0:0:
256,192,66171,1,8,0:0:0:0:
256,192,66594,1,8,0:0:0:0:
256,192,66805,1,0,0:0:0:0:
256,192,67228,1,0,0:0:0:0:
256,192,67439,1,8,0:0:0:0:
256,192,67862,1,8,0:0:0:0:
256,192,68073,1,0,0:0:0:0:
256,192,68284,1,8,0:0:0:0:
256,192,68495,1,8,0:0:0:0:
256,192,68918,1,0,0:0:0:0:
256,192,69129,1,8,0:0:0:0:
256,192,69552,1,0,0:0:0:0:
256,192,69763,1,0,0:0:0:0:
256,192,69974,1,8,0:0:0:0:
256,192,70186,1,0,0:0:0:0:
256,192,70608,1,0,0:0:0:0:
256,192,70819,1,8,0:0:0:0:
256,192,71242,1,0,0:0:0:0:
256,192,71348,1,0,0:0:0:0:
256,192,71453,1,0,0:0:0:0:
256,192,71664,1,0,0:0:0:0:
256,192,71981,1,8,0:0:0:0:
256,192,72298,1,0,0:0:0:0:
256,192,72615,1,8,0:0:0:0:
256,192,72932,1,0,0:0:0:0:
256,192,73038,1,0,0:0:0:0:
256,192,73143,1,0,0:0:0:0:
256,192,73355,1,4,0:0:0:0:
256,192,75045,1,4,0:0:0:0:
256,192,75257,1,8,0:0:0:0:
256,192,75678,1,8,0:0:0:0:
256,192,75890,1,0,0:0:0:0:
256,192,76101,1,8,0:0:0:0:
256,192,76312,1,8,0:0:0:0:
256,192,76418,1,8,0:0:0:0:
256,192,76523,1,8,0:0:0:0:
256,192,76735,1,0,0:0:0:0:
256,192,76946,1,8,0:0:0:0:
256,192,77369,1,8,0:0:0:0:
256,192,77580,1,0,0:0:0:0:
256,192,78003,1,8,0:0:0:0:
256,192,78425,1,0,0:0:0:0:
256,192,78637,1,8,0:0:0:0:
256,192,78848,1,0,0:0:0:0:
256,192,78954,1,0,0:0:0:0:
256,192,79060,1,0,0:0:0:0:
256,192,79270,1,8,0:0:0:0:
256,192,79482,1,0,0:0:0:0:
256,192,79693,1,8,0:0:0:0:
256,192,80116,1,0,0:0:0:0:
256,192,80327,1,0,0:0:0:0:
256,192,80750,1,8,0:0:0:0:
256,192,80961,1,0,0:0:0:0:
256,192,81383,5,8,0:0:0:0:
256,192,81595,1,0,0:0:0:0:
256,192,81700,1,0,0:0:0:0:
256,192,81806,1,0,0:0:0:0:
256,192,82017,1,8,0:0:0:0:
256,192,82440,1,0,0:0:0:0:
256,192,82651,1,8,0:0:0:0:
256,192,82862,1,8,0:0:0:0:
256,192,82967,1,8,0:0:0:0:
256,192,83074,1,8,0:0:0:0:
256,192,83284,1,8,0:0:0:0:
256,192,83496,1,0,0:0:0:0:
256,192,83707,1,8,0:0:0:0:
256,192,84129,1,8,0:0:0:0:
256,192,84340,1,0,0:0:0:0:
256,192,84552,1,8,0:0:0:0:
256,192,84763,1,0,0:0:0:0:
256,192,84869,1,0,0:0:0:0:
256,192,84975,1,0,0:0:0:0:
256,192,85186,1,8,0:0:0:0:
256,192,87721,1,8,0:0:0:0:
256,192,87932,1,4,0:0:0:0:
256,192,88143,1,4,0:0:0:0:
256,192,88355,1,12,0:0:0:0:
256,192,88566,1,12,0:0:0:0:
