osu file format v14

[General]
AudioFilename: audio.mp3
AudioLeadIn: 0
PreviewTime: 46946
Countdown: 0
SampleSet: Normal
StackLeniency: 0.7
Mode: 1
LetterboxInBreaks: 0
WidescreenStoryboard: 1

[Editor]
DistanceSpacing: 0.9
BeatDivisor: 2
GridSize: 32
TimelineZoom: 0.8000001

[Metadata]
Title:Kyouran Hey Kids!!
TitleUnicode:狂乱Hey Kids!!
Artist:THE ORAL CIGARETTES
ArtistUnicode:THE ORAL CIGARETTES
Creator:Prophecy
Version:KwaN's Kantan
Source:ノラガミ ARAGOTO
Tags:Noragami TV SIZE OP1 KwaN IamKwaN KwaNtan aabc aabc271 [R] Ron
BeatmapID:1030838
BeatmapSetID:483110

[Difficulty]
HPDrainRate:8
CircleSize:2
OverallDifficulty:3
ApproachRate:3
SliderMultiplier:1.4
SliderTickRate:1

[Events]
//Background and Video events
0,0,"yato2.jpg",0,0
//Break Periods
//Storyboard Layer 0 (Background)
//Storyboard Layer 1 (Fail)
//Storyboard Layer 2 (Pass)
//Storyboard Layer 3 (Foreground)
//Storyboard Sound Samples

[TimingPoints]
679,422.535211267606,4,1,0,80,1,0
679,-125,4,1,0,80,0,0
7439,-100,4,1,0,100,0,0
20960,-100,4,1,0,80,0,0
34481,-100,4,1,0,100,0,0
41242,-100,4,1,0,80,0,0
48002,-100,4,1,0,100,0,1
61524,-100,4,1,0,80,0,0
75045,-100,4,1,0,100,0,1
85186,-100,4,1,0,100,0,0

[HitObjects]
256,192,679,5,0,0:0:0:0:
256,192,2369,1,0,0:0:0:0:
256,192,4059,1,0,0:0:0:0:
256,192,5749,1,4,0:0:0:0:
256,192,7017,1,8,0:0:0:0:
256,192,7439,1,4,0:0:0:0:
256,192,8284,1,0,0:0:0:0:
256,192,9129,1,8,0:0:0:0:
256,192,9974,1,0,0:0:0:0:
256,192,10397,1,8,0:0:0:0:
256,192,10819,1,0,0:0:0:0:
256,192,11664,1,8,0:0:0:0:
256,192,12509,1,8,0:0:0:0:
256,192,12932,1,0,0:0:0:0:
256,192,13777,1,0,0:0:0:0:
256,192,14200,1,4,0:0:0:0:
256,192,15045,1,0,0:0:0:0:
256,192,15890,1,8,0:0:0:0:
256,192,16735,1,0,0:0:0:0:
256,192,17158,1,8,0:0:0:0:
256,192,17580,1,0,0:0:0:0:
256,192,18425,1,8,0:0:0:0:
256,192,19270,1,8,0:0:0:0:
256,192,19693,1,0,0:0:0:0:
256,192,20538,1,0,0:0:0:0:
256,192,20960,1,4,0:0:0:0:
256,192,22228,1,0,0:0:0:0:
256,192,22650,1,8,0:0:0:0:
256,192,23918,1,8,0:0:0:0:
256,192,24340,1,0,0:0:0:0:
256,192,25608,1,0,0:0:0:0:
256,192,26031,1,0,0:0:0:0:
256,192,27298,1,0,0:0:0:0:
256,192,27721,1,12,0:0:0:0:
256,192,28988,1,8,0:0:0:0:
256,192,29411,1,0,0:0:0:0:
256,192,30679,1,0,0:0:0:0:
256,192,31101,1,8,0:0:0:0:
256,192,31735,1,8,0:0:0:0:
256,192,32369,1,8,0:0:0:0:
256,192,33636,1,0,0:0:0:0:
256,192,34059,1,8,0:0:0:0:
256,192,34481,1,4,0:0:0:0:
256,192,35326,1,8,0:0:0:0:
256,192,36171,1,0,0:0:0:0:
256,192,37016,1,8,0:0:0:0:
256,192,37439,1,8,0:0:0:0:
256,192,37861,1,0,0:0:0:0:
256,192,38706,1,8,0:0:0:0:
256,192,39551,1,0,0:0:0:0:
256,192,40397,1,0,0:0:0:0:
256,192,40819,1,8,0:0:0:0:
256,192,41242,1,4,0:0:0:0:
256,192,42087,1,4,0:0:0:0:
256,192,42932,1,0,0:0:0:0:
256,192,43777,1,4,0:0:0:0:
256,192,44622,1,0,0:0:0:0:
256,192,45467,1,4,0:0:0:0:
256,192,46312,1,8,0:0:0:0:
256,192,46735,1,8,0:0:0:0:
256,192,48002,1,4,0:0:0:0:
256,192,48848,1,0,0:0:0:0:
256,192,49693,1,8,0:0:0:0:
256,192,50538,1,8,0:0:0:0:
256,192,50960,1,8,0:0:0:0:
256,192,51383,1,0,0:0:0:0:
256,192,52228,1,0,0:0:0:0:
256,192,53073,1,4,0:0:0:0:
256,192,53918,1,8,0:0:0:0:
256,192,54763,1,4,0:0:0:0:
256,192,55608,1,0,0:0:0:0:
256,192,56453,1,8,0:0:0:0:
256,192,56876,1,8,0:0:0:0:
256,192,57298,1,0,0:0:0:0:
256,192,58143,1,0,0:0:0:0:
256,192,58988,1,0,0:0:0:0:
256,192,59833,1,8,0:0:0:0:
256,192,61524,1,4,0:0:0:0:
256,192,62369,1,8,0:0:0:0:
256,192,63214,1,4,0:0:0:0:
256,192,64059,1,8,0:0:0:0:
256,192,64904,1,0,0:0:0:0:
256,192,65749,1,0,0:0:0:0:
256,192,66594,1,4,0:0:0:0:
256,192,67439,1,8,0:0:0:0:
256,192,68284,1,0,0:0:0:0:
256,192,69129,1,12,0:0:0:0:
256,192,69974,1,0,0:0:0:0:
256,192,70819,1,12,0:0:0:0:
256,192,71664,12,0,73355,0:0:0:0:
256,192,75045,5,4,0:0:0:0:
256,192,75890,1,0,0:0:0:0:
256,192,76736,1,8,0:0:0:0:
256,192,77581,1,8,0:0:0:0:
256,192,78002,1,8,0:0:0:0:
256,192,78426,1,0,0:0:0:0:
256,192,79271,1,0,0:0:0:0:
256,192,80115,1,4,0:0:0:0:
256,192,80960,1,8,0:0:0:0:
256,192,81805,1,4,0:0:0:0:
256,192,82650,1,8,0:0:0:0:
256,192,83073,1,0,0:0:0:0:
256,192,83495,1,0,0:0:0:0:
256,192,84340,1,8,0:0:0:0:
256,192,85186,1,4,0:0:0:0:
256,192,87721,1,8,0:0:0:0:
256,192,88143,1,0,0:0:0:0:
256,192,88566,1,4,0:0:0:0:
