osu file format v14

[General]
AudioFilename: audio.mp3
AudioLeadIn: 0
PreviewTime: 62576
Countdown: 0
SampleSet: Soft
StackLeniency: 0.7
Mode: 0
LetterboxInBreaks: 0
WidescreenStoryboard: 0

[Editor]
DistanceSpacing: 0.9
BeatDivisor: 4
GridSize: 32
TimelineZoom: 1.5

[Metadata]
Title:Kieta Mitai
TitleUnicode:キエタミタイ
Artist:THE ORAL CIGARETTES
ArtistUnicode:THE ORAL CIGARETTES
Creator:Agatsu
Version:Summit
Source:
Tags:glaceon reform kujinn kyouran hey kids japanese rock
BeatmapID:1813918
BeatmapSetID:867742

[Difficulty]
HPDrainRate:5.2
CircleSize:4
OverallDifficulty:9
ApproachRate:9.3
SliderMultiplier:1.7
SliderTickRate:1

[Events]
//Background and Video events
0,0,"oralcigs.jpg",0,0
//Break Periods
//Storyboard Layer 0 (Background)
//Storyboard Layer 1 (Fail)
//Storyboard Layer 2 (Pass)
//Storyboard Layer 3 (Foreground)
//Storyboard Sound Samples

[TimingPoints]
2342,312.5,4,2,1,50,1,0
12263,-100,4,2,1,5,0,0
12342,-100,4,2,1,55,0,0
22263,-100,4,2,1,5,0,0
22342,-100,4,2,1,65,0,0
32342,-125,4,2,1,50,0,0
38513,-125,4,2,1,5,0,0
38592,-125,4,2,1,50,0,0
47342,312.5,3,2,2,50,1,0
47342,-250,3,2,2,50,0,0
54842,-166.666666666667,3,2,2,55,0,0
60467,312.5,4,2,1,40,1,0
60467,-166.666666666667,4,2,1,40,0,0
62654,-90.909090909091,4,2,1,65,0,0
62888,-90.909090909091,4,2,1,5,0,0
62967,-83.3333333333333,4,2,1,85,0,1
72888,-83.3333333333333,4,2,1,5,0,1
72967,-83.3333333333333,4,2,1,85,0,0
77967,-83.3333333333333,4,2,1,85,0,1
87810,-83.3333333333333,4,2,1,85,0,0
87967,-83.3333333333333,4,2,1,85,0,1
94842,-100,4,2,1,85,0,1
95467,-83.3333333333333,4,2,1,85,0,1
96717,-83.3333333333333,4,2,1,85,0,0
97654,-100,4,2,1,50,0,0
97888,-100,4,2,1,5,0,0
97967,-100,4,2,1,65,0,0
107888,-100,4,2,1,5,0,0
107967,-100,4,2,1,65,0,0
117967,-166.666666666667,4,2,1,40,0,0
119529,-588.235294117647,4,2,1,50,0,0
119607,-333.333333333333,4,2,1,5,0,0

[Colours]
Combo1 : 255,128,64
Combo2 : 0,155,230
Combo3 : 255,113,113

[HitObjects]
188,133,2342,5,0,1:0:0:0:
257,204,2498,1,0,1:0:0:0:
102,175,2654,2,0,L|2:167,1,85,8|0,0:0|0:0,0:0:0:0:
279,115,2967,2,0,L|379:107,1,85,8|0,0:0|0:0,0:0:0:0:
188,133,3279,1,0,1:0:0:0:
330,279,3435,6,0,P|260:240|178:267,1,170,8|0,0:0|1:0,0:0:0:0:
103,126,3904,2,0,L|187:132,1,85,8|0,0:0|0:0,0:0:0:0:
363,108,4217,1,0,1:0:0:0:
287,46,4373,1,0,1:0:0:0:
369,192,4529,2,0,L|362:99,1,85,8|0,0:0|0:0,0:0:0:0:
301,262,4842,5,0,1:0:0:0:
391,293,4998,1,0,1:0:0:0:
204,303,5154,2,0,L|211:210,1,85,8|0,0:0|0:0,0:0:0:0:
117,70,5467,2,0,L|123:154,1,85,8|0,0:0|0:0,0:0:0:0:
227,45,5779,1,0,1:0:0:0:
210,218,5935,6,0,P|138:194|56:238,1,170,8|0,0:0|1:0,0:0:0:0:
285,135,6404,2,0,L|378:144,1,85,8|0,0:0|0:0,0:0:0:0:
417,318,6717,1,0,1:0:0:0:
450,218,6873,1,0,1:0:0:0:
320,330,7029,2,0,L|235:338,1,85,8|0,0:0|0:0,0:0:0:0:
75,359,7342,5,0,1:0:0:0:
145,286,7498,1,0,1:0:0:0:
46,175,7654,2,0,L|58:280,1,85,8|0,0:0|0:0,0:0:0:0:
132,107,7967,2,0,L|141:22,1,85,8|0,0:0|0:0,0:0:0:0:
205,182,8279,1,0,1:0:0:0:
394,78,8435,6,0,B|328:70|328:70|294:93|294:93|226:87,1,170,8|0,0:0|1:0,0:0:0:0:
376,182,8904,2,0,L|482:172,1,85,8|0,0:0|0:0,0:0:0:0:
328,269,9217,1,0,1:0:0:0:
392,344,9373,1,0,1:0:0:0:
230,296,9529,2,0,L|238:203,1,85,8|0,0:0|0:0,0:0:0:0:
254,37,9842,5,0,1:0:0:0:
306,121,9998,1,0,1:0:0:0:
149,39,10154,2,0,L|156:123,1,85,8|0,0:0|0:0,0:0:0:0:
10,202,10467,2,0,L|17:117,1,85,8|0,0:0|0:0,0:0:0:0:
132,227,10779,1,0,1:0:0:0:
0,338,10935,6,0,P|76:315|155:372,1,170,8|0,0:0|1:0,0:0:0:0:
273,222,11404,2,0,L|265:313,1,85,8|0,0:0|0:0,0:0:0:0:
440,257,11717,1,0,1:0:0:0:
370,191,11873,1,0,1:0:0:0:
479,79,12029,2,0,B|400:68|400:68|340:96,1,127.5,8|0,0:0|0:0,0:0:0:0:
331,104,12342,6,0,L|240:95,1,85,0|0,1:0|1:0,0:0:0:0:
103,78,12654,2,0,L|114:177,1,85,8|0,0:0|0:0,0:0:0:0:
144,348,12967,1,8,0:0:0:0:
188,250,13123,1,0,0:0:0:0:
48,340,13279,1,0,1:0:0:0:
112,162,13435,6,0,B|179:145|179:145|213:165|213:165|295:147,1,170,8|0,0:0|1:0,0:0:0:0:
446,110,13904,2,0,L|452:17,1,85,8|0,0:0|0:0,0:0:0:0:
373,178,14217,1,0,1:0:0:0:
467,212,14373,1,0,1:0:0:0:
278,236,14529,2,0,L|272:143,1,85,8|0,0:0|0:0,0:0:0:0:
154,15,14842,5,0,1:0:0:0:
245,52,14998,1,0,1:0:0:0:
85,84,15154,2,0,L|-4:75,1,85,8|0,0:0|0:0,0:0:0:0:
154,15,15467,1,8,0:0:0:0:
147,178,15623,1,0,0:0:0:0:
245,52,15779,1,0,1:0:0:0:
229,249,15935,6,0,P|163:220|78:264,1,170,8|0,0:0|1:0,0:0:0:0:
292,155,16404,2,0,L|385:150,1,85,8|0,0:0|0:0,0:0:0:0:
495,260,16717,1,0,1:0:0:0:
478,157,16873,1,0,1:0:0:0:
398,308,17029,2,0,L|305:303,1,85,8|0,0:0|0:0,0:0:0:0:
154,297,17342,5,0,1:0:0:0:
238,246,17498,1,0,1:0:0:0:
141,117,17654,2,0,L|147:215,1,85,8|0,0:0|0:0,0:0:0:0:
32,337,17967,2,0,L|37:252,1,85,8|0,0:0|0:0,0:0:0:0:
47,107,18279,1,0,1:0:0:0:
154,297,18435,6,0,B|204:312|244:291|233:282|277:263|325:282,1,170,8|0,0:0|1:0,0:0:0:0:
419,140,18904,2,0,L|410:234,1,85,8|0,0:0|0:0,0:0:0:0:
324,79,19217,1,0,1:0:0:0:
416,35,19373,1,0,1:0:0:0:
240,77,19529,2,0,L|339:80,1,85,8|0,0:0|0:0,0:0:0:0:
145,139,19842,5,0,1:0:0:0:
146,33,19998,1,0,1:0:0:0:
231,217,20154,2,0,L|330:220,1,85,8|0,0:0|0:0,0:0:0:0:
109,299,20467,2,0,B|114:231|114:231|140:203|140:203|147:117,1,170,8|0,0:0|1:0,0:0:0:0:
315,219,20935,6,0,P|349:280|303:374,1,170,8|0,0:0|1:0,0:0:0:0:
110,220,21404,2,0,L|217:214,1,85,8|0,0:0|0:0,0:0:0:0:
423,200,21717,1,8,0:0:0:0:
423,200,22029,2,0,B|416:102|416:102|380:140,1,127.5,2|0,0:0|0:0,0:0:0:0:
308,218,22342,5,4,1:2:0:0:
403,293,22498,1,0,1:0:0:0:
297,122,22654,1,8,0:0:0:0:
251,342,22810,1,0,0:0:0:0:
177,157,22967,1,8,0:0:0:0:
308,218,23123,1,0,0:0:0:0:
83,222,23279,1,0,1:0:0:0:
220,62,23435,6,0,B|285:55|285:55|315:76|315:76|400:69,1,170,8|0,0:0|1:0,0:0:0:0:
177,157,23904,1,8,0:0:0:0:
308,218,24060,2,0,L|414:223,1,85,0|0,0:0|1:0,0:0:0:0:
294,38,24373,1,0,1:0:0:0:
177,157,24529,2,0,L|71:162,1,85,8|0,0:0|0:0,0:0:0:0:
253,345,24842,5,0,1:0:0:0:
308,218,24998,1,0,1:0:0:0:
136,373,25154,1,8,0:0:0:0:
177,157,25310,1,0,0:0:0:0:
362,338,25467,1,8,0:0:0:0:
297,97,25623,1,0,0:0:0:0:
189,271,25779,1,0,1:0:0:0:
211,30,25935,6,0,P|292:55|363:15,1,170,8|0,0:0|1:0,0:0:0:0:
177,157,26404,1,8,0:0:0:0:
346,251,26560,2,0,B|284:246|284:246|255:275|255:275|180:270,1,170,0|0,0:0|1:0,0:0:0:0:
0,176,27029,2,0,L|107:168,1,85,8|0,0:0|0:0,0:0:0:0:
287,155,27342,5,0,1:0:0:0:
148,71,27498,1,0,1:0:0:0:
289,258,27654,1,8,0:0:0:0:
248,20,27810,1,0,0:0:0:0:
188,270,27967,1,8,0:0:0:0:
408,184,28123,1,0,0:0:0:0:
177,164,28279,1,0,1:0:0:0:
355,55,28435,6,0,B|417:50|417:50|446:79|446:79|521:74,1,170,8|0,0:0|1:0,0:0:0:0:
288,225,28904,1,8,0:0:0:0:
492,190,29060,2,0,L|391:182,1,85,0|0,0:0|1:0,0:0:0:0:
215,155,29373,1,0,1:0:0:0:
348,312,29529,2,0,L|449:304,1,85,8|0,0:0|0:0,0:0:0:0:
308,93,29842,5,0,1:0:0:0:
194,276,29998,1,0,1:0:0:0:
211,49,30154,1,8,0:0:0:0:
316,237,30310,1,0,0:0:0:0:
347,0,30467,1,8,0:0:0:0:
172,171,30623,1,0,0:0:0:0:
411,144,30779,1,0,1:0:0:0:
186,27,30935,6,0,P|106:22|5:28,1,170,8|0,0:0|1:0,0:0:0:0:
172,171,31404,1,8,0:0:0:0:
65,241,31560,1,0,0:0:0:0:
311,195,31717,5,8,0:0:0:0:
120,50,31873,1,8,0:0:0:0:
209,288,32029,5,8,0:0:0:0:
293,48,32185,1,8,0:0:0:0:
411,249,32342,6,0,B|417:186|417:186|435:167|435:167|439:100,1,136,6|8,1:2|0:0,0:0:0:0:
311,195,32810,2,0,L|238:199,1,68,2|0,0:0|1:0,0:0:0:0:
92,207,33123,1,2,1:2:0:0:
166,135,33279,1,2,0:0:0:0:
157,275,33435,6,0,P|94:256|25:285,1,136,10|0,0:0|0:0,0:0:0:0:
243,198,33904,2,0,L|250:268,1,68,8|2,0:0|0:0,0:0:0:0:
357,359,34217,1,2,1:2:0:0:
348,262,34373,1,2,0:0:0:0:
252,361,34529,1,10,0:0:0:0:
437,299,34685,6,0,L|512:289,1,68,2|0,0:0|1:0,0:0:0:0:
419,181,34998,2,0,L|344:171,1,68,2|2,1:2|0:0,0:0:0:0:
207,247,35310,2,0,B|248:214|248:214|255:116,1,136,10|0,0:0|0:0,0:0:0:0:
155,11,35779,2,0,L|161:95,1,68,8|0,0:0|0:0,0:0:0:0:
305,39,36092,6,0,B|362:30|362:30|389:44|389:44|445:36,1,136,2|8,1:2|0:0,0:0:0:0:
344,142,36560,1,2,0:0:0:0:
444,280,36717,2,0,P|445:214|451:134,1,136,2|0,1:2|0:0,0:0:0:0:
312,244,37185,1,10,0:0:0:0:
340,74,37342,6,0,L|344:153,1,68,2|0,0:0|0:0,0:0:0:0:
164,58,37654,1,10,0:0:0:0:
248,8,37810,1,0,0:0:0:0:
160,125,37967,2,0,L|163:57,1,68,2|0,1:2|0:0,0:0:0:0:
250,194,38279,2,0,B|264:259|264:259|247:303,1,102,10|0,0:0|0:0,0:0:0:0:
239,313,38592,6,0,B|188:308|188:308|161:322|161:322|103:317,1,136,2|2,1:2|0:0,0:0:0:0:
37,180,39060,2,0,L|30:256,1,68,8|0,0:0|0:0,0:0:0:0:
117,119,39373,1,0,0:0:0:0:
16,70,39529,1,8,0:0:0:0:
150,23,39685,1,2,0:0:0:0:
37,180,39842,6,0,P|103:169|175:210,1,136,6|10,1:2|0:0,0:0:0:0:
200,326,40310,1,2,0:0:0:0:
268,187,40467,1,2,1:2:0:0:
285,280,40623,1,2,1:2:0:0:
212,115,40779,1,2,0:0:0:0:
358,217,40935,6,0,B|412:211|412:211|438:227|438:227|505:220,1,136,10|0,0:0|0:0,0:0:0:0:
285,280,41404,2,0,L|199:271,1,68,8|2,0:0|0:0,0:0:0:0:
55,211,41717,2,0,L|141:202,1,68,2|2,1:2|0:0,0:0:0:0:
275,177,42029,1,10,0:0:0:0:
190,128,42185,1,2,0:0:0:0:
316,25,42342,6,0,L|313:103,2,68,2|2|2,1:2|1:2|0:0,0:0:0:0:
189,127,42810,2,0,L|187:60,1,68,10|0,0:0|0:0,0:0:0:0:
316,249,43123,1,8,0:0:0:0:
109,189,43279,1,8,0:0:0:0:
313,92,43435,1,10,0:0:0:0:
178,259,43592,6,0,P|114:240|46:272,1,136,6|8,1:2|0:0,0:0:0:0:
194,357,44060,1,2,0:0:0:0:
298,218,44217,2,0,B|342:203|372:220|368:225|395:243|447:224,1,136,2|0,1:2|0:0,0:0:0:0:
301,323,44685,1,8,0:0:0:0:
212,162,44842,6,0,L|209:94,1,68,2|0,0:0|0:0,0:0:0:0:
358,22,45154,1,10,0:0:0:0:
311,111,45310,1,0,0:0:0:0:
473,98,45467,2,0,L|405:101,1,68,6|0,1:2|0:0,0:0:0:0:
387,273,45779,2,0,L|455:276,1,68,10|0,0:0|0:0,0:0:0:0:
311,111,46092,5,2,1:2:0:0:
318,208,46248,1,2,1:2:0:0:
211,107,46404,2,0,L|217:29,1,68,10|0,0:0|0:0,0:0:0:0:
64,90,46717,2,0,L|69:157,1,68,2|0,1:2|0:0,0:0:0:0:
88,319,47029,1,2,1:2:0:0:
140,230,47185,1,0,1:0:0:0:
250,334,47342,6,0,L|178:327,2,68,6|8|8,1:2|0:0|0:0,0:0:0:0:
372,214,48279,1,8,1:2:0:0:
376,335,48592,1,8,0:0:0:0:
261,217,48904,1,8,0:0:0:0:
466,274,49217,6,0,L|473:193,2,68,8|8|8,1:2|0:0|0:0,0:0:0:0:
341,121,50154,2,0,L|346:188,2,68,8|8|10,1:2|0:0|0:0,0:0:0:0:
471,206,51092,5,10,1:2:0:0:
313,291,51404,1,8,0:0:0:0:
467,326,51717,1,8,0:0:0:0:
346,188,52029,6,0,L|268:194,2,68,8|8|8,1:2|0:0|0:0,0:0:0:0:
190,80,52967,1,8,1:2:0:0:
52,210,53279,1,0,0:0:0:0:
101,127,53435,1,8,0:0:0:0:
174,223,53592,2,0,L|140:219,1,34,0|0,0:0|0:0,0:0:0:0:
278,153,53904,5,8,1:2:0:0:
188,347,54217,1,0,0:0:0:0:
274,319,54373,1,8,0:0:0:0:
174,223,54529,2,0,L|178:265,1,34,2|0,0:0|0:0,0:0:0:0:
278,153,54842,6,0,L|282:91,1,50.9999984436036,6|0,1:2|0:0,0:0:0:0:
160,36,55154,2,0,L|163:86,1,50.9999984436036,8|0,1:2|0:0,0:0:0:0:
174,223,55467,1,8,1:2:0:0:
281,102,55779,2,0,L|395:113,2,101.999996887207,8|8|8,1:2|1:2|1:2,0:0:0:0:
464,176,56717,5,8,1:2:0:0:
419,15,57029,1,8,1:2:0:0:
337,204,57342,1,8,1:2:0:0:
276,27,57654,2,0,L|332:24,1,50.9999984436036,8|0,1:2|0:0,0:0:0:0:
223,121,57967,2,0,L|167:118,1,50.9999984436036,8|0,1:2|0:0,0:0:0:0:
32,107,58279,1,8,1:2:0:0:
213,222,58592,6,0,L|223:110,1,101.999996887207,8|8,1:2|1:2,0:0:0:0:
69,231,59217,1,8,1:2:0:0:
220,338,59529,2,0,L|285:331,1,50.9999984436036,8|0,1:2|0:0,0:0:0:0:
411,236,59842,2,0,L|346:229,1,50.9999984436036,8|0,1:2|0:0,0:0:0:0:
189,208,60154,1,8,1:2:0:0:
447,132,60467,6,0,L|451:76,1,50.9999984436036,2|2,0:0|0:0,0:0:0:0:
344,30,60779,2,0,L|347:80,1,50.9999984436036,2|2,0:0|0:0,0:0:0:0:
360,230,61092,2,0,L|364:174,2,50.9999984436036,2|2|2,0:0|0:0|0:0,0:0:0:0:
447,132,61560,1,2,0:0:0:0:
275,205,61873,5,2,0:0:0:0:
360,230,62029,1,2,0:0:0:0:
270,340,62185,2,0,L|274:276,2,50.9999984436036,2|2|0,0:0|0:0|0:0,0:0:0:0:
113,135,62654,6,0,B|210:122|210:122|178:166,1,140.25000428009,2|0,0:0|0:0,0:0:0:0:
87,341,62967,6,0,L|100:227,1,101.999996887207,6|0,1:2|0:0,0:0:0:0:
307,111,63279,2,0,L|319:216,1,101.999996887207,8|0,0:0|0:0,0:0:0:0:
344,383,63592,1,2,1:2:0:0:
437,244,63748,1,0,0:0:0:0:
245,324,63904,6,0,B|166:313|166:313|123:345|123:345|25:334,1,203.999993774414,10|0,0:0|1:0,0:0:0:0:
239,174,64373,1,0,0:0:0:0:
32,190,64529,2,0,L|161:181,1,101.999996887207,10|0,0:0|0:0,0:0:0:0:
266,26,64842,2,0,L|137:17,1,101.999996887207,2|0,1:2|0:0,0:0:0:0:
347,141,65154,1,10,0:0:0:0:
389,6,65310,1,2,0:0:0:0:
424,247,65467,6,0,P|361:188|232:223,1,203.999993774414,2|8,1:2|0:0,0:0:0:0:
97,365,65935,1,0,0:0:0:0:
140,158,66092,1,0,1:0:0:0:
196,329,66248,1,0,0:0:0:0:
235,109,66404,2,0,L|246:4,1,101.999996887207,10|0,0:0|0:0,0:0:0:0:
30,99,66717,6,0,L|41:204,1,101.999996887207,2|0,1:2|0:0,0:0:0:0:
235,109,67029,2,0,B|291:88|347:105|336:118|391:144|454:113,1,203.999993774414,10|0,0:0|1:0,0:0:0:0:
274,228,67498,1,0,0:0:0:0:
449,261,67654,1,10,0:0:0:0:
449,261,67732,1,8,0:0:0:0:
449,261,67810,2,0,L|394:269,1,50.9999984436036,8|8,0:0|0:0,0:0:0:0:
262,329,67967,6,0,L|278:188,1,101.999996887207,6|0,1:2|0:0,0:0:0:0:
85,157,68279,2,0,L|96:262,1,101.999996887207,8|0,0:0|0:0,0:0:0:0:
222,124,68592,1,2,1:2:0:0:
22,69,68748,1,0,0:0:0:0:
234,20,68904,6,0,B|312:10|312:10|354:40|354:40|444:29,1,203.999993774414,10|0,0:0|1:0,0:0:0:0:
222,124,69373,1,2,0:0:0:0:
382,255,69529,2,0,L|389:145,1,101.999996887207,10|0,0:0|0:0,0:0:0:0:
224,271,69842,1,0,1:0:0:0:
361,365,69998,1,0,0:0:0:0:
153,337,70154,2,0,L|37:323,1,101.999996887207,10|0,0:0|0:0,0:0:0:0:
195,95,70467,6,0,B|250:142|250:142|222:279,1,203.999993774414,2|8,1:2|0:0,0:0:0:0:
119,180,70935,1,0,0:0:0:0:
337,232,71092,2,0,L|456:225,1,101.999996887207,2|0,1:2|0:0,0:0:0:0:
303,87,71404,6,0,B|228:73|228:73|186:100|186:100|89:81,1,203.999993774414,8|0,0:0|1:0,0:0:0:0:
252,186,71873,1,0,0:0:0:0:
61,275,72029,2,0,L|182:265,1,101.999996887207,10|0,0:0|0:0,0:0:0:0:
379,244,72342,1,0,1:0:0:0:
252,186,72498,1,0,1:0:0:0:
436,146,72654,2,0,B|484:185|484:185|467:306,1,152.999995330811,8|0,0:0|0:0,0:0:0:0:
451,376,72967,6,0,B|392:398|337:367|361:358|308:322|241:346,1,203.999993774414,6|0,1:2|0:0,0:0:0:0:
125,153,73435,2,0,P|132:233|124:383,1,203.999993774414,10|0,0:0|0:0,0:0:0:0:
17,129,73904,2,0,P|86:50|190:66,1,203.999993774414,10|0,0:0|1:0,0:0:0:0:
306,281,74373,5,8,0:0:0:0:
299,72,74529,1,10,0:0:0:0:
135,282,74685,1,8,0:0:0:0:
177,57,74842,1,10,0:0:0:0:
355,190,74998,1,8,0:0:0:0:
113,152,75154,1,2,1:2:0:0:
299,72,75310,1,0,1:0:0:0:
246,295,75467,6,0,B|168:284|168:284|129:313|129:313|39:303,1,203.999993774414,6|0,1:2|0:0,0:0:0:0:
254,176,75935,2,0,B|332:165|332:165|371:194|371:194|461:184,1,203.999993774414,10|0,0:0|0:0,0:0:0:0:
194,83,76404,2,0,L|82:73,1,101.999996887207,10|0,0:0|0:0,0:0:0:0:
178,231,76717,5,10,0:0:0:0:
304,88,76873,1,0,0:0:0:0:
284,312,77029,2,0,L|295:184,1,101.999996887207,10|0,0:0|0:0,0:0:0:0:
194,83,77342,2,0,L|139:76,3,50.9999984436036,10|8|8|8,0:0|0:0|0:0|0:0,0:0:0:0:
32,173,77654,2,0,L|87:166,3,50.9999984436036,10|8|8|8,0:0|0:0|0:0|0:0,0:0:0:0:
165,308,77967,6,0,L|49:294,1,101.999996887207,4|0,1:2|0:0,0:0:0:0:
245,212,78279,2,0,L|361:198,1,101.999996887207,8|0,0:0|0:0,0:0:0:0:
495,243,78592,1,0,1:0:0:0:
435,122,78748,1,0,0:0:0:0:
338,301,78904,2,0,L|347:178,1,101.999996887207,10|0,0:0|0:0,0:0:0:0:
206,41,79217,6,0,P|229:90|277:119,1,101.999996887207,2|0,1:2|0:0,0:0:0:0:
435,122,79529,2,0,P|484:99|513:51,1,101.999996887207,10|0,0:0|0:0,0:0:0:0:
359,53,79842,1,2,1:2:0:0:
438,223,79998,1,0,0:0:0:0:
267,116,80154,6,0,B|187:107|187:107|150:136|150:136|47:126,1,203.999993774414,10|0,0:0|1:0,0:0:0:0:
237,226,80623,1,0,0:0:0:0:
60,305,80779,2,0,L|181:295,1,101.999996887207,10|0,0:0|0:0,0:0:0:0:
335,204,81092,1,2,1:2:0:0:
276,350,81248,1,0,0:0:0:0:
272,136,81404,2,0,L|269:17,1,101.999996887207,10|0,0:0|0:0,0:0:0:0:
448,148,81717,6,0,L|445:254,1,101.999996887207,2|0,1:2|0:0,0:0:0:0:
272,136,82029,2,0,P|309:92|374:79,1,101.999996887207,10|0,0:0|0:0,0:0:0:0:
351,333,82342,2,0,P|303:314|273:275,1,101.999996887207,2|0,1:2|0:0,0:0:0:0:
123,142,82654,6,0,B|178:195|178:195|152:330,1,203.999993774414,10|0,0:0|1:0,0:0:0:0:
62,235,83123,1,0,0:0:0:0:
273,275,83279,2,0,L|381:265,1,101.999996887207,10|0,0:0|0:0,0:0:0:0:
507,172,83592,2,0,L|399:162,1,101.999996887207,2|0,1:2|0:0,0:0:0:0:
237,51,83904,6,0,B|316:36|316:36|355:62|355:62|456:43,1,203.999993774414,10|0,0:0|1:0,0:0:0:0:
285,151,84373,1,0,0:0:0:0:
418,263,84529,2,0,L|402:141,1,101.999996887207,8|0,0:0|0:0,0:0:0:0:
268,249,84842,1,2,1:2:0:0:
440,361,84998,1,0,0:0:0:0:
246,348,85154,2,0,L|132:339,1,101.999996887207,10|0,0:0|0:0,0:0:0:0:
1,202,85467,6,0,P|87:236|183:168,1,203.999993774414,2|10,1:2|0:0,0:0:0:0:
82,126,85935,1,0,0:0:0:0:
271,124,86092,2,0,L|278:22,1,101.999996887207,2|0,1:2|0:0,0:0:0:0:
176,181,86404,2,0,L|183:282,1,101.999996887207,10|0,0:0|0:0,0:0:0:0:
356,172,86717,6,0,P|315:135|258:124,1,101.999996887207,6|0,1:2|0:0,0:0:0:0:
264,359,87029,2,0,P|312:345|349:310,1,101.999996887207,10|0,0:0|0:0,0:0:0:0:
176,181,87342,1,6,1:2:0:0:
275,238,87498,1,0,0:0:0:0:
101,256,87654,2,0,L|-32:265,1,101.999996887207,10|0,0:0|0:0,0:0:0:0:
161,83,87967,6,0,B|222:77|222:77|252:100|252:100|329:93,1,152.999995330811,4|0,1:2|0:0,0:0:0:0:
425,24,88279,1,8,0:0:0:0:
396,59,88357,1,8,0:0:0:0:
391,104,88435,1,8,0:0:0:0:
406,146,88513,1,8,0:0:0:0:
445,170,88592,2,0,L|505:163,3,50.9999984436036,8|8|8|8,0:0|0:0|0:0|0:0,0:0:0:0:
362,261,88904,2,0,L|302:254,3,50.9999984436036,10|8|8|8,0:0|0:0|0:0|0:0,0:0:0:0:
306,96,89217,5,10,0:0:0:0:
275,129,89295,1,8,0:0:0:0:
231,142,89373,1,8,0:0:0:0:
186,130,89451,1,8,0:0:0:0:
153,97,89529,1,8,0:0:0:0:
114,71,89607,1,8,0:0:0:0:
68,66,89685,1,10,0:0:0:0:
25,84,89763,1,8,0:0:0:0:
5,126,89842,2,0,L|-2:186,3,50.9999984436036,10|8|8|8,0:0|0:0|0:0|0:0,0:0:0:0:
115,280,90154,2,0,L|109:229,3,50.9999984436036,10|8|8|8,0:0|0:0|0:0|0:0,0:0:0:0:
186,130,90467,6,0,B|231:101|231:101|245:224,1,152.999995330811,6|0,1:2|0:0,0:0:0:0:
216,339,90779,1,10,0:0:0:0:
251,310,90857,1,8,0:0:0:0:
296,303,90935,1,8,0:0:0:0:
339,317,91013,1,8,0:0:0:0:
377,343,91092,1,8,0:0:0:0:
422,343,91170,1,8,0:0:0:0:
461,320,91248,1,8,0:0:0:0:
482,279,91326,1,8,0:0:0:0:
485,233,91404,1,10,0:0:0:0:
456,197,91482,1,8,0:0:0:0:
415,176,91560,1,8,0:0:0:0:
369,183,91638,1,8,0:0:0:0:
328,206,91717,5,10,0:0:0:0:
282,210,91795,1,8,0:0:0:0:
240,189,91873,1,8,0:0:0:0:
212,152,91951,1,8,0:0:0:0:
215,106,92029,1,10,0:0:0:0:
240,68,92107,1,8,0:0:0:0:
282,51,92185,1,8,0:0:0:0:
327,55,92263,1,8,0:0:0:0:
365,80,92342,2,0,L|427:84,3,50.9999984436036,10|8|8|8,0:0|0:0|0:0|0:0,0:0:0:0:
512,183,92654,2,0,L|450:187,3,50.9999984436036,10|8|8|8,0:0|0:0|0:0|0:0,0:0:0:0:
351,262,92967,6,0,B|277:249|277:249|242:277|242:277|150:262,1,203.999993774414,6|0,1:2|0:0,0:0:0:0:
85,98,93435,1,10,0:0:0:0:
187,136,93592,1,0,1:0:0:0:
0,165,93748,1,0,1:0:0:0:
159,263,93904,6,0,P|251:233|334:301,1,203.999993774414,10|0,0:0|1:0,0:0:0:0:
487,201,94373,1,8,0:0:0:0:
450,300,94529,1,0,1:0:0:0:
410,131,94685,1,8,0:0:0:0:
330,292,94842,2,0,L|230:282,1,85,10|0,0:0|1:0,0:0:0:0:
98,202,95154,2,0,L|198:192,1,85,2|0,1:2|1:0,0:0:0:0:
260,8,95467,6,0,B|320:50|320:50|292:181,1,203.999993774414,6|2,1:2|0:0,0:0:0:0:
442,271,95935,2,0,B|379:248|333:272|345:283|292:310|228:276,1,203.999993774414,6|0,0:0|0:0,0:0:0:0:
176,91,96404,2,0,L|183:213,1,101.999996887207,4|0,0:0|0:0,0:0:0:0:
198,373,96717,5,2,0:0:0:0:
198,373,97654,2,0,B|205:275|205:275|241:313,1,127.5,2|0,1:2|0:0,0:0:0:0:
313,382,97967,5,4,1:2:0:0:
319,221,98123,1,0,1:0:0:0:
399,333,98279,1,8,0:0:0:0:
386,140,98435,1,0,0:0:0:0:
225,296,98592,1,8,0:0:0:0:
419,240,98748,1,0,0:0:0:0:
236,155,98904,1,0,1:0:0:0:
436,36,99060,6,0,B|371:25|371:25|342:47|342:47|265:34,1,170,8|0,0:0|1:0,0:0:0:0:
386,140,99529,1,8,0:0:0:0:
235,154,99685,2,0,L|151:163,1,85,0|0,0:0|1:0,0:0:0:0:
321,236,99998,1,0,1:0:0:0:
142,297,100154,2,0,L|226:305,1,85,8|0,0:0|0:0,0:0:0:0:
54,210,100467,5,0,1:0:0:0:
31,324,100623,1,0,1:0:0:0:
151,163,100779,1,8,0:0:0:0:
142,297,100935,1,0,0:0:0:0:
62,97,101092,1,8,0:0:0:0:
230,228,101248,1,0,0:0:0:0:
204,44,101404,1,0,1:0:0:0:
142,297,101560,6,0,P|216:278|297:326,1,170,8|0,0:0|1:0,0:0:0:0:
378,181,102029,1,8,0:0:0:0:
426,357,102185,2,0,L|441:248,1,85,0|0,0:0|0:0,0:0:0:0:
426,83,102498,1,0,1:0:0:0:
279,216,102654,2,0,L|264:107,1,85,8|0,0:0|0:0,0:0:0:0:
437,272,102967,5,0,1:0:0:0:
293,321,103123,1,0,1:0:0:0:
451,166,103279,1,8,0:0:0:0:
388,369,103435,1,0,0:0:0:0:
362,130,103592,1,8,0:0:0:0:
512,321,103748,1,0,0:0:0:0:
489,84,103904,1,0,1:0:0:0:
313,228,104060,6,0,B|247:216|247:216|213:237|213:237|140:225,1,170,8|0,0:0|1:0,0:0:0:0:
46,70,104529,1,8,0:0:0:0:
206,109,104685,2,0,L|297:101,1,85,0|0,0:0|1:0,0:0:0:0:
468,166,104998,1,0,1:0:0:0:
408,6,105154,2,0,L|397:100,1,85,8|0,0:0|0:0,0:0:0:0:
370,285,105467,5,0,1:0:0:0:
468,166,105623,1,0,1:0:0:0:
448,369,105779,1,8,0:0:0:0:
350,175,105935,1,0,0:0:0:0:
511,277,106092,1,8,0:0:0:0:
273,330,106248,1,0,0:0:0:0:
468,166,106404,1,0,1:0:0:0:
257,117,106560,6,0,B|197:111|197:111|166:138|166:138|91:131,1,170,8|0,0:0|1:0,0:0:0:0:
256,228,107029,1,8,0:0:0:0:
341,49,107185,1,2,0:0:0:0:
341,49,107654,2,0,B|366:13|366:13|377:111,1,127.5,2|0,0:0|0:0,0:0:0:0:
377,211,107967,5,4,1:2:0:0:
408,189,108045,1,0,0:0:0:0:
445,182,108123,1,0,1:0:0:0:
480,195,108201,1,0,0:0:0:0:
507,221,108279,2,0,L|501:275,3,42.5,8|0|0|0,0:0|0:0|0:0|0:0,0:0:0:0:
417,358,108592,2,0,L|412:315,3,42.5,8|0|0|0,0:0|0:0|0:0|0:0,0:0:0:0:
299,240,108904,2,0,L|293:294,3,42.5,0|0|8|0,1:0|0:0|0:0|0:0,0:0:0:0:
228,376,109217,5,0,0:0:0:0:
190,383,109295,1,0,0:0:0:0:
153,377,109373,1,0,1:0:0:0:
120,358,109451,1,0,0:0:0:0:
96,328,109529,1,8,0:0:0:0:
83,292,109607,1,0,0:0:0:0:
85,254,109685,1,0,0:0:0:0:
100,219,109763,1,0,0:0:0:0:
130,195,109842,2,0,L|177:201,3,42.5,0|0|0|0,1:0|0:0|1:0|0:0,0:0:0:0:
42,114,110154,2,0,L|0:119,3,42.5,8|0|0|0,0:0|0:0|0:0|0:0,0:0:0:0:
142,37,110467,5,0,1:0:0:0:
176,20,110545,1,0,0:0:0:0:
214,22,110623,1,0,1:0:0:0:
248,37,110701,1,0,0:0:0:0:
271,67,110779,1,8,0:0:0:0:
301,89,110857,1,0,0:0:0:0:
339,97,110935,1,0,0:0:0:0:
375,86,111013,1,0,0:0:0:0:
403,59,111092,2,0,L|407:17,3,42.5,8|0|0|0,0:0|0:0|0:0|0:0,0:0:0:0:
487,137,111404,2,0,L|491:179,3,42.5,0|0|8|0,1:0|0:0|0:0|0:0,0:0:0:0:
281,196,111717,5,0,0:0:0:0:
319,189,111795,1,0,0:0:0:0:
356,195,111873,1,0,1:0:0:0:
389,214,111951,1,0,0:0:0:0:
413,244,112029,1,8,0:0:0:0:
426,280,112107,1,0,0:0:0:0:
424,318,112185,1,0,0:0:0:0:
409,353,112263,1,0,0:0:0:0:
380,379,112342,2,0,L|319:374,1,42.5,0|0,1:0|0:0,0:0:0:0:
259,313,112498,2,0,L|216:316,1,42.5,0|0,1:0|0:0,0:0:0:0:
100,330,112654,2,0,L|96:281,3,42.5,8|0|0|0,0:0|0:0|0:0|0:0,0:0:0:0:
183,187,112967,5,0,1:0:0:0:
199,152,113045,1,0,0:0:0:0:
199,115,113123,1,0,1:0:0:0:
184,80,113201,1,0,0:0:0:0:
155,56,113279,1,8,0:0:0:0:
117,48,113357,1,0,0:0:0:0:
80,57,113435,1,0,0:0:0:0:
51,80,113513,1,0,0:0:0:0:
37,116,113592,2,0,L|45:173,3,42.5,8|0|0|0,0:0|0:0|0:0|0:0,0:0:0:0:
96,287,113904,2,0,L|101:244,3,42.5,0|0|8|0,1:0|0:0|0:0|0:0,0:0:0:0:
199,152,114217,6,0,L|259:146,3,42.5,0|0|0|0,0:0|0:0|1:0|0:0,0:0:0:0:
371,239,114529,2,0,L|311:233,3,42.5,8|0|0|0,0:0|0:0|0:0|0:0,0:0:0:0:
202,354,114842,1,0,1:0:0:0:
235,335,114920,1,0,0:0:0:0:
272,331,114998,1,0,1:0:0:0:
308,343,115076,1,0,0:0:0:0:
340,363,115154,1,8,0:0:0:0:
378,371,115232,1,0,0:0:0:0:
415,366,115310,1,0,0:0:0:0:
449,348,115388,1,0,0:0:0:0:
473,317,115467,6,0,P|479:289|479:259,7,42.5,0|0|0|0|8|0|0|0,1:0|0:0|1:0|0:0|0:0|0:0|0:0|0:0,0:0:0:0:
364,197,116092,2,0,P|365:218|370:238,7,42.5,8|0|0|0|0|0|8|0,0:0|0:0|0:0|0:0|1:0|0:0|0:0|0:0,0:0:0:0:
481,91,116717,6,0,L|468:200,1,85,0|0,0:0|1:0,0:0:0:0:
381,323,117029,2,0,L|370:238,1,85,8|0,0:0|0:0,0:0:0:0:
338,48,117342,1,8,0:0:0:0:
264,315,117498,1,8,0:0:0:0:
154,67,117654,1,8,0:0:0:0:
331,152,117810,1,2,0:0:0:0:
120,172,117967,6,0,L|54:177,2,50.9999984436036,2|2|2,0:0|0:0|0:0,0:0:0:0:
202,224,118435,1,2,0:0:0:0:
247,60,118592,2,0,L|242:129,1,50.9999984436036,2|2,0:0|0:0,0:0:0:0:
326,250,118904,1,2,0:0:0:0:
331,152,119060,1,2,0:0:0:0:
454,347,119217,5,8,0:0:0:0:
478,79,119373,1,0,1:0:0:0:
326,250,119529,6,0,B|249:240|217:155|217:155|172:105|215:26|303:44|315:153|217:155|217:155|117:127|77:161,1,549.10000335144,6|0,0:0|0:0,0:0:0:0:
