osu file format v14

[General]
AudioFilename: audio.mp3
AudioLeadIn: 0
PreviewTime: 62576
Countdown: 0
SampleSet: Soft
StackLeniency: 0.7
Mode: 0
LetterboxInBreaks: 0
WidescreenStoryboard: 1

[Editor]
DistanceSpacing: 1.2
BeatDivisor: 4
GridSize: 32
TimelineZoom: 1.5

[Metadata]
Title:Kieta Mitai
TitleUnicode:キエタミタイ
Artist:THE ORAL CIGARETTES
ArtistUnicode:THE ORAL CIGARETTES
Creator:Agatsu
Version:Hard
Source:
Tags:glaceon reform kujinn kyouran hey kids japanese rock
BeatmapID:1813915
BeatmapSetID:867742

[Difficulty]
HPDrainRate:4.5
CircleSize:4
OverallDifficulty:6
ApproachRate:8
SliderMultiplier:1.5
SliderTickRate:1

[Events]
//Background and Video events
0,0,"oralcigs.jpg",0,0
//Break Periods
//Storyboard Layer 0 (Background)
//Storyboard Layer 1 (Fail)
//Storyboard Layer 2 (Pass)
//Storyboard Layer 3 (Foreground)
//Storyboard Sound Samples

[TimingPoints]
2342,312.5,4,2,1,50,1,0
12263,-100,4,2,1,5,0,0
12342,-100,4,2,1,55,0,0
22263,-100,4,2,1,5,0,0
22342,-100,4,2,1,65,0,0
32342,-125,4,2,1,50,0,0
38513,-125,4,2,1,5,0,0
38592,-125,4,2,1,50,0,0
47342,312.5,3,2,2,50,1,0
47342,-125,3,2,2,50,0,0
54842,-125,3,2,2,55,0,0
60467,312.5,4,2,1,40,1,0
60467,-125,4,2,1,40,0,0
62654,-125,4,2,1,65,0,0
62888,-100,4,2,1,5,0,0
62967,-100,4,2,1,85,0,1
72888,-100,4,2,1,5,0,1
72967,-100,4,2,1,85,0,0
77967,-100,4,2,1,85,0,1
87810,-100,4,2,1,85,0,0
87967,-100,4,2,1,85,0,1
94842,-100,4,2,1,85,0,1
95467,-100,4,2,1,85,0,1
96717,-100,4,2,1,85,0,0
97654,-100,4,2,1,50,0,0
97888,-100,4,2,1,5,0,0
97967,-100,4,2,1,65,0,0
107888,-100,4,2,1,5,0,0
107967,-100,4,2,1,65,0,0
117967,-100,4,2,1,40,0,0
119529,-100,4,2,1,50,0,0
125467,-100,4,2,1,5,0,0

[Colours]
Combo1 : 255,128,64
Combo2 : 0,155,230
Combo3 : 255,113,113

[HitObjects]
121,96,2342,5,0,1:0:0:0:
121,96,2498,1,0,1:0:0:0:
203,131,2654,2,0,L|287:124,1,75,8|0,0:0|0:0,0:0:0:0:
351,73,2967,2,0,P|406:108|413:196,1,150,8|0,0:0|1:0,0:0:0:0:
368,263,3435,6,0,B|292:257|303:289|215:286,1,150,8|0,0:0|1:0,0:0:0:0:
135,257,3904,1,8,0:0:0:0:
55,95,4217,1,0,1:0:0:0:
55,95,4373,1,0,1:0:0:0:
21,178,4529,2,0,P|24:221|25:271,1,75,8|0,0:0|0:0,0:0:0:0:
10,342,4842,5,0,1:0:0:0:
10,342,4998,1,0,1:0:0:0:
99,346,5154,2,0,L|180:356,1,75,8|0,0:0|0:0,0:0:0:0:
252,311,5467,2,0,B|334:304|318:336|414:332,1,150,8|0,0:0|1:0,0:0:0:0:
475,285,5935,6,0,P|490:210|443:157,1,150,8|0,0:0|1:0,0:0:0:0:
355,161,6404,1,8,0:0:0:0:
224,36,6717,1,0,1:0:0:0:
224,36,6873,1,0,1:0:0:0:
231,125,7029,2,0,P|228:162|223:206,1,75,8|0,0:0|0:0,0:0:0:0:
192,284,7342,5,0,1:0:0:0:
192,284,7498,1,0,1:0:0:0:
113,241,7654,2,0,L|33:236,1,75,8|0,0:0|0:0,0:0:0:0:
1,153,7967,2,0,P|9:90|96:56,1,150,8|0,0:0|1:0,0:0:0:0:
166,80,8435,6,0,P|233:77|325:68,1,150,8|0,0:0|1:0,0:0:0:0:
392,22,8904,1,8,0:0:0:0:
497,168,9217,1,0,1:0:0:0:
497,168,9373,1,0,1:0:0:0:
425,221,9529,2,0,P|421:259|419:315,1,75,8|0,0:0|0:0,0:0:0:0:
357,362,9842,5,0,1:0:0:0:
357,362,9998,1,0,1:0:0:0:
278,317,10154,2,0,P|276:279|272:242,1,75,8|0,0:0|0:0,0:0:0:0:
202,184,10467,2,0,B|123:178|133:207|46:205,1,150,8|0,0:0|1:0,0:0:0:0:
4,279,10935,6,0,P|22:354|113:367,1,150,8|0,0:0|1:0,0:0:0:0:
170,345,11404,1,8,0:0:0:0:
348,368,11717,1,0,1:0:0:0:
348,368,11873,1,0,1:0:0:0:
426,323,12029,2,0,L|430:229,1,75,8|0,0:0|0:0,0:0:0:0:
371,178,12342,6,0,L|367:103,1,75,0|0,1:0|1:0,0:0:0:0:
298,44,12654,2,0,P|260:46|218:46,1,75,8|0,0:0|0:0,0:0:0:0:
138,13,12967,2,0,P|92:56|94:143,1,150,8|0,0:0|1:0,0:0:0:0:
172,179,13435,6,0,P|165:245|159:340,1,150,8|0,0:0|1:0,0:0:0:0:
238,373,13904,2,0,L|323:368,1,75,8|0,0:0|0:0,0:0:0:0:
377,305,14217,1,0,1:0:0:0:
377,305,14373,1,0,1:0:0:0:
326,230,14529,2,0,P|329:186|334:141,1,75,8|0,0:0|0:0,0:0:0:0:
376,76,14842,6,0,L|457:73,1,75,0|0,1:0|1:0,0:0:0:0:
506,143,15154,2,0,P|509:180|512:217,1,75,8|0,0:0|0:0,0:0:0:0:
459,291,15467,2,0,B|380:287|390:320|295:320,1,150,8|0,0:0|1:0,0:0:0:0:
240,266,15935,6,0,P|227:189|162:153,1,150,8|0,0:0|1:0,0:0:0:0:
84,183,16404,2,0,P|79:221|78:271,1,75,8|0,0:0|0:0,0:0:0:0:
81,347,16717,1,0,1:0:0:0:
81,347,16873,1,0,1:0:0:0:
170,353,17029,2,0,L|250:359,1,75,8|0,0:0|0:0,0:0:0:0:
315,302,17342,5,0,1:0:0:0:
315,302,17498,1,0,1:0:0:0:
269,224,17654,2,0,P|272:182|277:140,1,75,8|0,0:0|0:0,0:0:0:0:
319,69,17967,2,0,B|376:58|376:58|406:77|406:77|472:66,1,150,8|0,0:0|1:0,0:0:0:0:
511,142,18435,6,0,P|502:205|499:294,1,150,8|0,0:0|1:0,0:0:0:0:
433,354,18904,1,8,0:0:0:0:
259,306,19217,1,0,1:0:0:0:
259,306,19373,1,0,1:0:0:0:
312,233,19529,2,0,P|310:188|307:144,1,75,8|0,0:0|0:0,0:0:0:0:
239,99,19842,6,0,L|165:104,1,75,0|0,1:0|1:0,0:0:0:0:
74,93,20154,2,0,P|76:138|79:182,1,75,8|0,0:0|0:0,0:0:0:0:
34,247,20467,2,0,P|87:295|173:289,1,150,8|0,0:0|1:0,0:0:0:0:
238,247,20935,6,0,P|313:253|393:256,1,150,8|0,0:0|1:0,0:0:0:0:
467,212,21404,1,8,0:0:0:0:
363,64,21717,1,8,0:0:0:0:
196,130,22029,2,0,P|155:132|85:138,1,75,2|0,0:0|0:0,0:0:0:0:
54,195,22342,5,4,1:2:0:0:
54,195,22498,1,0,1:0:0:0:
119,256,22654,2,0,P|116:294|111:333,1,75,8|0,0:0|0:0,0:0:0:0:
188,377,22967,2,0,L|272:368,1,75,8|0,0:0|0:0,0:0:0:0:
325,305,23279,1,0,1:0:0:0:
283,225,23435,6,0,P|294:151|363:122,1,150,8|0,0:0|1:0,0:0:0:0:
443,145,23904,1,8,0:0:0:0:
443,145,24060,2,0,P|445:205|450:298,1,150,0|0,0:0|1:0,0:0:0:0:
381,354,24529,2,0,L|299:346,1,75,8|0,0:0|0:0,0:0:0:0:
245,279,24842,5,0,1:0:0:0:
245,279,24998,1,0,1:0:0:0:
300,207,25154,2,0,P|302:160|301:119,1,75,8|0,0:0|0:0,0:0:0:0:
232,74,25467,2,0,P|230:27|231:-14,2,75,8|0|0,0:0|0:0|1:0,0:0:0:0:
161,130,25935,6,0,P|90:120|36:170,1,150,8|0,0:0|1:0,0:0:0:0:
35,260,26404,1,8,0:0:0:0:
35,260,26560,2,0,P|88:309|159:299,1,150,0|0,0:0|1:0,0:0:0:0:
226,238,27029,1,8,0:0:0:0:
402,274,27342,6,0,L|405:357,2,75,0|0|8,1:0|1:0|0:0,0:0:0:0:
461,206,27810,1,0,0:0:0:0:
461,206,27967,2,0,L|467:113,1,75,8|0,0:0|0:0,0:0:0:0:
404,65,28279,1,0,1:0:0:0:
321,101,28435,6,0,B|266:106|266:106|236:87|236:87|174:94,1,150,8|0,0:0|1:0,0:0:0:0:
96,130,28904,1,8,0:0:0:0:
96,130,29060,2,0,P|94:193|88:284,1,150,0|0,0:0|1:0,0:0:0:0:
152,343,29529,2,0,L|232:336,1,75,8|0,0:0|0:0,0:0:0:0:
294,276,29842,6,0,L|374:283,2,75,0|0|8,1:0|1:0|0:0,0:0:0:0:
239,204,30310,1,0,0:0:0:0:
239,204,30467,2,0,P|237:157|232:120,1,75,8|0,0:0|0:0,0:0:0:0:
273,48,30779,1,0,1:0:0:0:
362,57,30935,6,0,P|434:55|487:116,1,150,8|0,0:0|1:0,0:0:0:0:
436,184,31404,2,0,P|433:220|432:269,1,75,8|0,0:0|0:0,0:0:0:0:
364,319,31717,1,8,0:0:0:0:
364,319,31873,1,8,0:0:0:0:
288,269,32029,1,8,0:0:0:0:
288,269,32185,1,8,0:0:0:0:
205,306,32342,6,0,B|143:307|155:282|71:284,1,120,6|8,1:2|0:0,0:0:0:0:
22,222,32810,2,0,L|19:153,1,60,2|0,0:0|1:0,0:0:0:0:
77,92,33123,2,0,L|155:88,1,60,2|2,1:2|0:0,0:0:0:0:
204,29,33435,6,0,P|276:27|316:68,1,120,10|0,0:0|0:0,0:0:0:0:
311,146,33904,2,0,P|309:182|310:220,1,60,8|2,0:0|0:0,0:0:0:0:
369,273,34217,2,0,L|447:269,2,60,2|2|10,1:2|0:0|0:0,0:0:0:0:
311,342,34685,6,0,P|244:357|197:326,1,120,2|2,0:0|1:2,0:0:0:0:
151,257,35154,1,2,0:0:0:0:
151,257,35310,2,0,P|155:191|157:126,1,120,10|0,0:0|0:0,0:0:0:0:
124,52,35779,2,0,L|55:47,1,60,8|0,0:0|0:0,0:0:0:0:
5,116,36092,6,0,P|7:175|10:235,1,120,2|8,1:2|0:0,0:0:0:0:
48,317,36560,1,2,0:0:0:0:
48,317,36717,2,0,P|105:334|163:297,1,120,2|0,1:2|0:0,0:0:0:0:
201,229,37185,1,10,0:0:0:0:
201,229,37342,6,0,P|198:188|200:149,1,60,2|0,0:0|0:0,0:0:0:0:
252,97,37654,2,0,L|326:92,1,60,10|0,0:0|0:0,0:0:0:0:
391,135,37967,2,0,B|405:188|383:196|397:267,1,120,2|10,1:2|0:0,0:0:0:0:
248,363,38592,6,0,L|253:294,1,60,2|0,1:2|0:0,0:0:0:0:
201,229,38904,2,0,P|151:247|89:220,1,120,2|0,0:0|0:0,0:0:0:0:
58,138,39373,1,0,0:0:0:0:
117,71,39529,2,0,L|188:66,1,60,8|2,0:0|0:0,0:0:0:0:
249,12,39842,6,0,P|306:15|392:21,1,120,6|10,1:2|0:0,0:0:0:0:
442,70,40310,1,2,0:0:0:0:
442,70,40467,2,0,L|516:65,2,60,2|2|2,1:2|1:2|0:0,0:0:0:0:
370,124,40935,6,0,P|342:175|362:240,1,120,10|0,0:0|0:0,0:0:0:0:
436,272,41404,2,0,P|439:317|437:353,1,60,8|2,0:0|0:0,0:0:0:0:
362,380,41717,2,0,L|300:374,1,60,2|2,1:2|0:0,0:0:0:0:
237,312,42029,2,0,P|236:282|239:252,1,60,10|2,0:0|0:0,0:0:0:0:
297,182,42342,5,2,1:2:0:0:
297,182,42498,2,0,P|297:152|294:122,1,60,2|2,1:2|0:0,0:0:0:0:
236,53,42810,2,0,B|171:48|185:69|107:64,1,120,10|8,0:0|0:0,0:0:0:0:
45,119,43279,1,8,0:0:0:0:
45,119,43435,1,10,0:0:0:0:
96,193,43592,6,0,P|99:259|100:327,1,120,6|8,1:2|0:0,0:0:0:0:
171,367,44060,1,2,0:0:0:0:
171,367,44217,2,0,P|215:336|291:347,1,120,2|0,1:2|0:0,0:0:0:0:
357,297,44685,1,8,0:0:0:0:
357,297,44842,6,0,P|390:299|428:298,1,60,2|0,0:0|0:0,0:0:0:0:
486,242,45154,2,0,L|489:169,1,60,10|0,0:0|0:0,0:0:0:0:
423,118,45467,2,0,P|414:59|345:33,1,120,6|10,1:2|0:0,0:0:0:0:
208,120,46092,6,0,P|206:179|205:197,1,60,2|2,1:2|1:2,0:0:0:0:
220,268,46404,2,0,P|169:302|108:289,1,120,10|2,0:0|1:2,0:0:0:0:
26,269,46873,1,0,0:0:0:0:
13,179,47029,1,2,1:2:0:0:
13,179,47185,1,0,1:0:0:0:
85,124,47342,6,0,P|88:55|92:0,2,120,6|8|8,1:2|0:0|0:0,0:0:0:0:
260,86,48279,2,0,P|263:145|266:205,2,120,8|8|8,1:2|0:0|0:0,0:0:0:0:
124,206,49217,5,8,1:2:0:0:
274,304,49529,1,8,0:0:0:0:
412,188,49842,1,8,0:0:0:0:
260,86,50154,2,0,P|202:82|134:81,2,120,8|8|10,1:2|0:0|0:0,0:0:0:0:
412,188,51092,6,0,L|422:315,1,120,10|8,1:2|0:0,0:0:0:0:
248,357,51717,1,8,0:0:0:0:
80,291,52029,2,0,L|70:164,1,120,8|8,1:2|0:0,0:0:0:0:
181,29,52654,1,8,0:0:0:0:
339,115,52967,6,0,P|378:112|411:108,1,60,8|0,1:2|0:0,0:0:0:0:
488,119,53279,2,0,L|490:43,2,60,0|8|0,0:0|0:0|0:0,0:0:0:0:
354,239,53904,1,8,1:2:0:0:
228,109,54217,2,0,L|166:106,1,60,0|8,0:0|0:0,0:0:0:0:
96,160,54529,2,0,P|94:199|90:237,1,60,2|0,0:0|0:0,0:0:0:0:
54,302,54842,6,0,P|96:336|179:321,2,120,6|8|8,1:2|1:2|1:2,0:0:0:0:
213,218,55779,1,8,1:2:0:0:
335,350,56092,1,8,1:2:0:0:
499,277,56404,1,8,1:2:0:0:
379,142,56717,6,0,P|385:66|391:1,2,120,8|8|8,1:2|1:2|1:2,0:0:0:0:
203,102,57654,2,0,P|208:161|212:221,2,120,8|8|8,1:2|1:2|1:2,0:0:0:0:
379,142,58592,6,0,L|509:151,1,120,8|8,1:2|1:2,0:0:0:0:
373,280,59217,1,8,1:2:0:0:
220,184,59529,2,0,L|90:193,1,120,8|8,1:2|1:2,0:0:0:0:
10,348,60154,1,8,1:2:0:0:
183,298,60467,6,0,L|246:302,1,60,2|2,0:0|0:0,0:0:0:0:
322,261,60779,2,0,P|324:220|329:190,1,60,2|2,0:0|0:0,0:0:0:0:
387,133,61092,2,0,P|385:92|380:62,2,60,2|2|2,0:0|0:0|0:0,0:0:0:0:
456,189,61560,1,2,0:0:0:0:
377,351,61873,6,0,L|314:344,1,60,2|2,0:0|0:0,0:0:0:0:
245,290,62185,2,0,L|185:296,2,60,2|2|0,0:0|0:0|0:0,0:0:0:0:
308,225,62654,2,0,P|311:187|313:160,1,60,2|0,0:0|0:0,0:0:0:0:
253,68,62967,6,0,P|186:45|119:90,1,150,6|8,1:2|0:0,0:0:0:0:
73,159,63435,1,0,0:0:0:0:
73,159,63592,2,0,P|72:201|68:245,1,75,2|0,1:2|0:0,0:0:0:0:
101,317,63904,6,0,B|181:309|173:335|261:324,1,150,10|0,0:0|1:0,0:0:0:0:
321,269,64373,1,0,0:0:0:0:
271,194,64529,2,0,P|273:152|277:102,1,75,10|0,0:0|0:0,0:0:0:0:
341,57,64842,2,0,L|423:61,1,75,2|0,1:2|0:0,0:0:0:0:
484,118,65154,1,10,0:0:0:0:
423,184,65310,1,2,0:0:0:0:
492,241,65467,6,0,P|420:232|360:290,1,150,2|8,1:2|0:0,0:0:0:0:
314,354,65935,1,0,0:0:0:0:
314,354,66092,2,0,P|270:353|223:355,1,75,0|0,1:0|0:0,0:0:0:0:
170,295,66404,2,0,L|174:206,1,75,10|0,0:0|0:0,0:0:0:0:
237,156,66717,6,0,L|233:67,1,75,2|0,1:2|0:0,0:0:0:0:
165,22,67029,2,0,P|93:18|46:78,1,150,10|0,0:0|1:0,0:0:0:0:
34,163,67498,1,0,0:0:0:0:
94,229,67654,2,0,L|89:284,3,37.5,10|8|8|8,0:0|0:0|0:0|0:0,0:0:0:0:
84,311,67967,6,0,B|163:309|147:334|236:334,1,150,6|8,1:2|0:0,0:0:0:0:
304,281,68435,1,0,0:0:0:0:
304,281,68592,2,0,P|305:237|308:202,1,75,2|0,1:2|0:0,0:0:0:0:
355,130,68904,6,0,P|414:118|477:184,1,150,10|0,0:0|1:0,0:0:0:0:
458,264,69373,1,2,0:0:0:0:
458,264,69529,2,0,L|461:338,1,75,10|0,0:0|0:0,0:0:0:0:
378,374,69842,2,0,L|290:368,1,75,0|0,1:0|0:0,0:0:0:0:
239,305,70154,2,0,L|151:311,1,75,10|0,0:0|0:0,0:0:0:0:
90,362,70467,6,0,P|42:313|50:227,1,150,2|8,1:2|0:0,0:0:0:0:
101,165,70935,1,0,0:0:0:0:
101,165,71092,2,0,P|104:116|103:75,1,75,2|0,1:2|0:0,0:0:0:0:
148,12,71404,6,0,B|224:11|210:45|304:43,1,150,8|0,0:0|1:0,0:0:0:0:
374,3,71873,1,0,0:0:0:0:
374,3,72029,2,0,P|413:5|454:5,1,75,10|0,0:0|0:0,0:0:0:0:
509,71,72342,1,0,1:0:0:0:
509,71,72498,1,0,1:0:0:0:
451,139,72654,2,0,P|447:175|446:224,1,75,8|0,0:0|0:0,0:0:0:0:
496,288,72967,6,0,P|442:337|352:329,1,150,6|0,1:2|0:0,0:0:0:0:
296,282,73435,2,0,P|297:211|303:117,1,150,10|0,0:0|0:0,0:0:0:0:
252,56,73904,2,0,B|177:46|189:78|100:82,1,150,10|0,0:0|1:0,0:0:0:0:
36,139,74373,5,8,0:0:0:0:
102,199,74529,1,10,0:0:0:0:
40,264,74685,1,8,0:0:0:0:
107,323,74842,2,0,P|148:324|195:328,1,75,10|8,0:0|0:0,0:0:0:0:
251,270,75154,2,0,P|292:269|339:265,1,75,2|0,1:2|1:0,0:0:0:0:
404,311,75467,6,0,P|446:252|430:162,1,150,6|0,1:2|0:0,0:0:0:0:
374,115,75935,2,0,B|289:111|308:142|206:144,1,150,10|0,0:0|0:0,0:0:0:0:
157,199,76404,2,0,L|74:194,1,75,10|0,0:0|0:0,0:0:0:0:
19,129,76717,6,0,P|21:82|27:34,1,75,10|0,0:0|0:0,0:0:0:0:
99,6,77029,2,0,L|173:10,1,75,10|0,0:0|0:0,0:0:0:0:
244,67,77342,2,0,L|249:111,3,37.5,10|8|8|8,0:0|0:0|0:0|0:0,0:0:0:0:
220,139,77654,2,0,L|215:183,3,37.5,10|8|8|8,0:0|0:0|0:0|0:0,0:0:0:0:
246,209,77967,6,0,P|248:250|246:300,1,75,4|0,1:2|0:0,0:0:0:0:
305,352,78279,2,0,P|357:373|441:311,1,150,8|0,0:0|1:0,0:0:0:0:
481,252,78748,1,0,0:0:0:0:
425,180,78904,2,0,P|424:142|426:105,1,75,10|0,0:0|0:0,0:0:0:0:
361,41,79217,6,0,L|269:42,1,75,2|0,1:2|0:0,0:0:0:0:
218,101,79529,2,0,L|126:100,1,75,10|0,0:0|0:0,0:0:0:0:
72,157,79842,2,0,P|71:197|66:249,1,75,2|0,1:2|0:0,0:0:0:0:
3,293,80154,6,0,P|80:275|137:335,1,150,10|0,0:0|1:0,0:0:0:0:
218,295,80623,1,0,0:0:0:0:
297,336,80779,2,0,B|378:340|359:302|455:301,1,150,10|2,0:0|1:2,0:0:0:0:
496,230,81248,1,0,0:0:0:0:
444,156,81404,2,0,P|448:106|452:66,1,75,10|0,0:0|0:0,0:0:0:0:
390,13,81717,6,0,L|302:19,1,75,2|0,1:2|0:0,0:0:0:0:
252,82,82029,2,0,P|255:119|258:156,1,75,10|0,0:0|0:0,0:0:0:0:
187,212,82342,2,0,P|183:249|180:286,1,75,2|0,1:2|0:0,0:0:0:0:
222,366,82654,6,0,P|152:322|81:343,1,150,10|0,0:0|1:0,0:0:0:0:
11,292,83123,1,0,0:0:0:0:
43,208,83279,2,0,P|39:164|32:127,1,75,10|0,0:0|0:0,0:0:0:0:
77,54,83592,2,0,L|158:44,1,75,2|0,1:2|0:0,0:0:0:0:
230,87,83904,6,0,P|300:95|383:105,1,150,10|0,0:0|1:0,0:0:0:0:
452,51,84373,1,0,0:0:0:0:
506,122,84529,2,0,L|495:201,1,75,8|0,0:0|0:0,0:0:0:0:
428,256,84842,2,0,L|439:335,1,75,2|0,1:2|0:0,0:0:0:0:
361,377,85154,2,0,P|322:373|283:371,1,75,10|0,0:0|0:0,0:0:0:0:
196,360,85467,6,0,P|152:310|159:220,1,150,2|10,1:2|0:0,0:0:0:0:
211,161,85935,1,0,0:0:0:0:
211,161,86092,2,0,P|215:110|216:64,1,75,2|0,1:2|0:0,0:0:0:0:
154,20,86404,2,0,L|71:15,1,75,10|0,0:0|0:0,0:0:0:0:
7,71,86717,6,0,P|3:122|2:168,1,75,6|0,1:2|0:0,0:0:0:0:
60,213,87029,2,0,P|64:264|65:310,1,75,10|0,0:0|0:0,0:0:0:0:
128,351,87342,1,6,1:2:0:0:
128,351,87498,1,0,0:0:0:0:
206,307,87654,2,0,L|280:299,1,75,10|0,0:0|0:0,0:0:0:0:
368,321,87967,5,4,1:2:0:0:
487,186,88279,2,0,L|488:137,3,37.5,8|8|8|8,0:0|0:0|0:0|0:0,0:0:0:0:
453,118,88592,2,0,L|452:69,3,37.5,8|8|8|8,0:0|0:0|0:0|0:0,0:0:0:0:
421,47,88904,2,0,P|366:32|308:39,1,112.5,10|8,0:0|0:0,0:0:0:0:
274,63,89217,6,0,L|197:56,1,75,10|8,0:0|0:0,0:0:0:0:
122,9,89529,1,8,0:0:0:0:
41,48,89685,1,10,0:0:0:0:
33,138,89842,2,0,L|43:181,3,37.5,10|8|8|8,0:0|0:0|0:0|0:0,0:0:0:0:
72,207,90154,2,0,L|62:248,3,37.5,10|8|8|8,0:0|0:0|0:0|0:0,0:0:0:0:
86,282,90467,6,0,P|126:280|163:273,1,75,6|0,1:2|0:0,0:0:0:0:
223,209,90779,2,0,P|263:211|300:218,1,75,10|8,0:0|0:0,0:0:0:0:
371,269,91092,2,0,L|363:321,3,37.5,8|8|8|8,0:0|0:0|0:0|0:0,0:0:0:0:
327,330,91404,2,0,L|332:367,3,37.5,10|8|8|8,0:0|0:0|0:0|0:0,0:0:0:0:
288,379,91717,6,0,P|251:376|203:367,1,75,10|8,0:0|0:0,0:0:0:0:
133,329,92029,2,0,L|144:244,1,75,10|8,0:0|0:0,0:0:0:0:
199,184,92342,2,0,L|243:178,3,37.5,10|8|8|8,0:0|0:0|0:0|0:0,0:0:0:0:
266,151,92654,2,0,L|303:156,3,37.5,10|8|8|8,0:0|0:0|0:0|0:0,0:0:0:0:
332,126,92967,6,0,P|348:42|409:21,1,150,6|0,1:2|0:0,0:0:0:0:
476,70,93435,2,0,P|479:142|488:229,1,150,10|0,0:0|1:0,0:0:0:0:
461,306,93904,2,0,B|383:301|394:332|302:331,1,150,10|0,0:0|1:0,0:0:0:0:
232,291,94373,5,8,0:0:0:0:
232,291,94529,2,0,P|191:288|150:286,1,75,0|8,1:0|0:0,0:0:0:0:
78,330,94842,1,10,0:0:0:0:
78,330,94998,1,0,1:0:0:0:
2,281,95154,2,0,P|5:239|6:197,1,75,2|0,1:2|1:0,0:0:0:0:
58,132,95467,6,0,P|66:58|130:24,1,150,6|2,1:2|0:0,0:0:0:0:
212,52,95935,2,0,P|215:115|222:209,1,150,6|0,0:0|0:0,0:0:0:0:
296,252,96404,2,0,L|381:246,1,75,4|0,0:0|0:0,0:0:0:0:
440,189,96717,5,2,0:0:0:0:
176,7,97654,2,0,L|182:89,1,75,2|0,1:2|0:0,0:0:0:0:
248,142,97967,5,4,1:2:0:0:
248,142,98123,1,0,1:0:0:0:
180,201,98279,2,0,P|138:203|95:209,1,75,8|0,0:0|0:0,0:0:0:0:
44,274,98592,2,0,L|38:355,1,75,8|0,0:0|0:0,0:0:0:0:
123,376,98904,1,0,1:0:0:0:
207,346,99060,6,0,B|290:343|271:370|363:374,1,150,8|0,0:0|1:0,0:0:0:0:
440,349,99529,1,8,0:0:0:0:
440,349,99685,2,0,P|476:303|454:216,1,150,0|0,0:0|1:0,0:0:0:0:
388,159,100154,1,8,0:0:0:0:
225,231,100467,5,0,1:0:0:0:
225,231,100623,1,0,1:0:0:0:
136,217,100779,2,0,P|134:174|131:135,1,75,8|0,0:0|0:0,0:0:0:0:
74,72,101092,2,0,L|-17:75,2,75,8|0|0,0:0|0:0|1:0,0:0:0:0:
143,14,101560,6,0,P|206:21|297:34,1,150,8|0,0:0|1:0,0:0:0:0:
356,96,102029,1,8,0:0:0:0:
356,96,102185,2,0,B|353:172|375:159|376:248,1,150,0|0,0:0|1:0,0:0:0:0:
323,317,102654,2,0,L|247:310,1,75,8|0,0:0|0:0,0:0:0:0:
169,353,102967,6,0,L|79:361,2,75,0|0|8,1:0|1:0|0:0,0:0:0:0:
248,310,103435,1,0,0:0:0:0:
208,228,103592,2,0,L|214:134,1,75,8|0,0:0|0:0,0:0:0:0:
281,95,103904,1,0,1:0:0:0:
231,19,104060,6,0,B|151:12|170:44|65:37,1,150,8|0,0:0|1:0,0:0:0:0:
18,101,104529,1,8,0:0:0:0:
18,101,104685,2,0,P|24:165|32:271,1,150,0|0,0:0|1:0,0:0:0:0:
60,335,105154,1,8,0:0:0:0:
229,277,105467,6,0,P|232:238|237:197,2,75,0|0|8,1:0|1:0|0:0,0:0:0:0:
290,342,105935,1,0,0:0:0:0:
372,306,106092,2,0,L|446:297,1,75,8|0,0:0|0:0,0:0:0:0:
508,231,106404,1,0,1:0:0:0:
472,148,106560,6,0,B|414:141|414:141|390:159|390:159|310:150,1,150,8|0,0:0|1:0,0:0:0:0:
265,87,107029,1,8,0:0:0:0:
317,14,107185,1,2,0:0:0:0:
50,59,107654,2,0,P|53:97|55:147,1,75,2|0,0:0|0:0,0:0:0:0:
12,213,107967,6,0,L|4:262,3,37.5,4|0|0|0,1:2|0:0|1:0|0:0,0:0:0:0:
31,286,108279,2,0,L|37:323,3,37.5,8|0|0|0,0:0|0:0|0:0|0:0,0:0:0:0:
71,353,108592,2,0,L|119:360,3,37.5,8|0|0|0,0:0|0:0|0:0|0:0,0:0:0:0:
148,337,108904,2,0,L|185:331,3,37.5,0|0|8|0,1:0|0:0|0:0|0:0,0:0:0:0:
223,355,109217,6,0,L|260:360,3,37.5,0|0|0|0,0:0|0:0|1:0|0:0,0:0:0:0:
300,341,109529,1,8,0:0:0:0:
197,192,109842,2,0,L|206:144,3,37.5,0|0|0|0,1:0|0:0|1:0|0:0,0:0:0:0:
236,124,110154,2,0,L|227:76,3,37.5,8|0|0|0,0:0|0:0|0:0|0:0,0:0:0:0:
256,50,110467,6,0,L|310:40,3,37.5,0|0|0|0,1:0|0:0|1:0|0:0,0:0:0:0:
330,18,110779,2,0,L|384:28,3,37.5,8|0|0|0,0:0|0:0|0:0|0:0,0:0:0:0:
405,48,111092,2,0,L|459:38,3,37.5,8|0|0|0,0:0|0:0|0:0|0:0,0:0:0:0:
479,65,111404,2,0,L|488:112,3,37.5,0|0|8|0,1:0|0:0|0:0|0:0,0:0:0:0:
509,140,111717,6,0,L|500:187,3,37.5
464,201,112029,1,8,0:0:0:0:
292,144,112342,2,0,L|229:148,3,37.5,0|0|0|0,1:0|0:0|1:0|0:0,0:0:0:0:
217,171,112654,1,8,0:0:0:0:
59,83,112967,6,0,L|54:127,3,37.5,0|0|0|0,1:0|0:0|1:0|0:0,0:0:0:0:
80,156,113279,2,0,L|85:200,3,37.5,8|0|0|0,0:0|0:0|0:0|0:0,0:0:0:0:
59,231,113592,2,0,L|54:275,3,37.5,8|0|0|0,0:0|0:0|0:0|0:0,0:0:0:0:
80,304,113904,2,0,L|85:348,3,37.5,0|0|8|0,1:0|0:0|0:0|0:0,0:0:0:0:
123,364,114217,6,0,L|172:358,3,37.5,0|0|0|0,0:0|0:0|1:0|0:0,0:0:0:0:
198,336,114529,2,0,L|247:342,3,37.5,8|0|0|0,0:0|0:0|0:0|0:0,0:0:0:0:
273,364,114842,2,0,L|322:358,3,37.5,0|0|0|0,1:0|0:0|1:0|0:0,0:0:0:0:
348,336,115154,2,0,L|397:342,3,37.5,8|0|0|0,0:0|0:0|0:0|0:0,0:0:0:0:
428,325,115467,6,0,P|438:297|439:268,7,37.5,0|0|0|0|8|0|0|0,1:0|0:0|1:0|0:0|0:0|0:0|0:0|0:0,0:0:0:0:
465,252,116092,2,0,P|455:224|454:195,7,37.5,8|0|0|0|0|0|8|0,0:0|0:0|0:0|0:0|1:0|0:0|0:0|0:0,0:0:0:0:
473,175,116717,6,0,P|484:136|488:96,1,75,0|0,0:0|1:0,0:0:0:0:
434,29,117029,2,0,L|337:38,1,75,8|0,0:0|0:0,0:0:0:0:
270,17,117342,1,8,0:0:0:0:
270,17,117498,1,8,0:0:0:0:
195,67,117654,1,8,0:0:0:0:
208,155,117810,1,2,0:0:0:0:
289,193,117967,6,0,L|296:270,2,75,2|2|2,0:0|0:0|0:0,0:0:0:0:
208,155,118435,1,2,0:0:0:0:
208,155,118592,2,0,P|167:160|124:162,1,75,2|2,0:0|0:0,0:0:0:0:
62,217,118904,2,0,L|68:291,1,75,2|2,0:0|0:0,0:0:0:0:
128,359,119217,5,8,0:0:0:0:
209,320,119373,1,0,1:0:0:0:
306,358,119529,1,6,0:0:0:0:
256,192,119607,12,0,125467,0:0:0:0:
