osu file format v14

[General]
AudioFilename: audio.mp3
AudioLeadIn: 0
PreviewTime: 55673
Countdown: 0
SampleSet: Soft
StackLeniency: 0.7
Mode: 0
LetterboxInBreaks: 0
WidescreenStoryboard: 1

[Editor]
Bookmarks: 2166,16494,30822,37986,45151,46942,50916,55897,86009
DistanceSpacing: 1.2
BeatDivisor: 4
GridSize: 8
TimelineZoom: 2.799999

[Metadata]
Title:Kantan na Koto
TitleUnicode:カンタンナコト
Artist:THE ORAL CIGARETTES
ArtistUnicode:THE ORAL CIGARETTES
Creator:Tanzeem
Version:ailv's Hard
Source:
Tags:Japanese J-Rock alternator ailv Basensorex Lewski Lewdski Before It's its Too Late Rock Fixion cut short ver version
BeatmapID:2128326
BeatmapSetID:1006793

[Difficulty]
HPDrainRate:4.5
CircleSize:4
OverallDifficulty:7
ApproachRate:8.2
SliderMultiplier:1.7
SliderTickRate:1

[Events]
//Background and Video events
0,0,"thumb.jpg",0,0
//Break Periods
//Storyboard Layer 0 (Background)
//Storyboard Layer 1 (Fail)
//Storyboard Layer 2 (Pass)
//Storyboard Layer 3 (Foreground)
//Storyboard Layer 4 (Overlay)
//Storyboard Sound Samples

[TimingPoints]
375,447.761194029851,4,2,1,50,1,0
375,-400,4,2,1,50,0,0
2166,-100,4,2,1,75,0,0
16494,-133.333333333333,4,2,1,60,0,0
29927,-80,4,2,1,70,0,0
30375,-133.333333333333,4,2,1,60,0,0
30822,-100,4,2,1,75,0,0
37986,-133.333333333333,4,2,1,55,0,0
45151,-133.333333333333,4,2,1,75,0,0
46942,-133.333333333333,4,2,1,60,0,0
52315,-133.333333333333,4,2,1,70,0,0
55897,-80,4,2,1,80,0,1
82763,-80,4,2,1,85,0,1
84106,-80,4,2,1,70,0,0
84554,-200,4,2,1,70,0,0
85897,-200,4,2,1,80,0,0
86121,-100,4,2,1,5,0,0

[Colours]
Combo1 : 64,0,128
Combo2 : 36,126,200
Combo3 : 0,128,128
Combo4 : 0,128,0

[HitObjects]
388,250,375,5,4,2:1:0:0:
388,250,822,1,4,2:1:0:0:
388,250,1270,1,4,2:1:0:0:
377,228,2166,6,0,L|395:134,1,85,6|2,1:2|0:0,0:0:0:0:
406,126,2501,1,0,1:2:0:0:
406,126,2613,1,10,0:0:0:0:
356,34,2837,1,2,1:2:0:0:
356,34,2949,1,2,0:0:0:0:
255,84,3173,1,2,0:0:0:0:
255,84,3285,1,2,0:0:0:0:
138,30,3509,2,0,P|144:56|149:117,1,85,10|2,0:0|1:2,0:0:0:0:
26,204,3957,6,0,L|129:186,1,85,2|2,1:2|0:0,0:0:0:0:
143,203,4292,1,0,1:2:0:0:
143,203,4404,1,10,0:0:0:0:
114,300,4628,1,2,1:2:0:0:
114,300,4740,1,2,0:0:0:0:
216,347,4964,1,2,0:0:0:0:
216,347,5076,1,2,0:0:0:0:
255,246,5300,2,0,P|249:220|244:159,1,85,10|2,0:0|1:2,0:0:0:0:
360,268,5748,6,0,L|345:352,1,85,2|2,1:2|0:0,0:0:0:0:
372,374,6083,1,0,1:2:0:0:
372,374,6195,1,10,0:0:0:0:
475,318,6419,1,2,1:2:0:0:
475,318,6531,1,2,0:0:0:0:
424,202,6755,1,2,0:0:0:0:
424,202,6867,1,2,0:0:0:0:
506,131,7091,2,0,P|503:88|494:46,1,85,10|2,0:0|1:2,0:0:0:0:
347,5,7539,5,2,1:2:0:0:
255,66,7763,1,2,0:0:0:0:
370,102,7986,1,10,0:0:0:0:
282,170,8210,1,2,1:2:0:0:
368,233,8434,6,0,P|361:280|350:343,1,85,2|2,1:2|0:0,0:0:0:0:
349,345,8770,1,0,1:2:0:0:
349,345,8882,1,10,0:0:0:0:
237,312,9106,1,8,0:0:0:0:
237,312,9218,1,8,0:0:0:0:
237,312,9330,6,0,P|195:312|140:305,1,85,6|2,1:2|0:0,0:0:0:0:
124,299,9666,1,0,1:2:0:0:
124,299,9777,1,10,0:0:0:0:
216,218,10001,1,2,1:2:0:0:
216,218,10113,1,2,0:0:0:0:
134,134,10337,1,2,0:0:0:0:
134,134,10449,1,2,0:0:0:0:
246,78,10673,2,0,P|296:83|354:88,1,85,10|2,0:0|1:2,0:0:0:0:
157,31,11121,6,0,P|107:46|62:33,1,85,2|2,1:2|0:0,0:0:0:0:
52,21,11457,1,0,1:2:0:0:
52,21,11569,1,10,0:0:0:0:
100,136,11792,1,2,1:2:0:0:
100,136,11904,1,2,0:0:0:0:
16,221,12128,1,2,0:0:0:0:
16,221,12240,1,2,0:0:0:0:
116,287,12464,2,0,L|217:269,1,85,10|2,0:0|1:2,0:0:0:0:
306,352,12912,6,0,P|293:281|294:246,1,85,2|2,1:2|0:0,0:0:0:0:
305,237,13248,1,0,1:2:0:0:
305,237,13360,1,10,0:0:0:0:
422,267,13583,1,2,1:2:0:0:
422,267,13695,1,2,0:0:0:0:
500,178,13919,1,2,0:0:0:0:
500,178,14031,1,2,0:0:0:0:
379,128,14255,2,0,L|267:122,1,85,10|2,0:0|1:2,0:0:0:0:
199,63,14703,5,2,1:2:0:0:
215,181,14927,1,2,0:0:0:0:
102,103,15151,1,10,0:0:0:0:
114,211,15375,1,2,1:2:0:0:
8,174,15598,6,0,P|1:226|5:279,1,85,2|10,1:2|0:0,0:0:0:0:
23,287,15934,1,8,0:0:0:0:
23,287,16046,2,0,L|81:278,3,42.5,10|8|8|8,0:0|0:0|0:0|0:0,0:0:0:0:
95,307,16494,6,0,P|106:252|123:208,2,95.6250036478044,6|2|2,1:2|1:2|1:2,0:0:0:0:
175,344,17389,2,0,L|217:337,3,31.8750012159348,2|2|2|2,1:2|0:0|0:0|1:2,0:0:0:0:
235,319,17837,2,0,L|266:324,3,31.8750012159348,10|2|2|2,0:2|0:0|1:2|0:0,0:0:0:0:
298,359,18285,5,2,1:2:0:0:
336,351,18509,1,2,0:0:0:0:
445,303,18733,1,10,0:0:0:0:
406,293,18957,1,2,1:2:0:0:
326,241,19180,2,0,P|320:182|324:162,1,63.7500024318696,2|2,1:2|0:0,0:0:0:0:
444,135,19628,2,0,P|450:194|446:214,1,63.7500024318696,10|2,0:0|1:2,0:0:0:0:
355,71,20076,6,0,P|304:61|253:51,2,95.6250036478044,2|2|2,1:2|1:2|1:2,0:0:0:0:
450,53,20972,2,0,L|446:7,3,31.8750012159348,2|2|2|2,1:2|0:0|0:0|1:2,0:0:0:0:
467,88,21419,1,10,0:0:0:0:
434,183,21643,1,2,1:2:0:0:
434,183,21755,1,2,0:0:0:0:
434,183,21867,6,0,P|423:241|419:268,1,63.7500024318696,2|2,1:2|0:0,0:0:0:0:
375,316,22315,2,0,L|324:319,3,31.8750012159348,10|2|2|2,0:0|0:0|1:2|0:0,0:0:0:0:
307,337,22763,2,0,L|275:335,3,31.8750012159348,2|2|2|2,1:2|0:0|0:0|1:2,0:0:0:0:
239,360,23210,1,10,0:0:0:0:
177,285,23434,1,2,1:2:0:0:
263,225,23658,6,0,B|261:176|241:144|241:144|249:108,2,95.6250036478044,6|2|2,1:2|1:2|1:2,0:0:0:0:
285,247,24442,1,2,0:0:0:0:
285,247,24554,1,2,1:2:0:0:
366,172,24777,1,2,0:0:0:0:
304,74,25001,2,0,P|258:49|227:56,1,63.7500024318696,10|0,0:0|1:2,0:0:0:0:
134,123,25449,6,0,P|111:49|107:13,2,95.6250036478044,2|2|2,1:2|1:2|1:2,0:0:0:0:
105,232,26345,2,0,L|96:188,3,31.8750012159348,2|2|2|2,1:2|0:0|0:0|1:2,0:0:0:0:
153,294,26792,1,10,0:0:0:0:
153,294,26904,2,0,L|162:250,2,31.8750012159348,2|2|2,0:0|1:2|0:0,0:0:0:0:
168,325,27240,6,0,L|248:320,1,63.7500024318696,2|0,1:2|0:0,0:0:0:0:
271,334,27576,1,2,1:2:0:0:
271,334,27688,1,8,0:0:0:0:
373,361,27912,6,0,L|368:281,1,63.7500024318696,2|0,1:2|1:2,0:0:0:0:
382,258,28248,1,2,0:0:0:0:
382,258,28360,1,0,0:0:0:0:
448,153,28583,6,0,L|368:158,1,63.7500024318696,10|2,0:0|1:2,0:0:0:0:
345,144,28919,1,2,0:0:0:0:
345,144,29031,1,0,1:2:0:0:
246,175,29255,5,2,1:2:0:0:
246,175,29367,1,0,1:2:0:0:
246,175,29479,2,0,P|235:135|241:102,1,63.7500024318696,8|0,0:0|0:0,0:0:0:0:
138,9,29927,5,10,0:0:0:0:
32,91,30151,1,10,0:0:0:0:
32,91,30822,6,0,P|41:133|44:176,1,85,6|2,1:2|0:0,0:0:0:0:
24,211,31158,1,0,1:2:0:0:
24,211,31270,1,10,0:0:0:0:
136,175,31494,1,2,1:2:0:0:
136,175,31606,1,2,0:0:0:0:
230,232,31830,1,2,0:0:0:0:
230,232,31942,1,2,0:0:0:0:
310,159,32166,2,0,L|325:75,1,85,10|2,0:0|1:2,0:0:0:0:
399,222,32613,6,0,L|502:204,1,85,2|2,1:2|0:0,0:0:0:0:
512,231,32949,1,0,1:2:0:0:
512,231,33061,1,10,0:0:0:0:
466,336,33285,1,2,1:2:0:0:
466,336,33397,1,2,0:0:0:0:
339,310,33621,1,2,0:0:0:0:
339,310,33733,1,2,0:0:0:0:
236,369,33957,2,0,P|230:343|225:282,1,85,10|2,0:0|1:2,0:0:0:0:
138,353,34404,6,0,L|54:338,1,85,2|2,1:2|0:0,0:0:0:0:
20,354,34740,1,0,1:2:0:0:
20,354,34852,1,10,0:0:0:0:
73,257,35076,1,2,1:2:0:0:
73,257,35188,1,2,0:0:0:0:
4,179,35412,1,2,0:0:0:0:
4,179,35524,1,2,0:0:0:0:
94,107,35748,2,0,P|135:98|177:95,1,85,10|2,0:0|1:2,0:0:0:0:
293,119,36195,5,2,1:2:0:0:
201,180,36419,1,2,0:0:0:0:
316,216,36643,1,10,0:0:0:0:
228,284,36867,1,2,1:2:0:0:
329,337,37091,6,0,P|370:344|413:350,1,85,2|10,1:2|0:0,0:0:0:0:
453,339,37427,1,8,0:0:0:0:
453,339,37539,2,0,L|446:288,3,42.5,10|8|8|8,0:0|0:0|0:0|0:0,0:0:0:0:
486,273,37986,6,0,L|497:226,3,31.8750012159348,6|2|2|0,1:2|0:0|0:0|1:2,0:0:0:0:
472,207,38434,2,0,L|464:175,3,31.8750012159348,2|0|2|2,0:0|0:0|1:2|0:0,0:0:0:0:
486,137,38882,2,0,L|412:136,1,63.7500024318696,8|0,0:0|0:0,0:0:0:0:
394,116,39218,1,2,0:0:0:0:
394,116,39330,2,0,L|398:66,3,31.8750012159348,2|2|2|2,0:0|0:0|0:0|0:0,0:0:0:0:
356,134,39777,6,0,P|305:140|265:133,1,63.7500024318696,2|2,1:2|0:0,0:0:0:0:
255,55,40225,2,0,P|223:54|191:59,1,63.7500024318696,2|2,0:0|1:2,0:0:0:0:
167,75,40561,1,2,0:0:0:0:
167,75,40673,1,10,0:0:0:0:
162,163,40897,1,2,3:2:0:0:
28,116,41121,1,2,3:2:0:0:
79,49,41345,1,2,3:2:0:0:
74,195,41569,6,0,L|83:261,1,63.7500024318696,6|2,1:2|0:0,0:0:0:0:
82,287,41904,1,0,1:2:0:0:
82,287,42016,1,2,0:0:0:0:
148,346,42240,1,2,1:2:0:0:
148,346,42352,1,2,0:0:0:0:
148,346,42464,2,0,L|240:337,1,63.7500024318696,8|0,0:0|0:0,0:0:0:0:
244,307,42800,1,2,0:0:0:0:
244,307,42912,2,0,L|234:263,3,31.8750012159348,2|2|2|2,0:0|0:0|0:0|0:0,0:0:0:0:
285,322,43360,6,0,P|327:311|372:331,1,63.7500024318696,2|2,1:2|0:0,0:0:0:0:
427,241,43807,2,0,P|459:244|489:234,1,63.7500024318696,2|2,0:0|1:2,0:0:0:0:
467,138,44255,1,10,0:0:0:0:
467,138,44367,1,2,0:0:0:0:
467,138,44479,1,2,3:2:0:0:
378,81,44703,1,2,3:2:0:0:
290,129,44927,1,2,3:2:0:0:
212,69,45151,5,10,1:2:0:0:
212,69,45263,1,8,1:2:0:0:
212,69,45375,2,0,L|164:64,1,31.8750012159348,8|10,1:2|1:2,0:0:0:0:
82,40,45710,2,0,L|77:-8,2,31.8750012159348,10|10|10,0:0|0:0|0:0,0:0:0:0:
51,67,46046,2,0,L|46:115,1,31.8750012159348,10|10,1:2|0:0,0:0:0:0:
39,135,46270,1,10,0:0:0:0:
39,135,46382,1,8,0:0:0:0:
39,135,46494,1,6,1:2:0:0:
39,135,46942,6,0,P|16:61|12:25,2,95.6250036478044,6|2|2,1:2|1:2|1:2,0:0:0:0:
93,217,47837,2,0,L|84:295,1,63.7500024318696,2|2,1:2|0:0,0:0:0:0:
164,322,48285,1,10,0:0:0:0:
164,322,48397,2,0,L|173:278,2,31.8750012159348,2|2|0,0:0|1:2|0:0,0:0:0:0:
179,353,48733,6,0,L|259:348,1,63.7500024318696,2|0,1:2|0:0,0:0:0:0:
271,334,49069,1,2,1:2:0:0:
271,334,49180,1,8,0:0:0:0:
241,244,49404,6,0,L|236:164,1,63.7500024318696,2|0,1:2|1:2,0:0:0:0:
250,141,49740,1,2,0:0:0:0:
250,141,49852,1,0,0:0:0:0:
334,181,50076,6,0,L|414:186,1,63.7500024318696,10|0,0:0|0:0,0:0:0:0:
437,172,50412,1,2,0:0:0:0:
437,172,50524,1,8,0:0:0:0:
501,90,50748,5,10,0:0:0:0:
426,27,50972,1,10,0:0:0:0:
426,27,51083,1,8,0:0:0:0:
329,65,51307,1,8,0:0:0:0:
329,65,51419,1,10,0:0:0:0:
245,28,51643,1,2,0:0:0:0:
245,28,51755,1,0,3:2:0:0:
245,28,51867,2,0,L|155:43,1,63.7500024318696,10|2,0:0|0:2,0:0:0:0:
56,135,52315,5,10,0:0:0:0:
56,135,52763,1,10,0:0:0:0:
56,135,53210,1,10,0:0:0:0:
56,135,53658,1,10,0:0:0:0:
56,135,54106,5,10,0:0:0:0:
146,153,54330,1,10,0:0:0:0:
87,217,54554,5,10,0:0:0:0:
177,235,54777,1,10,0:0:0:0:
125,297,55001,5,10,0:0:0:0:
215,315,55225,1,0,3:2:0:0:
215,315,55337,1,0,3:2:0:0:
215,315,55449,1,10,0:0:0:0:
370,31,55897,6,0,P|373:118|374:166,1,106.25,6|2,1:2|0:0,0:0:0:0:
285,216,56345,1,10,0:0:0:0:
357,319,56569,1,2,0:0:0:0:
357,319,56680,2,0,L|418:312,1,53.125,2|0,0:0|1:2,0:0:0:0:
492,331,56904,2,0,L|485:270,1,53.125,2|0,0:0|0:0,0:0:0:0:
454,210,57128,1,2,0:0:0:0:
454,210,57240,1,10,0:0:0:0:
512,110,57464,1,2,0:0:0:0:
419,49,57688,5,2,1:2:0:0:
419,49,57800,1,2,0:0:0:0:
419,49,57912,2,0,L|345:40,1,53.125,2|0,0:0|0:0,0:0:0:0:
297,93,58136,1,10,0:0:0:0:
297,93,58248,1,2,0:0:0:0:
297,93,58360,2,0,L|244:99,1,53.125,2|10,0:0|0:0,0:0:0:0:
159,49,58583,6,0,B|134:96|134:96|155:156,1,106.25,2|2,1:2|0:0,0:0:0:0:
165,184,58919,1,2,0:0:0:0:
165,184,59031,1,10,0:0:0:0:
109,286,59255,1,10,0:0:0:0:
109,286,59367,1,8,0:0:0:0:
109,286,59479,6,0,L|253:278,1,106.25,6|2,1:2|0:0,0:0:0:0:
307,347,59927,1,10,0:0:0:0:
364,257,60151,1,2,0:0:0:0:
364,257,60263,2,0,L|357:196,1,53.125,2|0,0:0|1:2,0:0:0:0:
413,149,60486,2,0,L|406:88,1,53.125,2|0,0:0|0:0,0:0:0:0:
399,23,60710,1,2,0:0:0:0:
399,23,60822,1,10,0:0:0:0:
292,68,61046,1,2,0:0:0:0:
172,28,61270,5,2,1:2:0:0:
172,28,61382,1,2,0:0:0:0:
172,28,61494,2,0,L|179:96,1,53.125,2|2,0:0|0:0,0:0:0:0:
125,150,61718,2,0,L|118:218,1,53.125,10|2,0:0|0:0,0:0:0:0:
71,272,61942,5,2,0:0:0:0:
71,272,62054,1,10,0:0:0:0:
71,272,62166,2,0,L|78:340,1,53.125,2|10,1:2|0:0,0:0:0:0:
160,365,62389,1,2,0:0:0:0:
160,365,62501,1,2,0:0:0:0:
160,365,62613,1,10,0:2:0:0:
280,311,62837,1,10,0:0:0:0:
412,369,63061,6,0,P|493:341|500:297,1,106.25,6|2,1:2|0:0,0:0:0:0:
445,229,63509,1,10,0:0:0:0:
500,135,63733,1,2,0:0:0:0:
500,135,63845,2,0,P|454:122|434:126,1,53.125,2|0,0:0|1:2,0:0:0:0:
390,33,64069,2,0,P|355:66|349:85,1,53.125,2|0,0:0|0:0,0:0:0:0:
347,149,64292,1,2,0:0:0:0:
347,149,64404,1,10,0:0:0:0:
247,85,64628,1,2,0:0:0:0:
149,177,64852,6,0,L|87:169,2,53.125,2|2|2,1:2|0:0|0:0,0:0:0:0:
216,243,65188,2,0,L|278:235,2,53.125,2|10|2,0:0|0:0|0:0,0:0:0:0:
154,353,65636,1,10,0:0:0:0:
154,353,65748,1,2,1:2:0:0:
280,382,65972,1,2,0:0:0:0:
280,382,66083,1,2,0:0:0:0:
280,382,66195,1,10,0:0:0:0:
372,310,66419,1,10,0:0:0:0:
372,310,66531,1,8,0:0:0:0:
372,310,66643,6,0,L|356:149,1,159.375,6|0,1:2|0:0,0:0:0:0:
367,118,67091,1,10,0:0:0:0:
303,23,67315,1,2,0:0:0:0:
303,23,67427,1,2,0:0:0:0:
249,146,67651,1,2,0:0:0:0:
182,32,67875,1,2,0:0:0:0:
182,32,67986,2,0,L|170:107,1,53.125,10|0,0:0|0:0,0:0:0:0:
83,141,68210,1,2,0:0:0:0:
88,264,68434,5,0,1:2:0:0:
145,331,68658,2,0,L|234:326,1,53.125,10|0,0:0|0:0,0:0:0:0:
238,342,68882,1,10,0:0:0:0:
238,342,68994,1,10,0:0:0:0:
346,358,69218,1,10,0:0:0:0:
346,358,69330,1,10,0:0:0:0:
443,291,69554,1,0,3:2:0:0:
443,291,69666,1,0,3:2:0:0:
443,291,69777,2,0,L|498:295,3,53.125,0|0|0|0,3:2|3:2|3:2|3:2,0:0:0:0:
490,219,70225,6,0,L|484:112,1,106.25,6|2,1:2|0:0,0:0:0:0:
417,19,70673,1,10,0:0:0:0:
318,69,70897,1,2,0:0:0:0:
318,69,71009,2,0,L|257:76,1,53.125,10|0,0:0|1:2,0:0:0:0:
183,59,71233,2,0,L|189:111,1,53.125,10|0,0:0|0:0,0:0:0:0:
175,189,71457,1,2,0:0:0:0:
175,189,71569,1,10,0:0:0:0:
61,159,71792,1,2,0:0:0:0:
18,272,72016,5,0,1:2:0:0:
102,343,72240,2,0,L|168:335,1,53.125,2|0,0:0|0:0,0:0:0:0:
238,349,72464,1,10,0:0:0:0:
238,349,72576,2,0,L|304:341,1,53.125,2|0,0:0|0:0,0:0:0:0:
366,360,72800,1,10,0:0:0:0:
436,269,73024,1,10,0:0:0:0:
390,168,73248,1,2,0:0:0:0:
390,168,73360,2,0,L|401:104,1,53.125,10|0,0:0|0:0,0:0:0:0:
316,105,73583,2,0,L|327:41,1,53.125,10|8,0:0|0:0,0:0:0:0:
242,158,73807,6,0,L|121:172,1,106.25,6|2,1:2|0:0,0:0:0:0:
50,257,74255,1,10,0:0:0:0:
126,334,74479,1,2,0:0:0:0:
126,334,74591,2,0,P|153:318|166:295,1,53.125,10|0,0:0|1:2,0:0:0:0:
263,347,74815,2,0,P|262:315|249:292,1,53.125,10|0,0:0|0:0,0:0:0:0:
209,233,75039,1,2,0:0:0:0:
209,233,75151,1,10,0:0:0:0:
330,238,75375,1,10,0:0:0:0:
330,238,75486,1,8,0:0:0:0:
330,238,75598,6,0,L|337:168,1,53.125,2|0,1:2|0:0,0:0:0:0:
374,108,75822,1,2,0:0:0:0:
374,108,75934,1,2,0:0:0:0:
374,108,76046,2,0,L|304:101,1,53.125,10|0,0:2|0:0,0:0:0:0:
271,37,76270,5,2,0:2:0:0:
271,37,76382,1,10,0:2:0:0:
271,37,76494,2,0,L|201:44,1,53.125,2|10,1:2|0:0,0:0:0:0:
145,53,76718,1,2,0:0:0:0:
76,140,76942,1,10,0:0:0:0:
171,208,77166,1,10,0:0:0:0:
171,208,77277,1,8,0:0:0:0:
171,208,77389,6,0,L|315:200,1,106.25,6|2,1:2|0:0,0:0:0:0:
339,280,77837,1,10,0:0:0:0:
260,351,78061,1,2,0:0:0:0:
260,351,78173,2,0,L|253:290,1,53.125,10|0,0:0|1:2,0:0:0:0:
174,370,78397,2,0,L|167:309,1,53.125,10|0,0:0|0:0,0:0:0:0:
101,285,78621,1,2,0:0:0:0:
101,285,78733,1,10,0:0:0:0:
145,187,78957,1,10,0:0:0:0:
22,159,79180,5,2,1:2:0:0:
22,159,79292,1,2,0:0:0:0:
22,159,79404,2,0,L|29:91,1,53.125,2|0,0:0|0:0,0:0:0:0:
120,97,79628,1,10,1:2:0:0:
120,97,79740,1,2,1:2:0:0:
120,97,79852,2,0,L|127:29,1,53.125,2|8,1:2|1:2,0:0:0:0:
221,84,80076,6,0,L|228:152,1,53.125,0|8,1:2|0:0,0:0:0:0:
308,204,80300,1,2,0:0:0:0:
308,204,80412,1,0,0:0:0:0:
308,204,80524,1,10,0:0:0:0:
405,150,80748,1,10,0:0:0:0:
405,150,80860,1,8,0:0:0:0:
405,150,80972,6,0,P|426:234|373:304,1,159.375,6|0,1:2|0:0,0:0:0:0:
364,317,81419,1,10,0:0:0:0:
290,367,81643,1,2,0:0:0:0:
290,367,81755,1,10,0:0:0:0:
241,269,81979,1,10,0:0:0:0:
159,355,82203,1,2,0:0:0:0:
159,355,82315,2,0,L|147:280,1,53.125,10|0,0:0|0:0,0:0:0:0:
142,263,82539,1,2,0:0:0:0:
89,178,82763,5,10,0:0:0:0:
126,92,82986,1,10,0:0:0:0:
212,129,83210,1,10,0:0:0:0:
273,58,83434,1,8,0:0:0:0:
359,94,83658,1,10,0:0:0:0:
351,186,83882,1,10,0:0:0:0:
261,206,84106,5,2,0:0:0:0:
391,332,84554,2,0,L|406:242,3,85,2|2|2|10,0:0|0:0|0:0|0:0,0:0:0:0:
