osu file format v14

[General]
AudioFilename: audio.mp3
AudioLeadIn: 0
PreviewTime: 55673
Countdown: 0
SampleSet: Soft
StackLeniency: 0.7
Mode: 0
LetterboxInBreaks: 0
WidescreenStoryboard: 1

[Editor]
Bookmarks: 2166,16494,30822,37986,45151,46942,55897,85897
DistanceSpacing: 1.4
BeatDivisor: 4
GridSize: 8
TimelineZoom: 1.5

[Metadata]
Title:Kantan na Koto
TitleUnicode:カンタンナコト
Artist:THE ORAL CIGARETTES
ArtistUnicode:THE ORAL CIGARETTES
Creator:Tanzeem
Version:Basen's Extra
Source:
Tags:Japanese J-Rock alternator ailv Basensorex Lewski Lewdski Before It's its Too Late Rock Fixion cut short ver version
BeatmapID:2152166
BeatmapSetID:1006793

[Difficulty]
HPDrainRate:5.2
CircleSize:4.2
OverallDifficulty:8.6
ApproachRate:9.2
SliderMultiplier:1.6
SliderTickRate:1

[Events]
//Background and Video events
0,0,"thumb.jpg",0,0
//Break Periods
//Storyboard Layer 0 (Background)
//Storyboard Layer 1 (Fail)
//Storyboard Layer 2 (Pass)
//Storyboard Layer 3 (Foreground)
//Storyboard Layer 4 (Overlay)
//Storyboard Sound Samples

[TimingPoints]
375,447.761194029851,4,2,1,50,1,0
2166,-76.9230769230769,4,2,1,75,0,0
16494,-100,4,2,1,60,0,0
27240,-83.3333333333333,4,2,1,60,0,0
28583,-76.9230769230769,4,2,1,60,0,0
29927,-76.9230769230769,4,2,1,70,0,0
30375,-76.9230769230769,4,2,1,60,0,0
30822,-76.9230769230769,4,2,1,75,0,0
37986,-100,4,2,1,55,0,0
45151,-76.9230769230769,4,2,1,75,0,0
46942,-76.9230769230769,4,2,1,60,0,0
52315,-76.9230769230769,4,2,1,70,0,0
55897,-66.6666666666667,4,2,1,80,0,1
82763,-66.6666666666667,4,2,1,85,0,1
84106,-66.6666666666667,4,2,1,70,0,0
85897,-66.6666666666667,4,2,1,80,0,0
86121,-66.6666666666667,4,2,1,5,0,0

[Colours]
Combo1 : 64,0,128
Combo2 : 36,126,200
Combo3 : 0,128,128
Combo4 : 0,128,0

[HitObjects]
75,105,375,5,4,2:1:0:0:
81,123,822,1,4,2:1:0:0:
87,141,1270,1,4,2:1:0:0:
93,159,1718,2,0,L|90:180,1,20,2|0,2:3|0:0,0:0:0:0:
178,338,2166,6,0,P|210:342|249:329,1,51.999997619629,6|0,1:2|0:0,0:0:0:0:
305,227,2389,2,0,P|274:239|247:270,1,51.999997619629,2|0,0:0|1:2,0:0:0:0:
330,321,2613,1,10,0:0:0:0:
458,235,2837,5,2,1:2:0:0:
458,235,2949,2,0,L|449:139,1,51.999997619629,2|0,0:0|1:2,0:0:0:0:
371,99,3173,1,2,0:0:0:0:
371,99,3285,2,0,L|362:194,1,51.999997619629,2|0,0:0|1:2,0:0:0:0:
432,312,3509,2,0,P|464:316|503:303,1,51.999997619629,10|0,0:0|0:0,0:0:0:0:
359,246,3733,2,0,P|328:258|301:289,1,51.999997619629,2|0,1:2|0:0,0:0:0:0:
173,354,3957,6,0,P|168:321|181:282,1,51.999997619629,2|0,1:2|0:0,0:0:0:0:
204,186,4180,2,0,P|223:212|232:252,1,51.999997619629,2|0,0:0|1:2,0:0:0:0:
256,327,4404,1,10,0:0:0:0:
71,300,4628,5,2,1:2:0:0:
71,300,4740,2,0,L|62:204,1,51.999997619629,2|0,0:0|1:2,0:0:0:0:
116,123,4964,1,2,0:0:0:0:
116,123,5076,2,0,L|107:218,1,51.999997619629,2|0,0:0|1:2,0:0:0:0:
87,37,5300,2,0,P|119:32|158:45,1,51.999997619629,10|0,0:0|0:0,0:0:0:0:
245,127,5524,2,0,P|214:114|187:83,1,51.999997619629,2|0,1:2|0:0,0:0:0:0:
375,75,5748,6,0,P|342:70|303:83,1,51.999997619629,2|0,1:2|0:0,0:0:0:0:
404,175,5972,2,0,P|434:162|461:131,1,51.999997619629,2|0,0:0|1:2,0:0:0:0:
478,52,6195,1,10,0:0:0:0:
311,173,6419,5,2,1:2:0:0:
311,173,6531,2,0,L|302:268,1,51.999997619629,2|0,0:0|1:2,0:0:0:0:
429,313,6755,1,2,0:0:0:0:
429,313,6867,2,0,L|420:217,1,51.999997619629,2|0,0:0|1:2,0:0:0:0:
219,206,7091,2,0,P|214:238|227:277,1,51.999997619629,10|0,0:0|0:0,0:0:0:0:
321,356,7315,2,0,P|308:325|277:298,1,51.999997619629,2|0,1:2|0:0,0:0:0:0:
143,316,7539,6,0,P|110:320|71:307,1,51.999997619629,2|0,1:2|0:0,0:0:0:0:
243,117,7763,2,0,P|273:129|300:160,1,51.999997619629,2|0,0:0|1:2,0:0:0:0:
57,225,7986,2,0,P|37:198|28:158,1,51.999997619629,10|0,0:0|0:0,0:0:0:0:
292,230,8210,6,0,L|283:325,1,51.999997619629,2|0,1:2|0:0,0:0:0:0:
96,368,8434,2,0,L|87:273,1,51.999997619629,2|0,1:2|0:0,0:0:0:0:
306,220,8658,2,0,L|297:315,1,51.999997619629,2|0,0:0|1:2,0:0:0:0:
84,378,8882,2,0,L|75:283,1,51.999997619629,10|0,0:0|0:0,0:0:0:0:
366,160,9106,1,8,0:0:0:0:
390,239,9218,1,8,0:0:0:0:
422,315,9330,6,0,P|454:319|493:306,1,51.999997619629,6|0,1:2|0:0,0:0:0:0:
301,271,9554,2,0,P|270:284|243:314,1,51.999997619629,2|0,0:0|1:2,0:0:0:0:
329,382,9777,1,10,0:0:0:0:
473,232,10001,5,2,1:2:0:0:
473,232,10113,2,0,L|464:137,1,51.999997619629,2|0,0:0|1:2,0:0:0:0:
370,108,10337,1,2,0:0:0:0:
370,108,10449,2,0,L|361:203,1,51.999997619629,2|0,0:0|1:2,0:0:0:0:
391,22,10673,2,0,P|365:18|339:22,1,51.999997619629,10|0,0:0|0:0,0:0:0:0:
239,118,10897,2,0,P|263:108|283:91,1,51.999997619629,2|0,1:2|0:0,0:0:0:0:
137,198,11121,6,0,P|162:194|188:198,1,51.999997619629,2|0,1:2|0:0,0:0:0:0:
293,299,11345,2,0,P|268:289|248:272,1,51.999997619629,2|0,0:0|1:2,0:0:0:0:
287,187,11569,1,10,0:0:0:0:
442,313,11792,5,2,1:2:0:0:
442,313,11904,2,0,L|347:304,1,51.999997619629,2|0,0:0|1:2,0:0:0:0:
392,203,12128,1,2,0:0:0:0:
392,203,12240,2,0,L|487:194,1,51.999997619629,2|0,0:0|1:2,0:0:0:0:
287,187,12464,2,0,P|283:161|287:135,1,51.999997619629,10|0,0:0|0:0,0:0:0:0:
398,69,12688,2,0,P|388:93|371:113,1,51.999997619629,2|0,1:2|0:0,0:0:0:0:
193,216,12912,6,0,P|196:190|192:164,1,51.999997619629,2|0,1:2|0:0,0:0:0:0:
81,77,13136,2,0,P|90:101|107:121,1,51.999997619629,2|0,0:0|1:2,0:0:0:0:
197,68,13360,1,10,0:0:0:0:
53,219,13583,5,2,1:2:0:0:
53,219,13695,2,0,L|148:228,1,51.999997619629,2|0,0:0|1:2,0:0:0:0:
244,159,13919,1,2,0:0:0:0:
244,159,14031,2,0,L|149:168,1,51.999997619629,2|0,0:0|1:2,0:0:0:0:
168,298,14255,2,0,P|193:301|219:297,1,51.999997619629,10|0,0:0|0:0,0:0:0:0:
344,207,14479,2,0,P|319:216|299:233,1,51.999997619629,2|0,1:2|0:0,0:0:0:0:
438,299,14703,6,0,P|412:303|386:299,1,51.999997619629,2|0,1:2|0:0,0:0:0:0:
363,122,14927,2,0,P|387:131|407:147,1,51.999997619629,2|0,0:0|1:2,0:0:0:0:
326,366,15151,2,0,P|309:345|299:321,1,51.999997619629,10|0,0:0|0:0,0:0:0:0:
511,213,15375,6,0,L|459:217,1,51.999997619629,2|0,1:2|0:0,0:0:0:0:
206,127,15598,2,0,L|257:131,1,51.999997619629,2|0,1:2|0:0,0:0:0:0:
326,366,15822,5,10,0:0:0:0:
242,356,15934,1,8,0:0:0:0:
191,290,16046,1,10,0:0:0:0:
200,206,16158,1,8,0:0:0:0:
264,153,16270,1,8,0:0:0:0:
348,164,16382,1,8,0:0:0:0:
394,238,16494,6,0,P|442:244|500:224,1,80,6|0,1:2|0:0,0:0:0:0:
307,311,16830,1,2,1:2:0:0:
307,311,16942,2,0,P|335:307|371:319,1,40,8|2,0:0|0:0,0:0:0:0:
247,243,17166,2,0,P|218:239|182:251,1,40,2|2,1:2|0:0,0:0:0:0:
148,306,17389,1,2,1:2:0:0:
148,306,17501,1,2,0:0:0:0:
148,306,17613,2,0,L|153:369,1,40,2|2,0:0|1:2,0:0:0:0:
256,252,17837,1,10,0:2:0:0:
256,252,17949,1,2,0:0:0:0:
256,252,18061,2,0,L|261:188,1,40,2|2,1:2|0:0,0:0:0:0:
365,129,18285,6,0,L|370:192,1,40,2|0,1:2|0:0,0:0:0:0:
178,189,18509,2,0,L|183:125,1,40,2|0,0:0|1:2,0:0:0:0:
381,117,18733,2,0,L|386:180,1,40,10|0,0:0|0:0,0:0:0:0:
163,198,18957,2,0,L|168:134,1,40,2|0,1:2|0:0,0:0:0:0:
229,70,19180,1,2,1:2:0:0:
244,272,19404,1,2,0:0:0:0:
244,272,19516,1,0,1:2:0:0:
244,272,19628,2,0,P|216:276|180:264,1,40,10|0,0:0|0:0,0:0:0:0:
246,188,19852,1,2,1:2:0:0:
18,250,20076,6,0,B|13:304|13:304|21:332,1,80,2|0,1:2|0:0,0:0:0:0:
95,169,20412,1,2,1:2:0:0:
95,169,20524,2,0,L|100:232,1,40,10|2,0:0|0:0,0:0:0:0:
117,90,20748,2,0,P|88:86|52:98,1,40,2|0,1:2|0:0,0:0:0:0:
179,160,20972,2,0,P|208:164|244:152,1,40,2|2,1:2|0:0,0:0:0:0:
192,40,21195,1,2,0:0:0:0:
192,40,21307,1,2,1:2:0:0:
192,40,21419,2,0,L|197:103,1,40,10|0,0:0|0:0,0:0:0:0:
310,162,21643,1,2,1:2:0:0:
310,162,21755,1,2,0:0:0:0:
310,162,21867,6,0,L|316:99,1,40,2|0,1:2|0:0,0:0:0:0:
425,51,22091,1,2,0:0:0:0:
425,51,22203,1,0,1:2:0:0:
425,51,22315,2,0,P|454:47|490:59,1,40,10|2,0:0|0:0,0:0:0:0:
437,162,22539,2,0,P|408:166|372:154,1,40,2|2,1:2|0:0,0:0:0:0:
292,146,22763,2,0,L|288:106,1,40,2|2,1:2|0:0,0:0:0:0:
454,182,22986,1,2,0:0:0:0:
454,182,23098,1,2,1:2:0:0:
454,182,23210,2,0,L|450:221,1,40,10|0,0:0|0:0,0:0:0:0:
442,320,23434,1,2,1:2:0:0:
229,210,23658,6,0,P|191:201|151:203,1,80,6|0,1:2|0:0,0:0:0:0:
99,293,23994,1,2,1:2:0:0:
99,293,24106,2,0,P|126:286|163:295,1,40,8|2,0:0|0:0,0:0:0:0:
237,191,24330,2,0,P|218:184|198:183,1,40,2|2,1:2|0:0,0:0:0:0:
310,297,24554,1,2,1:2:0:0:
310,297,24666,1,2,0:0:0:0:
310,297,24777,2,0,L|314:241,1,40,2|2,0:0|1:2,0:0:0:0:
328,160,25001,1,10,0:0:0:0:
197,265,25225,1,0,1:2:0:0:
390,222,25449,6,0,P|417:215|454:224,1,40,2|0,1:2|0:0,0:0:0:0:
325,355,25673,1,2,0:0:0:0:
325,355,25785,1,2,1:2:0:0:
325,355,25897,2,0,L|319:291,1,40,10|0,0:0|0:0,0:0:0:0:
463,291,26121,2,0,L|457:354,1,40,2|0,1:2|0:0,0:0:0:0:
260,263,26345,2,0,L|266:199,1,40,2|2,1:2|0:0,0:0:0:0:
334,139,26569,1,2,0:0:0:0:
334,139,26680,1,2,1:2:0:0:
334,139,26792,2,0,P|361:132|398:141,1,40,10|2,0:0|0:0,0:0:0:0:
268,272,27016,1,2,1:2:0:0:
268,272,27128,1,2,0:0:0:0:
268,272,27240,6,0,B|317:278|317:278|364:272,1,95.9999970703126,2|0,1:2|0:0,0:0:0:0:
192,159,27576,1,2,1:2:0:0:
192,159,27688,2,0,L|113:166,1,47.9999985351563,8|0,0:0|0:0,0:0:0:0:
240,45,27912,6,0,P|291:74|307:134,1,95.9999970703126,2|0,1:2|1:2,0:0:0:0:
176,204,28248,2,0,P|199:148|218:128,1,47.9999985351563,2|0,0:0|0:0,0:0:0:0:
403,78,28472,1,0,1:2:0:0:
403,78,28583,6,0,B|335:76|368:104|302:106,1,103.999995239258,10|2,0:0|1:2,0:0:0:0:
462,247,28919,2,0,P|470:188|457:136,1,103.999995239258,2|0,0:0|0:0,0:0:0:0:
349,220,29255,5,2,1:2:0:0:
349,220,29367,1,0,1:2:0:0:
349,220,29479,2,0,P|375:182|373:225,1,103.999995239258,8|0,0:0|0:0,0:0:0:0:
205,354,29927,5,10,0:0:0:0:
294,29,30151,1,10,0:0:0:0:
293,46,30822,6,0,P|261:42|222:55,1,51.999997619629,6|0,1:2|0:0,0:0:0:0:
176,162,31046,2,0,P|205:149|232:118,1,51.999997619629,2|0,0:0|1:2,0:0:0:0:
88,120,31270,1,10,0:0:0:0:
273,218,31494,5,2,1:2:0:0:
273,218,31606,2,0,L|344:211,1,51.999997619629,2|0,0:0|1:2,0:0:0:0:
417,119,31830,1,2,0:0:0:0:
417,119,31942,2,0,L|345:112,1,51.999997619629,2|0,0:0|1:2,0:0:0:0:
186,190,32166,2,0,P|182:222|195:261,1,51.999997619629,10|0,0:0|0:0,0:0:0:0:
254,112,32389,2,0,P|241:82|210:55,1,51.999997619629,2|0,1:2|0:0,0:0:0:0:
95,150,32613,6,0,P|91:124|95:98,1,51.999997619629,2|0,1:2|0:0,0:0:0:0:
186,190,32837,2,0,P|176:214|160:234,1,51.999997619629,2|0,0:0|1:2,0:0:0:0:
18,209,33061,1,10,0:0:0:0:
181,138,33285,5,2,1:2:0:0:
181,138,33397,2,0,L|187:209,1,51.999997619629,2|0,0:0|1:2,0:0:0:0:
78,307,33621,1,2,0:0:0:0:
78,307,33733,2,0,L|84:235,1,51.999997619629,2|0,0:0|1:2,0:0:0:0:
231,294,33957,2,0,P|205:297|179:293,1,51.999997619629,10|0,0:0|0:0,0:0:0:0:
293,203,34180,2,0,P|317:212|337:228,1,51.999997619629,2|0,1:2|0:0,0:0:0:0:
438,131,34404,6,0,P|412:127|386:131,1,51.999997619629,2|0,1:2|0:0,0:0:0:0:
430,262,34628,2,0,P|454:252|474:236,1,51.999997619629,2|0,0:0|1:2,0:0:0:0:
337,228,34852,1,10,0:0:0:0:
434,313,35076,5,2,1:2:0:0:
434,313,35188,2,0,L|427:241,1,51.999997619629,2|0,0:0|1:2,0:0:0:0:
241,210,35412,1,2,0:0:0:0:
241,210,35524,2,0,L|234:281,1,51.999997619629,2|0,0:0|1:2,0:0:0:0:
360,143,35748,2,0,P|334:139|308:143,1,51.999997619629,10|0,0:0|0:0,0:0:0:0:
444,174,35972,2,0,P|468:164|488:148,1,51.999997619629,2|0,1:2|0:0,0:0:0:0:
217,123,36195,6,0,P|213:97|217:72,1,51.999997619629,2|0,1:2|0:0,0:0:0:0:
406,18,36419,2,0,P|422:38|432:63,1,51.999997619629,2|0,0:0|1:2,0:0:0:0:
198,209,36643,2,0,P|174:200|154:184,1,51.999997619629,10|0,0:0|0:0,0:0:0:0:
430,152,36867,6,0,L|423:223,1,51.999997619629,2|0,1:2|0:0,0:0:0:0:
214,348,37091,2,0,L|207:276,1,51.999997619629,2|0,1:2|0:0,0:0:0:0:
421,10,37315,5,10,0:0:0:0:
484,65,37427,1,8,0:0:0:0:
511,144,37539,1,10,0:0:0:0:
506,228,37651,1,8,0:0:0:0:
461,298,37763,1,8,0:0:0:0:
386,334,37875,1,8,0:0:0:0:
303,314,37986,6,0,B|381:318|336:358|429:365,2,120,6|0|2,1:2|1:2|1:2,0:0:0:0:
198,274,38882,2,0,P|134:294|78:261,1,120,8|2,0:0|0:0,0:0:0:0:
264,192,39330,2,0,P|275:241|275:255,1,40,2|2,0:0|0:0,0:0:0:0:
38,203,39554,2,0,P|53:155|60:142,1,40,2|2,0:0|0:0,0:0:0:0:
224,101,39777,6,0,B|168:82|168:82|111:104,2,120,2|0|2,1:2|1:2|1:2,0:0:0:0:
176,225,40673,2,0,L|169:153,1,40,10|0,0:0|0:0,0:0:0:0:
152,0,40897,5,2,3:2:0:0:
5,101,41121,1,2,3:2:0:0:
39,226,41345,1,2,3:2:0:0:
172,185,41569,6,0,P|159:245|165:325,2,120,6|0|2,1:2|1:2|1:2,0:0:0:0:
306,241,42464,2,0,P|250:246|261:229,1,120,8|2,0:0|0:0,0:0:0:0:
338,351,42912,2,0,P|320:357|300:361,1,40,2|2,0:0|0:0,0:0:0:0:
308,157,43136,2,0,P|328:160|347:167,1,40,2|2,0:0|0:0,0:0:0:0:
432,323,43360,6,0,B|435:277|435:277|428:246|428:246|436:178,2,120,2|0|2,1:2|1:2|1:2,0:0:0:0:
349,126,44255,2,0,L|342:197,1,40,10|2,0:0|0:0,0:0:0:0:
333,309,44479,5,2,3:2:0:0:
480,208,44703,1,2,3:2:0:0:
472,73,44927,1,2,3:2:0:0:
333,309,45151,5,10,1:2:0:0:
325,227,45263,1,8,1:2:0:0:
318,144,45375,1,8,1:2:0:0:
309,62,45486,1,10,1:2:0:0:
333,309,45710,5,10,0:0:0:0:
250,302,45822,1,10,0:0:0:0:
191,242,45934,1,10,0:0:0:0:
108,235,46046,2,0,L|36:229,1,51.999997619629,10|10,1:2|0:0,0:0:0:0:
233,113,46270,2,0,L|161:118,1,51.999997619629,10|8,0:0|0:0,0:0:0:0:
325,227,46494,1,6,1:2:0:0:
325,243,46942,6,0,P|350:246|376:242,1,51.999997619629,6|2,1:2|0:0,0:0:0:0:
400,127,47166,1,2,0:0:0:0:
400,127,47277,1,2,1:2:0:0:
400,127,47389,2,0,P|375:136|355:152,1,51.999997619629,10|0,0:0|0:0,0:0:0:0:
471,243,47613,6,0,L|464:163,1,51.999997619629,2|0,1:2|0:0,0:0:0:0:
272,117,47837,2,0,L|265:196,1,51.999997619629,2|0,1:2|0:0,0:0:0:0:
493,103,48061,1,2,0:0:0:0:
493,103,48173,1,0,1:2:0:0:
493,103,48285,2,0,L|486:23,1,51.999997619629,10|2,0:0|0:0,0:0:0:0:
367,164,48509,2,0,L|360:243,1,51.999997619629,2|0,1:2|0:0,0:0:0:0:
289,363,48733,6,0,P|280:311|281:259,1,103.999995239258,2|0,1:2|0:0,0:0:0:0:
424,283,49069,1,2,1:2:0:0:
424,283,49180,2,0,P|369:307|340:307,1,51.999997619629,8|0,0:0|0:0,0:0:0:0:
281,242,49404,6,0,B|227:231|227:231|170:246,1,103.999995239258,2|0,1:2|1:2,0:0:0:0:
131,337,49740,2,0,L|210:343,1,51.999997619629,2|0,0:0|0:0,0:0:0:0:
85,201,49964,1,0,1:2:0:0:
85,201,50076,6,0,P|125:154|197:150,1,103.999995239258,10|0,0:0|0:0,0:0:0:0:
227,242,50412,1,2,0:0:0:0:
227,242,50524,2,0,P|168:240|142:227,1,51.999997619629,8|0,0:0|0:0,0:0:0:0:
278,143,50748,2,0,P|299:152|322:170,1,51.999997619629,10|0,0:0|0:0,0:0:0:0:
403,241,50972,1,10,0:0:0:0:
413,159,51083,2,0,L|420:88,1,51.999997619629,8|2,0:0|0:0,0:0:0:0:
367,321,51307,1,8,0:0:0:0:
450,316,51419,2,0,L|510:309,3,51.999997619629,10|0|2|0,0:0|3:2|0:0|3:2,0:0:0:0:
247,240,51867,5,10,0:0:0:0:
234,253,52315,6,0,B|134:259|193:313|69:308,1,155.999992858887,10|0,0:0|0:0,0:0:0:0:
172,131,52763,2,0,P|241:209|209:284,1,155.999992858887,10|0,0:0|0:0,0:0:0:0:
31,164,53210,2,0,B|64:129|64:129|179:131,1,155.999992858887,10|0,0:0|0:0,0:0:0:0:
12,315,53658,2,0,B|10:254|10:254|27:227|27:227|30:153,1,155.999992858887,10|0,0:0|0:0,0:0:0:0:
264,152,54106,6,0,L|261:101,1,51.999997619629,10|0,0:0|0:0,0:0:0:0:
111,209,54330,2,0,L|108:261,1,51.999997619629,10|0,0:0|0:0,0:0:0:0:
336,265,54554,2,0,L|333:214,1,51.999997619629,10|0,0:0|0:0,0:0:0:0:
42,323,54777,2,0,L|39:375,1,51.999997619629,10|0,0:0|0:0,0:0:0:0:
217,326,55001,5,10,0:0:0:0:
243,246,55113,1,0,3:2:0:0:
215,167,55225,1,0,3:2:0:0:
150,114,55337,1,0,3:2:0:0:
66,108,55449,5,10,0:0:0:0:
68,91,55897,6,0,B|196:88|131:152|256:151,1,180.000006866455,6|0,1:2|0:0,0:0:0:0:
274,19,56345,2,0,P|231:74|227:89,1,60.0000022888184,10|0,0:0|0:0,0:0:0:0:
293,216,56569,1,2,0:0:0:0:
363,148,56680,2,0,P|308:105|293:101,1,60.0000022888184,2|0,0:0|1:2,0:0:0:0:
315,307,56904,2,0,P|379:280|390:269,1,60.0000022888184,2|0,0:0|0:0,0:0:0:0:
201,237,57128,1,2,0:0:0:0:
135,299,57240,2,0,L|142:386,1,60.0000022888184,10|0,0:0|0:0,0:0:0:0:
293,216,57464,2,0,L|299:151,1,60.0000022888184,2|0,0:0|0:0,0:0:0:0:
259,74,57688,5,2,1:2:0:0:
192,45,57800,1,2,0:0:0:0:
120,53,57912,1,2,0:0:0:0:
67,101,58024,1,0,0:0:0:0:
50,171,58136,6,0,L|67:272,1,60.0000022888184,10|2,0:0|0:0,0:0:0:0:
137,311,58360,1,2,0:0:0:0:
137,311,58472,2,0,L|154:210,1,60.0000022888184,10|2,0:0|1:2,0:0:0:0:
224,170,58695,2,0,L|247:305,1,120.000004577637,8|2,0:0|0:0,0:0:0:0:
335,316,59031,2,0,L|352:215,1,60.0000022888184,10|0,0:0|0:0,0:0:0:0:
360,173,59255,1,10,0:0:0:0:
374,90,59367,1,8,0:0:0:0:
465,21,59479,6,0,B|480:61|480:61|456:209,1,180.000006866455,6|0,1:2|0:0,0:0:0:0:
278,107,59927,2,0,P|279:77|288:48,1,60.0000022888184,10|0,0:0|0:0,0:0:0:0:
368,186,60151,1,2,0:0:0:0:
283,227,60263,2,0,P|253:231|223:227,1,60.0000022888184,2|0,0:0|1:2,0:0:0:0:
458,196,60486,2,0,P|462:225|458:255,1,60.0000022888184,2|0,0:0|0:0,0:0:0:0:
261,314,60710,1,2,0:0:0:0:
223,227,60822,2,0,L|205:140,1,60.0000022888184,10|0,0:0|0:0,0:0:0:0:
382,228,61046,2,0,L|374:315,1,60.0000022888184,2|0,0:0|0:0,0:0:0:0:
295,328,61270,5,2,1:2:0:0:
223,333,61382,1,2,0:0:0:0:
156,306,61494,1,2,0:0:0:0:
122,242,61606,1,2,0:0:0:0:
125,168,61718,6,0,L|133:81,1,60.0000022888184,10|2,0:0|0:0,0:0:0:0:
221,35,61942,1,2,0:0:0:0:
221,35,62054,2,0,L|229:122,1,60.0000022888184,10|2,0:0|1:2,0:0:0:0:
47,103,62277,2,0,P|70:50|123:24,1,120.000004577637,10|2,0:0|0:0,0:0:0:0:
270,169,62613,2,0,P|240:177|211:180,1,60.0000022888184,10|0,0:2|0:0,0:0:0:0:
125,168,62837,1,10,0:0:0:0:
61,112,62949,1,10,0:0:0:0:
91,264,63061,6,0,B|155:253|155:253|195:275|195:275|270:264,1,180.000006866455,6|0,1:2|0:0,0:0:0:0:
229,127,63509,2,0,P|216:153|210:183,1,60.0000022888184,10|0,0:0|0:0,0:0:0:0:
361,285,63733,1,2,0:0:0:0:
434,215,63845,2,0,P|432:185|422:157,1,60.0000022888184,2|0,0:0|1:2,0:0:0:0:
263,264,64069,2,0,P|259:292|264:323,1,60.0000022888184,2|0,0:0|0:0,0:0:0:0:
324,138,64292,1,2,0:0:0:0:
229,127,64404,2,0,L|141:134,1,60.0000022888184,10|0,0:0|0:0,0:0:0:0:
102,238,64628,2,0,L|161:243,1,60.0000022888184,2|0,0:0|0:0,0:0:0:0:
252,251,64852,5,2,1:2:0:0:
311,210,64964,1,2,0:0:0:0:
324,138,65076,1,2,0:0:0:0:
314,66,65188,1,2,0:0:0:0:
262,15,65300,6,0,L|161:32,1,60.0000022888184,10|2,0:0|0:0,0:0:0:0:
122,102,65524,1,0,0:0:0:0:
122,102,65636,2,0,L|223:119,1,60.0000022888184,10|2,0:0|1:2,0:0:0:0:
263,189,65860,2,0,L|128:212,1,120.000004577637,8|2,0:0|0:0,0:0:0:0:
117,300,66195,2,0,L|218:317,1,60.0000022888184,10|0,0:0|0:0,0:0:0:0:
259,323,66419,1,10,0:0:0:0:
334,286,66531,1,8,0:0:0:0:
418,286,66643,6,0,P|396:342|343:372,1,120.000004577637,6|2,1:2|0:0,0:0:0:0:
403,140,67091,2,0,P|432:139|462:144,1,60.0000022888184,10|0,0:0|0:0,0:0:0:0:
263,236,67315,1,2,0:0:0:0:
263,236,67427,2,0,L|257:132,1,60.0000022888184,2|0,0:0|1:2,0:0:0:0:
403,140,67651,2,0,L|397:244,1,60.0000022888184,2|0,0:0|0:0,0:0:0:0:
282,323,67875,1,2,0:0:0:0:
282,323,67986,2,0,P|253:324|223:318,1,60.0000022888184,10|0,0:0|0:0,0:0:0:0:
259,176,68210,2,0,P|288:169|318:170,1,60.0000022888184,2|0,0:0|0:0,0:0:0:0:
398,282,68434,1,0,1:2:0:0:
77,216,68658,5,10,0:0:0:0:
259,176,68882,1,10,0:0:0:0:
220,101,68994,2,0,L|140:107,1,60.0000022888184,10|0,0:0|0:0,0:0:0:0:
77,216,69218,1,10,0:0:0:0:
116,291,69330,2,0,L|195:284,1,60.0000022888184,10|0,0:0|0:0,0:0:0:0:
259,278,69554,5,0,3:2:0:0:
336,264,69666,1,0,3:2:0:0:
405,279,69777,1,0,3:2:0:0:
456,248,69889,1,0,3:2:0:0:
457,200,70001,1,0,3:2:0:0:
434,171,70113,1,0,3:2:0:0:
336,264,70225,6,0,P|253:237|229:154,1,180.000006866455,6|0,1:2|0:0,0:0:0:0:
369,127,70673,2,0,P|352:152|330:171,1,60.0000022888184,10|0,0:0|0:0,0:0:0:0:
272,64,70897,1,2,0:0:0:0:
365,32,71009,2,0,P|394:33|423:43,1,60.0000022888184,10|0,0:0|1:2,0:0:0:0:
228,154,71233,2,0,P|198:152|169:142,1,60.0000022888184,10|0,0:0|0:0,0:0:0:0:
369,127,71457,1,2,0:0:0:0:
413,215,71569,2,0,L|403:292,1,60.0000022888184,10|0,0:0|0:0,0:0:0:0:
295,321,71792,2,0,L|285:244,1,60.0000022888184,2|0,0:0|0:0,0:0:0:0:
228,154,72016,5,0,1:2:0:0:
197,326,72240,2,0,P|205:354|222:379,1,60.0000022888184,2|0,0:0|0:0,0:0:0:0:
421,350,72464,1,10,0:0:0:0:
353,310,72576,2,0,P|323:310|295:320,1,60.0000022888184,2|0,0:0|0:0,0:0:0:0:
493,319,72800,2,0,L|503:239,1,60.0000022888184,10|0,0:0|0:0,0:0:0:0:
331,132,73024,2,0,L|341:212,1,60.0000022888184,10|0,0:0|0:0,0:0:0:0:
466,116,73248,1,2,0:0:0:0:
466,116,73360,2,0,P|456:86|439:61,1,60.0000022888184,10|0,0:0|0:0,0:0:0:0:
372,12,73583,1,10,0:0:0:0:
288,18,73695,1,8,0:0:0:0:
195,86,73807,6,0,B|234:48|234:48|362:37,1,180.000006866455,6|0,1:2|0:0,0:0:0:0:
136,165,74255,2,0,P|113:145|96:119,1,60.0000022888184,10|0,0:0|0:0,0:0:0:0:
228,152,74479,1,2,0:0:0:0:
194,237,74591,2,0,P|167:251|139:256,1,60.0000022888184,10|0,0:0|1:2,0:0:0:0:
312,111,74815,2,0,P|341:111|369:121,1,60.0000022888184,10|0,0:0|0:0,0:0:0:0:
443,231,75039,1,2,0:0:0:0:
353,250,75151,2,0,L|277:235,1,60.0000022888184,10|0,0:0|0:0,0:0:0:0:
237,175,75375,1,10,0:0:0:0:
273,99,75486,1,8,0:0:0:0:
443,231,75598,5,2,1:2:0:0:
386,275,75710,1,0,0:0:0:0:
316,295,75822,1,2,0:0:0:0:
244,284,75934,1,2,0:0:0:0:
190,236,76046,6,0,L|202:158,1,60.0000022888184,10|0,0:2|0:0,0:0:0:0:
346,84,76270,1,2,0:2:0:0:
346,84,76382,2,0,L|358:162,1,60.0000022888184,10|2,0:2|1:2,0:0:0:0:
108,182,76606,2,0,P|121:125|169:91,1,120.000004577637,10|2,0:0|0:0,0:0:0:0:
449,152,76942,2,0,P|443:181|429:208,1,60.0000022888184,10|0,0:0|0:0,0:0:0:0:
346,226,77166,1,10,0:0:0:0:
275,181,77277,1,8,0:0:0:0:
181,253,77389,6,0,B|138:309|178:375|178:375|173:338|193:316,1,180.000006866455,6|0,1:2|0:0,0:0:0:0:
150,170,77837,2,0,P|125:186|105:209,1,60.0000022888184,10|0,0:0|0:0,0:0:0:0:
275,181,78061,1,2,0:0:0:0:
306,95,78173,2,0,P|304:64|294:36,1,60.0000022888184,10|0,0:0|1:2,0:0:0:0:
203,246,78397,2,0,P|227:263|253:273,1,60.0000022888184,10|0,0:0|0:0,0:0:0:0:
198,45,78621,1,2,0:0:0:0:
129,105,78733,2,0,L|122:178,1,60.0000022888184,10|0,0:0|0:0,0:0:0:0:
115,249,78957,1,10,0:0:0:0:
160,321,79069,1,8,0:0:0:0:
388,247,79180,5,2,1:2:0:0:
324,213,79292,1,2,0:0:0:0:
252,217,79404,1,2,0:0:0:0:
191,256,79516,1,0,0:0:0:0:
160,321,79628,6,0,L|231:340,1,60.0000022888184,10|2,1:2|1:2,0:0:0:0:
105,244,79852,1,2,1:2:0:0:
105,244,79964,2,0,L|34:260,1,60.0000022888184,8|0,1:2|1:2,0:0:0:0:
302,320,80188,2,0,P|314:263|285:212,1,120.000004577637,8|0,0:0|0:0,0:0:0:0:
110,185,80524,2,0,P|103:214|104:244,1,60.0000022888184,10|0,0:0|0:0,0:0:0:0:
148,316,80748,1,10,0:0:0:0:
227,343,80860,1,8,0:0:0:0:
301,303,80972,6,0,B|430:317|341:373|483:380,1,180.000006866455,6|0,1:2|0:0,0:0:0:0:
227,343,81419,2,0,P|215:314|211:285,1,60.0000022888184,10|0,0:0|0:0,0:0:0:0:
330,230,81643,1,2,0:0:0:0:
330,230,81755,2,0,P|328:259|319:288,1,60.0000022888184,10|0,0:0|1:2,0:0:0:0:
134,301,81979,2,0,P|135:269|144:241,1,60.0000022888184,10|0,0:0|0:0,0:0:0:0:
245,175,82203,1,2,0:0:0:0:
245,175,82315,2,0,L|249:235,1,60.0000022888184,10|0,0:0|0:0,0:0:0:0:
53,265,82539,2,0,L|64:204,1,60.0000022888184,2|0,0:0|0:0,0:0:0:0:
316,32,82763,6,0,B|342:27|342:27|374:38,1,60.0000022888184,10|0,0:0|0:0,0:0:0:0:
193,36,82986,2,0,B|168:40|168:40|136:29,1,60.0000022888184,10|0,0:0|0:0,0:0:0:0:
377,135,83210,2,0,B|403:130|403:130|435:141,1,60.0000022888184,10|2,0:0|0:0,0:0:0:0:
134,141,83434,2,0,B|109:145|109:145|77:134,1,60.0000022888184,8|2,0:0|0:0,0:0:0:0:
436,236,83658,2,0,B|462:231|462:231|494:242,1,60.0000022888184,10|0,0:0|0:0,0:0:0:0:
66,245,83882,2,0,B|41:249|41:249|9:238,1,60.0000022888184,10|0,0:0|0:0,0:0:0:0:
255,176,84106,5,2,0:0:0:0:
255,195,84554,1,2,0:0:0:0:
255,214,85001,1,2,0:0:0:0:
255,233,85449,1,2,0:0:0:0:
258,43,85897,6,0,B|258:13,1,30.0000011444092,10|0,0:0|0:0,0:0:0:0:
