osu file format v14

[General]
AudioFilename: audio.mp3
AudioLeadIn: 0
PreviewTime: 55492
Countdown: 0
SampleSet: Normal
StackLeniency: 0.7
Mode: 1
LetterboxInBreaks: 0
WidescreenStoryboard: 0

[Editor]
DistanceSpacing: 0.8
BeatDivisor: 4
GridSize: 32
TimelineZoom: 1.3

[Metadata]
Title:Kantan na Koto
TitleUnicode:カンタンナコト
Artist:THE ORAL CIGARETTES
ArtistUnicode:THE ORAL CIGARETTES
Creator:Chiswell
Version:Peaceful's Kantan
Source:
Tags:japanese rock j-rock a-sketch metalstream peaceful hoshikuz wzxxzw
BeatmapID:2228300
BeatmapSetID:1063938

[Difficulty]
HPDrainRate:8
CircleSize:5
OverallDifficulty:3
ApproachRate:5
SliderMultiplier:1.4
SliderTickRate:1

[Events]
//Background and Video events
0,0,"bg.png",0,0
//Break Periods
//Storyboard Layer 0 (Background)
//Storyboard Layer 1 (Fail)
//Storyboard Layer 2 (Pass)
//Storyboard Layer 3 (Foreground)
//Storyboard Layer 4 (Overlay)
//Storyboard Sound Samples

[TimingPoints]
1873,447.761194029851,4,1,0,60,1,0
55604,-100,4,1,0,70,0,1
69261,-100,4,1,0,60,0,0
100380,-100,4,1,0,70,0,1
114708,-100,4,1,0,60,0,0
179186,-100,4,1,0,70,0,1
193514,-100,4,1,0,60,0,0
209186,-100,4,1,0,70,0,0

[HitObjects]
256,192,1873,5,4,0:0:0:0:
465,276,2768,1,8,0:0:0:0:
281,152,3664,1,0,0:0:0:0:
271,95,4559,1,8,0:0:0:0:
282,150,5455,1,0,0:0:0:0:
335,365,6350,1,8,0:0:0:0:
308,254,7246,1,0,0:0:0:0:
256,192,9037,5,4,0:0:0:0:
465,276,9932,1,8,0:0:0:0:
281,152,10828,1,0,0:0:0:0:
270,117,11723,1,8,0:0:0:0:
282,150,12619,1,0,0:0:0:0:
352,254,13514,1,8,0:0:0:0:
308,254,14410,1,0,0:0:0:0:
223,207,16201,5,4,0:0:0:0:
436,134,17096,1,0,0:0:0:0:
203,106,17992,1,8,0:0:0:0:
205,103,19783,1,0,0:0:0:0:
170,329,20678,1,0,0:0:0:0:
196,100,21574,1,8,0:0:0:0:
223,207,23365,5,4,0:0:0:0:
436,134,24260,1,0,0:0:0:0:
203,106,25156,1,8,0:0:0:0:
202,103,26947,1,0,0:0:0:0:
170,329,27619,1,0,0:0:0:0:
245,160,28290,1,0,0:0:0:0:
196,100,29186,1,8,0:0:0:0:
256,192,30529,5,4,0:0:0:0:
465,276,31424,1,8,0:0:0:0:
281,152,32320,1,0,0:0:0:0:
65,104,33216,1,8,0:0:0:0:
282,150,34111,1,0,0:0:0:0:
308,254,35007,1,8,0:0:0:0:
308,254,35902,1,0,0:0:0:0:
223,207,37693,5,12,0:0:0:0:
436,134,38588,1,0,0:0:0:0:
203,106,39484,1,8,0:0:0:0:
205,103,41275,1,0,0:0:0:0:
170,329,42170,1,8,0:0:0:0:
196,100,43066,1,8,0:0:0:0:
223,207,44857,5,4,0:0:0:0:
203,106,46648,1,8,0:0:0:0:
54,278,47543,1,8,0:0:0:0:
202,103,48439,1,0,0:0:0:0:
196,100,50230,1,8,0:0:0:0:
346,197,50678,1,8,0:0:0:0:
109,173,51126,1,8,0:0:0:0:
365,120,52022,1,4,0:0:0:0:
168,8,52917,1,4,0:0:0:0:
263,215,53813,1,4,0:0:0:0:
226,151,55604,5,4,0:0:0:0:
100,183,56499,1,8,0:0:0:0:
196,100,57394,1,8,0:0:0:0:
336,194,57843,1,0,0:0:0:0:
220,178,58290,1,8,0:0:0:0:
226,151,59186,1,4,0:0:0:0:
100,183,60081,1,8,0:0:0:0:
214,188,60977,1,0,0:0:0:0:
226,151,62768,5,4,0:0:0:0:
316,86,63664,1,8,0:0:0:0:
214,188,64559,1,8,0:0:0:0:
336,194,65007,1,0,0:0:0:0:
220,178,65454,1,8,0:0:0:0:
241,244,66350,1,8,0:0:0:0:
241,244,67246,1,0,0:0:0:0:
81,74,68141,1,12,0:0:0:0:
180,135,68589,1,12,0:0:0:0:
277,194,69037,1,12,0:0:0:0:
256,192,71723,1,4,0:0:0:0:
184,96,72619,1,8,0:0:0:0:
281,152,73514,1,0,0:0:0:0:
156,2,74410,1,8,0:0:0:0:
282,150,75305,1,0,0:0:0:0:
308,254,76201,1,8,0:0:0:0:
308,254,77096,1,0,0:0:0:0:
223,207,78887,5,4,0:0:0:0:
203,106,79783,1,8,0:0:0:0:
22,232,80678,1,0,0:0:0:0:
221,175,81574,1,8,0:0:0:0:
205,103,82469,1,0,0:0:0:0:
170,329,83364,1,8,0:0:0:0:
196,100,84260,1,0,0:0:0:0:
223,207,86051,5,4,0:0:0:0:
436,134,86946,1,0,0:0:0:0:
203,106,87842,1,8,0:0:0:0:
202,103,89633,1,0,0:0:0:0:
170,329,90528,1,8,0:0:0:0:
196,100,91424,1,0,0:0:0:0:
256,192,93215,5,4,0:0:0:0:
465,276,94110,1,0,0:0:0:0:
281,152,95007,1,8,0:0:0:0:
282,150,96797,1,8,0:0:0:0:
179,9,97470,1,8,0:0:0:0:
204,118,98141,1,8,0:0:0:0:
315,115,98589,1,4,0:0:0:0:
226,151,100380,5,4,0:0:0:0:
316,86,101275,1,8,0:0:0:0:
196,100,102170,1,0,0:0:0:0:
336,194,102619,1,0,0:0:0:0:
220,178,103066,1,8,0:0:0:0:
226,151,103962,1,4,0:0:0:0:
316,86,104858,1,8,0:0:0:0:
214,188,105753,1,0,0:0:0:0:
226,151,107544,5,4,0:0:0:0:
316,86,108440,1,8,0:0:0:0:
214,188,109335,1,8,0:0:0:0:
336,194,109783,1,0,0:0:0:0:
220,178,110230,1,8,0:0:0:0:
241,244,111126,1,8,0:0:0:0:
241,244,112022,1,0,0:0:0:0:
241,244,112917,1,0,0:0:0:0:
211,216,113365,1,4,0:0:0:0:
301,81,113813,1,4,0:0:0:0:
367,149,114708,5,0,0:0:0:0:
205,306,115604,1,0,0:0:0:0:
285,187,116499,1,0,0:0:0:0:
285,187,118290,1,0,0:0:0:0:
246,64,119186,1,0,0:0:0:0:
246,64,120081,1,12,0:0:0:0:
246,64,120529,1,12,0:0:0:0:
246,64,120977,1,12,0:0:0:0:
161,270,121873,5,4,0:0:0:0:
205,41,122768,1,8,0:0:0:0:
182,143,124559,1,0,0:0:0:0:
265,115,125455,1,0,0:0:0:0:
309,335,126350,1,8,0:0:0:0:
294,186,128141,1,0,0:0:0:0:
289,149,129037,5,0,0:0:0:0:
69,194,129932,1,8,0:0:0:0:
289,147,130828,1,0,0:0:0:0:
143,59,132619,5,0,0:0:0:0:
298,220,133514,1,8,0:0:0:0:
182,30,134410,1,8,0:0:0:0:
421,157,136201,1,12,0:0:0:0:
244,302,137096,1,8,0:0:0:0:
290,79,137992,1,0,0:0:0:0:
177,181,139783,1,8,0:0:0:0:
177,181,140678,1,0,0:0:0:0:
361,46,141574,1,0,0:0:0:0:
33,352,143365,5,8,0:0:0:0:
203,207,144261,1,8,0:0:0:0:
122,0,145156,1,0,0:0:0:0:
476,266,146947,1,8,0:0:0:0:
290,126,147843,1,0,0:0:0:0:
71,75,148738,1,0,0:0:0:0:
509,162,150529,5,12,0:0:0:0:
404,194,151425,1,0,0:0:0:0:
183,136,152320,1,8,0:0:0:0:
410,193,153216,1,8,0:0:0:0:
207,94,154111,1,0,0:0:0:0:
130,57,155007,1,0,0:0:0:0:
341,124,155902,1,8,0:0:0:0:
509,162,157693,5,4,0:0:0:0:
404,194,158589,1,8,0:0:0:0:
151,175,159037,1,0,0:0:0:0:
183,136,159484,1,8,0:0:0:0:
410,193,160380,1,8,0:0:0:0:
134,203,160828,1,8,0:0:0:0:
207,94,161275,1,0,0:0:0:0:
130,57,162171,1,0,0:0:0:0:
341,124,163066,1,8,0:0:0:0:
211,138,164858,5,8,0:0:0:0:
211,138,165753,1,8,0:0:0:0:
435,101,166649,1,8,0:0:0:0:
6,231,168440,1,8,0:0:0:0:
225,162,169335,1,8,0:0:0:0:
444,94,170231,1,8,0:0:0:0:
256,192,172022,5,4,0:0:0:0:
184,96,172917,1,8,0:0:0:0:
281,152,173813,1,0,0:0:0:0:
282,150,175604,1,0,0:0:0:0:
308,254,176499,1,8,0:0:0:0:
308,254,177395,1,8,0:0:0:0:
226,151,179186,5,4,0:0:0:0:
316,86,180081,1,8,0:0:0:0:
196,100,180976,1,8,0:0:0:0:
336,194,181425,1,0,0:0:0:0:
220,178,181872,1,8,0:0:0:0:
226,151,182768,1,4,0:0:0:0:
316,86,183664,1,8,0:0:0:0:
214,188,184559,1,0,0:0:0:0:
226,151,186350,5,4,0:0:0:0:
316,86,187246,1,8,0:0:0:0:
214,188,188141,1,8,0:0:0:0:
336,194,188589,1,0,0:0:0:0:
220,178,189036,1,8,0:0:0:0:
241,244,189932,1,8,0:0:0:0:
241,244,190828,1,0,0:0:0:0:
81,74,191723,1,0,0:0:0:0:
81,74,192171,1,4,0:0:0:0:
277,194,192619,1,4,0:0:0:0:
226,151,193514,5,4,0:0:0:0:
316,86,194410,1,8,0:0:0:0:
196,100,195304,1,0,0:0:0:0:
226,151,197096,1,4,0:0:0:0:
316,86,197992,1,8,0:0:0:0:
214,188,198887,1,0,0:0:0:0:
226,151,200678,5,4,0:0:0:0:
316,86,201574,1,8,0:0:0:0:
214,188,202469,1,8,0:0:0:0:
336,194,202917,1,0,0:0:0:0:
220,178,203364,1,8,0:0:0:0:
241,244,204260,1,8,0:0:0:0:
241,244,205156,1,0,0:0:0:0:
81,74,206052,1,12,0:0:0:0:
180,135,206500,1,12,0:0:0:0:
277,194,206948,1,12,0:0:0:0:
503,198,207843,1,0,0:0:0:0:
167,138,209186,1,12,0:0:0:0:
