osu file format v14

[General]
AudioFilename: audio.mp3
AudioLeadIn: 0
PreviewTime: 55492
Countdown: 0
SampleSet: Normal
StackLeniency: 0.7
Mode: 1
LetterboxInBreaks: 0
WidescreenStoryboard: 0

[Editor]
DistanceSpacing: 0.8
BeatDivisor: 4
GridSize: 32
TimelineZoom: 3.899998

[Metadata]
Title:Kantan na Koto
TitleUnicode:カンタンナコト
Artist:THE ORAL CIGARETTES
ArtistUnicode:THE ORAL CIGARETTES
Creator:Chiswell
Version:Oni
Source:
Tags:japanese rock j-rock a-sketch metalstream peaceful hoshikuz wzxxzw
BeatmapID:2227947
BeatmapSetID:1063938

[Difficulty]
HPDrainRate:5
CircleSize:5
OverallDifficulty:5.5
ApproachRate:5
SliderMultiplier:1.4
SliderTickRate:1

[Events]
//Background and Video events
0,0,"bg.png",0,0
//Break Periods
//Storyboard Layer 0 (Background)
//Storyboard Layer 1 (Fail)
//Storyboard Layer 2 (Pass)
//Storyboard Layer 3 (Foreground)
//Storyboard Layer 4 (Overlay)
//Storyboard Sound Samples

[TimingPoints]
1873,447.761194029851,4,1,0,60,1,0
55604,-100,4,1,0,70,0,1
69261,-100,4,1,0,60,0,0
100380,-100,4,1,0,70,0,1
114708,-100,4,1,0,60,0,0
179186,-100,4,1,0,70,0,1
193514,-100,4,1,0,60,0,0
209186,-100,4,1,0,70,0,0

[HitObjects]
256,192,1873,5,4,0:0:0:0:
256,192,2096,1,0,0:0:0:0:
256,192,2208,1,0,0:0:0:0:
256,192,2320,1,2,0:0:0:0:
256,192,2544,1,0,0:0:0:0:
256,192,2656,1,0,0:0:0:0:
256,192,2880,1,0,0:0:0:0:
256,192,3216,1,2,0:0:0:0:
256,192,3664,1,0,0:0:0:0:
256,192,3887,1,0,0:0:0:0:
256,192,3999,1,0,0:0:0:0:
256,192,4111,1,2,0:0:0:0:
256,192,4335,1,0,0:0:0:0:
256,192,4447,1,0,0:0:0:0:
256,192,4671,1,2,0:0:0:0:
256,192,5007,1,2,0:0:0:0:
256,192,5455,1,0,0:0:0:0:
256,192,5678,1,0,0:0:0:0:
256,192,5790,1,0,0:0:0:0:
256,192,5902,1,2,0:0:0:0:
256,192,6126,1,0,0:0:0:0:
256,192,6238,1,0,0:0:0:0:
256,192,6462,1,0,0:0:0:0:
256,192,6798,1,2,0:0:0:0:
256,192,7246,1,0,0:0:0:0:
256,192,7469,1,0,0:0:0:0:
256,192,7581,1,0,0:0:0:0:
256,192,7693,1,2,0:0:0:0:
256,192,7917,1,0,0:0:0:0:
256,192,8029,1,2,0:0:0:0:
256,192,8253,1,2,0:0:0:0:
256,192,8477,1,0,0:0:0:0:
256,192,8589,1,2,0:0:0:0:
256,192,9037,1,0,0:0:0:0:
256,192,9260,1,0,0:0:0:0:
256,192,9372,1,0,0:0:0:0:
256,192,9484,1,2,0:0:0:0:
256,192,9708,1,0,0:0:0:0:
256,192,9820,1,0,0:0:0:0:
256,192,10044,1,0,0:0:0:0:
256,192,10380,1,2,0:0:0:0:
256,192,10828,1,0,0:0:0:0:
256,192,11051,1,0,0:0:0:0:
256,192,11163,1,0,0:0:0:0:
256,192,11275,1,2,0:0:0:0:
256,192,11499,1,0,0:0:0:0:
256,192,11611,1,0,0:0:0:0:
256,192,11835,1,2,0:0:0:0:
256,192,12171,1,2,0:0:0:0:
256,192,12619,1,0,0:0:0:0:
256,192,12842,1,0,0:0:0:0:
256,192,12954,1,0,0:0:0:0:
256,192,13066,1,2,0:0:0:0:
256,192,13290,1,0,0:0:0:0:
256,192,13402,1,0,0:0:0:0:
256,192,13626,1,0,0:0:0:0:
256,192,13962,1,2,0:0:0:0:
256,192,14410,1,0,0:0:0:0:
256,192,14633,1,0,0:0:0:0:
256,192,14745,1,0,0:0:0:0:
256,192,14857,1,2,0:0:0:0:
256,192,15081,1,0,0:0:0:0:
256,192,15193,1,2,0:0:0:0:
256,192,15529,1,2,0:0:0:0:
256,192,15641,1,2,0:0:0:0:
256,192,15753,1,2,0:0:0:0:
256,192,15865,1,2,0:0:0:0:
256,192,15977,1,2,0:0:0:0:
256,192,16201,1,0,0:0:0:0:
256,192,16537,1,0,0:0:0:0:
256,192,16649,1,2,0:0:0:0:
256,192,16873,1,0,0:0:0:0:
256,192,17096,1,0,0:0:0:0:
256,192,17320,1,0,0:0:0:0:
256,192,17544,1,2,0:0:0:0:
256,192,17768,1,0,0:0:0:0:
256,192,17991,1,0,0:0:0:0:
256,192,18328,1,0,0:0:0:0:
256,192,18440,1,2,0:0:0:0:
256,192,18664,1,0,0:0:0:0:
256,192,18887,1,2,0:0:0:0:
256,192,19111,1,0,0:0:0:0:
256,192,19335,1,2,0:0:0:0:
256,192,19447,1,2,0:0:0:0:
256,192,19559,1,0,0:0:0:0:
256,192,19783,1,0,0:0:0:0:
256,192,20119,1,0,0:0:0:0:
256,192,20231,1,2,0:0:0:0:
256,192,20455,1,0,0:0:0:0:
256,192,20678,1,0,0:0:0:0:
256,192,20902,1,0,0:0:0:0:
256,192,21126,1,2,0:0:0:0:
256,192,21350,1,0,0:0:0:0:
256,192,21573,1,0,0:0:0:0:
256,192,21910,1,0,0:0:0:0:
256,192,22022,1,2,0:0:0:0:
256,192,22246,1,0,0:0:0:0:
256,192,22469,1,0,0:0:0:0:
256,192,22581,1,0,0:0:0:0:
256,192,22693,1,2,0:0:0:0:
256,192,22917,1,2,0:0:0:0:
256,192,23141,1,0,0:0:0:0:
256,192,23365,1,2,0:0:0:0:
256,192,23701,1,0,0:0:0:0:
256,192,23813,1,2,0:0:0:0:
256,192,24037,1,0,0:0:0:0:
256,192,24260,1,0,0:0:0:0:
256,192,24484,1,0,0:0:0:0:
256,192,24596,1,0,0:0:0:0:
256,192,24708,1,2,0:0:0:0:
256,192,25155,1,0,0:0:0:0:
256,192,25492,1,0,0:0:0:0:
256,192,25604,1,2,0:0:0:0:
256,192,25828,1,0,0:0:0:0:
256,192,26051,1,0,0:0:0:0:
256,192,26164,1,0,0:0:0:0:
256,192,26275,1,2,0:0:0:0:
256,192,26499,1,2,0:0:0:0:
256,192,26723,1,0,0:0:0:0:
256,192,26947,1,2,0:0:0:0:
256,192,27283,1,0,0:0:0:0:
256,192,27395,1,2,0:0:0:0:
256,192,27619,1,0,0:0:0:0:
256,192,27843,1,0,0:0:0:0:
256,192,28067,1,0,0:0:0:0:
256,192,28178,1,0,0:0:0:0:
256,192,28289,1,2,0:0:0:0:
256,192,28738,1,0,0:0:0:0:
256,192,28962,1,2,0:0:0:0:
256,192,29186,1,2,0:0:0:0:
256,192,29298,1,0,0:0:0:0:
256,192,29410,1,0,0:0:0:0:
256,192,29634,1,6,0:0:0:0:
256,192,29858,1,6,0:0:0:0:
256,192,30529,1,0,0:0:0:0:
256,192,30752,1,0,0:0:0:0:
256,192,30864,1,0,0:0:0:0:
256,192,30976,1,2,0:0:0:0:
256,192,31200,1,0,0:0:0:0:
256,192,31312,1,0,0:0:0:0:
256,192,31536,1,0,0:0:0:0:
256,192,31872,1,2,0:0:0:0:
256,192,32320,1,0,0:0:0:0:
256,192,32543,1,0,0:0:0:0:
256,192,32655,1,0,0:0:0:0:
256,192,32767,1,2,0:0:0:0:
256,192,32991,1,0,0:0:0:0:
256,192,33103,1,0,0:0:0:0:
256,192,33327,1,2,0:0:0:0:
256,192,33663,1,2,0:0:0:0:
256,192,34111,1,0,0:0:0:0:
256,192,34334,1,0,0:0:0:0:
256,192,34446,1,0,0:0:0:0:
256,192,34558,1,2,0:0:0:0:
256,192,34782,1,0,0:0:0:0:
256,192,34894,1,0,0:0:0:0:
256,192,35118,1,0,0:0:0:0:
256,192,35454,1,2,0:0:0:0:
256,192,35902,1,0,0:0:0:0:
256,192,36125,1,0,0:0:0:0:
256,192,36237,1,0,0:0:0:0:
256,192,36349,1,2,0:0:0:0:
256,192,36573,1,0,0:0:0:0:
256,192,36685,1,0,0:0:0:0:
256,192,37022,1,2,0:0:0:0:
256,192,37134,1,2,0:0:0:0:
256,192,37245,1,2,0:0:0:0:
256,192,37358,1,2,0:0:0:0:
256,192,37470,1,2,0:0:0:0:
256,192,37693,1,0,0:0:0:0:
256,192,38029,1,0,0:0:0:0:
256,192,38365,1,0,0:0:0:0:
256,192,38589,1,2,0:0:0:0:
256,192,39037,1,2,0:0:0:0:
256,192,39149,1,2,0:0:0:0:
256,192,39261,1,2,0:0:0:0:
256,192,39484,1,0,0:0:0:0:
256,192,39820,1,0,0:0:0:0:
256,192,40156,1,0,0:0:0:0:
256,192,40380,1,2,0:0:0:0:
256,192,40604,1,0,0:0:0:0:
256,192,40828,1,0,0:0:0:0:
256,192,40940,1,0,0:0:0:0:
256,192,41052,1,0,0:0:0:0:
256,192,41275,1,0,0:0:0:0:
256,192,41611,1,0,0:0:0:0:
256,192,41947,1,0,0:0:0:0:
256,192,42171,1,2,0:0:0:0:
256,192,42619,1,2,0:0:0:0:
256,192,42731,1,2,0:0:0:0:
256,192,42843,1,2,0:0:0:0:
256,192,43067,1,0,0:0:0:0:
256,192,43402,1,0,0:0:0:0:
256,192,43738,1,0,0:0:0:0:
256,192,43962,1,2,0:0:0:0:
256,192,44186,1,0,0:0:0:0:
256,192,44410,1,2,0:0:0:0:
256,192,44522,1,0,0:0:0:0:
256,192,44634,1,2,0:0:0:0:
256,192,44858,1,2,0:0:0:0:
256,192,44970,1,2,0:0:0:0:
256,192,45081,1,2,0:0:0:0:
256,192,45193,1,2,0:0:0:0:
256,192,45417,1,0,0:0:0:0:
256,192,45529,1,2,0:0:0:0:
256,192,45753,1,2,0:0:0:0:
256,192,45977,1,2,0:0:0:0:
256,192,46089,1,2,0:0:0:0:
256,192,46201,1,0,0:0:0:0:
256,192,46649,1,0,0:0:0:0:
256,192,46984,1,0,0:0:0:0:
256,192,47096,1,2,0:0:0:0:
256,192,47320,1,0,0:0:0:0:
256,192,47544,1,0,0:0:0:0:
256,192,47992,1,2,0:0:0:0:
256,192,48440,1,0,0:0:0:0:
256,192,48776,1,0,0:0:0:0:
256,192,48888,1,2,0:0:0:0:
256,192,49112,1,0,0:0:0:0:
256,192,49336,1,0,0:0:0:0:
256,192,49560,1,0,0:0:0:0:
256,192,49671,1,0,0:0:0:0:
256,192,49782,1,2,0:0:0:0:
256,192,50231,1,2,0:0:0:0:
256,192,50455,1,2,0:0:0:0:
256,192,50678,1,2,0:0:0:0:
256,192,50790,1,2,0:0:0:0:
256,192,51014,1,2,0:0:0:0:
256,192,51126,1,0,0:0:0:0:
256,192,51238,1,0,0:0:0:0:
256,192,51350,1,0,0:0:0:0:
256,192,51574,1,2,0:0:0:0:
256,192,52022,1,6,0:0:0:0:
256,192,52470,1,6,0:0:0:0:
256,192,52917,1,6,0:0:0:0:
256,192,53365,1,6,0:0:0:0:
256,192,53813,1,6,0:0:0:0:
256,192,54037,1,4,0:0:0:0:
256,192,54261,1,6,0:0:0:0:
256,192,54484,1,4,0:0:0:0:
256,192,54708,1,6,0:0:0:0:
256,192,54932,1,0,0:0:0:0:
256,192,55044,1,0,0:0:0:0:
256,192,55156,1,2,0:0:0:0:
256,192,55604,1,4,0:0:0:0:
256,192,56052,1,2,0:0:0:0:
256,192,56275,1,0,0:0:0:0:
256,192,56387,1,0,0:0:0:0:
256,192,56611,1,0,0:0:0:0:
256,192,56947,1,2,0:0:0:0:
256,192,57171,1,0,0:0:0:0:
256,192,57395,1,0,0:0:0:0:
256,192,57507,1,0,0:0:0:0:
256,192,57619,1,0,0:0:0:0:
256,192,57843,1,2,0:0:0:0:
256,192,58067,1,0,0:0:0:0:
256,192,58178,1,2,0:0:0:0:
256,192,58290,1,0,0:0:0:0:
256,192,58402,1,2,0:0:0:0:
256,192,58738,1,2,0:0:0:0:
256,192,58962,1,2,0:0:0:0:
256,192,59186,1,0,0:0:0:0:
256,192,59634,1,2,0:0:0:0:
256,192,59857,1,0,0:0:0:0:
256,192,59969,1,0,0:0:0:0:
256,192,60193,1,0,0:0:0:0:
256,192,60529,1,2,0:0:0:0:
256,192,60753,1,0,0:0:0:0:
256,192,60977,1,0,0:0:0:0:
256,192,61089,1,0,0:0:0:0:
256,192,61201,1,0,0:0:0:0:
256,192,61425,1,2,0:0:0:0:
256,192,61649,1,0,0:0:0:0:
256,192,61761,1,2,0:0:0:0:
256,192,61872,1,0,0:0:0:0:
256,192,61984,1,2,0:0:0:0:
256,192,62208,1,2,0:0:0:0:
256,192,62320,1,0,0:0:0:0:
256,192,62544,1,2,0:0:0:0:
256,192,62768,1,0,0:0:0:0:
256,192,63216,1,2,0:0:0:0:
256,192,63439,1,0,0:0:0:0:
256,192,63551,1,0,0:0:0:0:
256,192,63775,1,0,0:0:0:0:
256,192,64111,1,2,0:0:0:0:
256,192,64335,1,0,0:0:0:0:
256,192,64559,1,0,0:0:0:0:
256,192,64671,1,0,0:0:0:0:
256,192,64783,1,0,0:0:0:0:
256,192,65007,1,2,0:0:0:0:
256,192,65231,1,0,0:0:0:0:
256,192,65343,1,2,0:0:0:0:
256,192,65455,1,0,0:0:0:0:
256,192,65567,1,2,0:0:0:0:
256,192,65902,1,2,0:0:0:0:
256,192,66126,1,2,0:0:0:0:
256,192,66238,1,2,0:0:0:0:
256,192,66350,1,0,0:0:0:0:
256,192,66798,1,2,0:0:0:0:
256,192,67021,1,0,0:0:0:0:
256,192,67133,1,0,0:0:0:0:
256,192,67357,1,0,0:0:0:0:
256,192,67693,1,2,0:0:0:0:
256,192,67917,1,2,0:0:0:0:
256,192,68141,1,4,0:0:0:0:
256,192,68365,1,4,0:0:0:0:
256,192,68589,1,4,0:0:0:0:
256,192,68813,1,4,0:0:0:0:
256,192,69037,1,4,0:0:0:0:
256,192,69261,1,4,0:0:0:0:
256,192,71723,1,4,0:0:0:0:
256,192,71946,1,0,0:0:0:0:
256,192,72058,1,0,0:0:0:0:
256,192,72170,1,2,0:0:0:0:
256,192,72394,1,0,0:0:0:0:
256,192,72506,1,0,0:0:0:0:
256,192,72730,1,0,0:0:0:0:
256,192,73066,1,2,0:0:0:0:
256,192,73514,1,0,0:0:0:0:
256,192,73737,1,0,0:0:0:0:
256,192,73849,1,0,0:0:0:0:
256,192,73961,1,2,0:0:0:0:
256,192,74185,1,0,0:0:0:0:
256,192,74297,1,0,0:0:0:0:
256,192,74521,1,2,0:0:0:0:
256,192,74857,1,2,0:0:0:0:
256,192,75305,1,0,0:0:0:0:
256,192,75528,1,0,0:0:0:0:
256,192,75640,1,0,0:0:0:0:
256,192,75752,1,2,0:0:0:0:
256,192,75976,1,0,0:0:0:0:
256,192,76088,1,0,0:0:0:0:
256,192,76312,1,0,0:0:0:0:
256,192,76648,1,2,0:0:0:0:
256,192,77096,1,0,0:0:0:0:
256,192,77319,1,0,0:0:0:0:
256,192,77431,1,0,0:0:0:0:
256,192,77543,1,2,0:0:0:0:
256,192,77767,1,0,0:0:0:0:
256,192,77879,1,2,0:0:0:0:
256,192,78103,1,2,0:0:0:0:
256,192,78327,1,0,0:0:0:0:
256,192,78439,1,2,0:0:0:0:
256,192,78664,1,2,0:0:0:0:
256,192,78887,1,0,0:0:0:0:
256,192,79110,1,0,0:0:0:0:
256,192,79222,1,0,0:0:0:0:
256,192,79334,1,2,0:0:0:0:
256,192,79558,1,0,0:0:0:0:
256,192,79670,1,0,0:0:0:0:
256,192,79894,1,0,0:0:0:0:
256,192,80230,1,2,0:0:0:0:
256,192,80678,1,0,0:0:0:0:
256,192,80901,1,0,0:0:0:0:
256,192,81013,1,0,0:0:0:0:
256,192,81125,1,2,0:0:0:0:
256,192,81349,1,0,0:0:0:0:
256,192,81461,1,0,0:0:0:0:
256,192,81685,1,2,0:0:0:0:
256,192,82021,1,2,0:0:0:0:
256,192,82469,1,0,0:0:0:0:
256,192,82692,1,0,0:0:0:0:
256,192,82804,1,0,0:0:0:0:
256,192,82916,1,2,0:0:0:0:
256,192,83140,1,0,0:0:0:0:
256,192,83252,1,0,0:0:0:0:
256,192,83476,1,0,0:0:0:0:
256,192,83812,1,2,0:0:0:0:
256,192,84260,1,0,0:0:0:0:
256,192,84483,1,0,0:0:0:0:
256,192,84595,1,0,0:0:0:0:
256,192,84707,1,2,0:0:0:0:
256,192,84931,1,0,0:0:0:0:
256,192,85043,1,2,0:0:0:0:
256,192,85379,1,2,0:0:0:0:
256,192,85491,1,2,0:0:0:0:
256,192,85603,1,2,0:0:0:0:
256,192,85715,1,2,0:0:0:0:
256,192,85827,1,2,0:0:0:0:
256,192,86051,1,0,0:0:0:0:
256,192,86387,1,0,0:0:0:0:
256,192,86723,1,2,0:0:0:0:
256,192,86947,1,0,0:0:0:0:
256,192,87059,1,0,0:0:0:0:
256,192,87171,1,0,0:0:0:0:
256,192,87395,1,0,0:0:0:0:
256,192,87619,1,2,0:0:0:0:
256,192,87843,1,0,0:0:0:0:
256,192,88290,1,0,0:0:0:0:
256,192,88514,1,2,0:0:0:0:
256,192,88738,1,0,0:0:0:0:
256,192,88962,1,2,0:0:0:0:
256,192,89186,1,0,0:0:0:0:
256,192,89298,1,2,0:0:0:0:
256,192,89522,1,2,0:0:0:0:
256,192,89634,1,0,0:0:0:0:
256,192,90081,1,0,0:0:0:0:
256,192,90305,1,2,0:0:0:0:
256,192,90529,1,0,0:0:0:0:
256,192,90641,1,0,0:0:0:0:
256,192,90753,1,0,0:0:0:0:
256,192,90977,1,0,0:0:0:0:
256,192,91201,1,2,0:0:0:0:
256,192,91425,1,0,0:0:0:0:
256,192,91872,1,0,0:0:0:0:
256,192,92096,1,2,0:0:0:0:
256,192,92320,1,0,0:0:0:0:
256,192,92432,1,0,0:0:0:0:
256,192,92544,1,2,0:0:0:0:
256,192,92768,1,0,0:0:0:0:
256,192,92880,1,2,0:0:0:0:
256,192,93104,1,2,0:0:0:0:
256,192,93216,1,0,0:0:0:0:
256,192,93664,1,0,0:0:0:0:
256,192,93887,1,2,0:0:0:0:
256,192,94111,1,0,0:0:0:0:
256,192,94223,1,0,0:0:0:0:
256,192,94335,1,0,0:0:0:0:
256,192,94559,1,0,0:0:0:0:
256,192,94783,1,2,0:0:0:0:
256,192,95007,1,0,0:0:0:0:
256,192,95454,1,0,0:0:0:0:
256,192,95678,1,2,0:0:0:0:
256,192,95902,1,0,0:0:0:0:
256,192,96126,1,2,0:0:0:0:
256,192,96350,1,0,0:0:0:0:
256,192,96462,1,2,0:0:0:0:
256,192,96798,1,0,0:0:0:0:
256,192,97134,1,2,0:0:0:0:
256,192,97246,1,0,0:0:0:0:
256,192,97470,1,2,0:0:0:0:
256,192,97694,1,0,0:0:0:0:
256,192,97805,1,2,0:0:0:0:
256,192,97917,1,2,0:0:0:0:
256,192,98141,1,6,0:0:0:0:
256,192,98365,1,6,0:0:0:0:
256,192,98589,1,6,0:0:0:0:
256,192,99932,1,2,0:0:0:0:
256,192,100044,1,2,0:0:0:0:
256,192,100156,1,2,0:0:0:0:
256,192,100268,1,2,0:0:0:0:
256,192,100380,1,0,0:0:0:0:
256,192,100828,1,2,0:0:0:0:
256,192,101051,1,0,0:0:0:0:
256,192,101163,1,0,0:0:0:0:
256,192,101387,1,0,0:0:0:0:
256,192,101723,1,2,0:0:0:0:
256,192,101947,1,0,0:0:0:0:
256,192,102171,1,0,0:0:0:0:
256,192,102283,1,0,0:0:0:0:
256,192,102395,1,0,0:0:0:0:
256,192,102619,1,2,0:0:0:0:
256,192,102843,1,0,0:0:0:0:
256,192,102954,1,2,0:0:0:0:
256,192,103066,1,0,0:0:0:0:
256,192,103178,1,2,0:0:0:0:
256,192,103514,1,2,0:0:0:0:
256,192,103738,1,2,0:0:0:0:
256,192,103962,1,0,0:0:0:0:
256,192,104410,1,2,0:0:0:0:
256,192,104633,1,0,0:0:0:0:
256,192,104745,1,0,0:0:0:0:
256,192,104969,1,0,0:0:0:0:
256,192,105305,1,2,0:0:0:0:
256,192,105529,1,0,0:0:0:0:
256,192,105753,1,0,0:0:0:0:
256,192,105865,1,0,0:0:0:0:
256,192,105977,1,0,0:0:0:0:
256,192,106201,1,2,0:0:0:0:
256,192,106425,1,0,0:0:0:0:
256,192,106537,1,2,0:0:0:0:
256,192,106648,1,0,0:0:0:0:
256,192,106760,1,2,0:0:0:0:
256,192,106984,1,2,0:0:0:0:
256,192,107096,1,0,0:0:0:0:
256,192,107320,1,2,0:0:0:0:
256,192,107544,1,0,0:0:0:0:
256,192,107992,1,2,0:0:0:0:
256,192,108215,1,0,0:0:0:0:
256,192,108327,1,0,0:0:0:0:
256,192,108551,1,0,0:0:0:0:
256,192,108887,1,2,0:0:0:0:
256,192,109111,1,0,0:0:0:0:
256,192,109335,1,0,0:0:0:0:
256,192,109447,1,0,0:0:0:0:
256,192,109559,1,0,0:0:0:0:
256,192,109783,1,2,0:0:0:0:
256,192,110007,1,0,0:0:0:0:
256,192,110119,1,2,0:0:0:0:
256,192,110231,1,0,0:0:0:0:
256,192,110343,1,2,0:0:0:0:
256,192,110678,1,2,0:0:0:0:
256,192,110902,1,2,0:0:0:0:
256,192,111014,1,2,0:0:0:0:
256,192,111126,1,0,0:0:0:0:
256,192,111574,1,2,0:0:0:0:
256,192,111797,1,0,0:0:0:0:
256,192,111909,1,0,0:0:0:0:
256,192,112133,1,0,0:0:0:0:
256,192,112469,1,2,0:0:0:0:
256,192,112693,1,2,0:0:0:0:
256,192,112917,1,0,0:0:0:0:
256,192,113141,1,0,0:0:0:0:
256,192,113365,1,2,0:0:0:0:
256,192,113477,1,0,0:0:0:0:
256,192,113701,1,2,0:0:0:0:
256,192,113925,1,0,0:0:0:0:
256,192,114149,1,0,0:0:0:0:
256,192,114261,1,2,0:0:0:0:
256,192,114708,1,4,0:0:0:0:
256,192,115156,1,0,0:0:0:0:
256,192,115604,1,0,0:0:0:0:
256,192,116052,1,0,0:0:0:0:
256,192,116499,1,0,0:0:0:0:
256,192,116947,1,0,0:0:0:0:
256,192,117395,1,0,0:0:0:0:
256,192,117843,1,0,0:0:0:0:
256,192,118290,1,0,0:0:0:0:
256,192,118738,1,0,0:0:0:0:
256,192,119186,1,0,0:0:0:0:
256,192,119634,1,2,0:0:0:0:
256,192,120081,1,6,0:0:0:0:
256,192,120305,1,6,0:0:0:0:
256,192,120529,1,6,0:0:0:0:
256,192,120753,1,6,0:0:0:0:
256,192,120977,1,2,0:0:0:0:
256,192,121089,1,0,0:0:0:0:
256,192,121313,1,0,0:0:0:0:
256,192,121425,1,0,0:0:0:0:
256,192,121873,1,0,0:0:0:0:
256,192,122096,1,0,0:0:0:0:
256,192,122320,1,0,0:0:0:0:
256,192,122544,1,0,0:0:0:0:
256,192,122768,1,2,0:0:0:0:
256,192,123216,1,0,0:0:0:0:
256,192,123440,1,0,0:0:0:0:
256,192,123887,1,0,0:0:0:0:
256,192,124111,1,0,0:0:0:0:
256,192,124559,1,0,0:0:0:0:
256,192,124783,1,0,0:0:0:0:
256,192,125007,1,2,0:0:0:0:
256,192,125455,1,0,0:0:0:0:
256,192,125678,1,0,0:0:0:0:
256,192,125902,1,0,0:0:0:0:
256,192,126126,1,0,0:0:0:0:
256,192,126350,1,2,0:0:0:0:
256,192,126798,1,0,0:0:0:0:
256,192,127022,1,0,0:0:0:0:
256,192,127470,1,0,0:0:0:0:
256,192,127693,1,0,0:0:0:0:
256,192,128141,1,0,0:0:0:0:
256,192,128365,1,0,0:0:0:0:
256,192,128589,1,2,0:0:0:0:
256,192,129037,1,0,0:0:0:0:
256,192,129261,1,0,0:0:0:0:
256,192,129484,1,2,0:0:0:0:
256,192,129708,1,0,0:0:0:0:
256,192,129820,1,0,0:0:0:0:
256,192,129932,1,0,0:0:0:0:
256,192,130156,1,0,0:0:0:0:
256,192,130380,1,2,0:0:0:0:
256,192,130828,1,0,0:0:0:0:
256,192,131052,1,0,0:0:0:0:
256,192,131276,1,2,0:0:0:0:
256,192,131500,1,0,0:0:0:0:
256,192,131611,1,0,0:0:0:0:
256,192,131723,1,0,0:0:0:0:
256,192,131947,1,0,0:0:0:0:
256,192,132171,1,2,0:0:0:0:
256,192,132619,1,0,0:0:0:0:
256,192,132843,1,0,0:0:0:0:
256,192,133067,1,2,0:0:0:0:
256,192,133291,1,0,0:0:0:0:
256,192,133402,1,0,0:0:0:0:
256,192,133514,1,0,0:0:0:0:
256,192,133738,1,0,0:0:0:0:
256,192,133962,1,2,0:0:0:0:
256,192,134410,1,0,0:0:0:0:
256,192,134634,1,0,0:0:0:0:
256,192,134858,1,2,0:0:0:0:
256,192,135082,1,0,0:0:0:0:
256,192,135305,1,2,0:0:0:0:
256,192,135417,1,0,0:0:0:0:
256,192,135529,1,0,0:0:0:0:
256,192,135641,1,0,0:0:0:0:
256,192,135753,1,2,0:0:0:0:
256,192,136201,1,4,0:0:0:0:
256,192,136649,1,0,0:0:0:0:
256,192,137096,1,0,0:0:0:0:
256,192,137208,1,0,0:0:0:0:
256,192,137320,1,0,0:0:0:0:
256,192,137544,1,2,0:0:0:0:
256,192,137992,1,0,0:0:0:0:
256,192,138440,1,2,0:0:0:0:
256,192,138775,1,2,0:0:0:0:
256,192,138887,1,0,0:0:0:0:
256,192,138999,1,2,0:0:0:0:
256,192,139335,1,2,0:0:0:0:
256,192,139783,1,0,0:0:0:0:
256,192,140231,1,2,0:0:0:0:
256,192,140567,1,2,0:0:0:0:
256,192,140678,1,0,0:0:0:0:
256,192,140790,1,2,0:0:0:0:
256,192,141126,1,2,0:0:0:0:
256,192,141574,1,0,0:0:0:0:
256,192,142022,1,2,0:0:0:0:
256,192,142358,1,2,0:0:0:0:
256,192,142469,1,0,0:0:0:0:
256,192,142581,1,2,0:0:0:0:
256,192,142917,1,2,0:0:0:0:
256,192,143141,1,2,0:0:0:0:
256,192,143365,1,0,0:0:0:0:
256,192,143813,1,2,0:0:0:0:
256,192,144149,1,2,0:0:0:0:
256,192,144260,1,0,0:0:0:0:
256,192,144372,1,2,0:0:0:0:
256,192,144708,1,2,0:0:0:0:
256,192,145156,1,0,0:0:0:0:
256,192,145604,1,2,0:0:0:0:
256,192,145940,1,2,0:0:0:0:
256,192,146051,1,0,0:0:0:0:
256,192,146163,1,2,0:0:0:0:
256,192,146499,1,2,0:0:0:0:
256,192,146947,1,0,0:0:0:0:
256,192,147395,1,2,0:0:0:0:
256,192,147731,1,2,0:0:0:0:
256,192,147842,1,0,0:0:0:0:
256,192,147954,1,2,0:0:0:0:
256,192,148290,1,2,0:0:0:0:
256,192,148738,1,0,0:0:0:0:
256,192,149186,1,2,0:0:0:0:
256,192,149522,1,2,0:0:0:0:
256,192,149633,1,0,0:0:0:0:
256,192,149970,1,0,0:0:0:0:
256,192,150305,1,0,0:0:0:0:
256,192,150529,1,4,0:0:0:0:
256,192,150977,1,2,0:0:0:0:
256,192,151425,1,0,0:0:0:0:
256,192,151873,1,2,0:0:0:0:
256,192,152320,1,0,0:0:0:0:
256,192,152768,1,2,0:0:0:0:
256,192,153216,1,0,0:0:0:0:
256,192,153664,1,2,0:0:0:0:
256,192,154111,1,0,0:0:0:0:
256,192,154559,1,2,0:0:0:0:
256,192,155007,1,0,0:0:0:0:
256,192,155455,1,2,0:0:0:0:
256,192,155902,1,0,0:0:0:0:
256,192,156350,1,2,0:0:0:0:
256,192,156798,1,0,0:0:0:0:
256,192,157246,1,2,0:0:0:0:
256,192,157693,1,2,0:0:0:0:
256,192,158141,1,2,0:0:0:0:
256,192,158589,1,2,0:0:0:0:
256,192,159037,1,2,0:0:0:0:
256,192,159484,1,2,0:0:0:0:
256,192,159708,1,2,0:0:0:0:
256,192,159932,1,2,0:0:0:0:
256,192,160156,1,2,0:0:0:0:
256,192,160380,1,2,0:0:0:0:
256,192,160604,1,2,0:0:0:0:
256,192,160828,1,2,0:0:0:0:
256,192,161052,1,2,0:0:0:0:
256,192,161275,1,2,0:0:0:0:
256,192,161611,1,2,0:0:0:0:
256,192,161723,1,0,0:0:0:0:
256,192,161947,1,2,0:0:0:0:
256,192,162171,1,2,0:0:0:0:
256,192,162507,1,2,0:0:0:0:
256,192,162619,1,0,0:0:0:0:
256,192,162843,1,2,0:0:0:0:
256,192,163067,1,2,0:0:0:0:
256,192,163403,1,2,0:0:0:0:
256,192,163515,1,0,0:0:0:0:
256,192,163739,1,2,0:0:0:0:
256,192,163962,1,2,0:0:0:0:
256,192,164074,1,0,0:0:0:0:
256,192,164186,1,0,0:0:0:0:
256,192,164298,1,0,0:0:0:0:
256,192,164410,1,2,0:0:0:0:
256,192,164858,1,2,0:0:0:0:
256,192,165305,1,2,0:0:0:0:
256,192,165753,1,2,0:0:0:0:
256,192,166201,1,2,0:0:0:0:
256,192,166649,1,2,0:0:0:0:
256,192,167096,1,2,0:0:0:0:
256,192,167544,1,2,0:0:0:0:
256,192,167992,1,2,0:0:0:0:
256,192,168440,1,2,0:0:0:0:
256,192,168887,1,2,0:0:0:0:
256,192,169335,1,2,0:0:0:0:
256,192,169783,1,2,0:0:0:0:
256,192,170231,1,2,0:0:0:0:
256,192,170678,1,2,0:0:0:0:
256,192,171126,1,2,0:0:0:0:
256,192,171574,1,2,0:0:0:0:
256,192,172022,1,6,0:0:0:0:
256,192,172358,1,2,0:0:0:0:
256,192,172470,1,0,0:0:0:0:
256,192,172693,1,2,0:0:0:0:
256,192,172917,1,0,0:0:0:0:
256,192,173029,1,2,0:0:0:0:
256,192,173365,1,6,0:0:0:0:
256,192,173589,1,6,0:0:0:0:
256,192,173813,1,6,0:0:0:0:
256,192,174149,1,2,0:0:0:0:
256,192,174261,1,0,0:0:0:0:
256,192,174484,1,2,0:0:0:0:
256,192,174708,1,0,0:0:0:0:
256,192,174820,1,2,0:0:0:0:
256,192,175156,1,6,0:0:0:0:
256,192,175380,1,6,0:0:0:0:
256,192,175604,1,6,0:0:0:0:
256,192,175940,1,2,0:0:0:0:
256,192,176052,1,0,0:0:0:0:
256,192,176275,1,2,0:0:0:0:
256,192,176499,1,0,0:0:0:0:
256,192,176611,1,2,0:0:0:0:
256,192,176947,1,2,0:0:0:0:
256,192,177171,1,2,0:0:0:0:
256,192,177395,12,0,178738,0:0:0:0:
256,192,179186,5,4,0:0:0:0:
256,192,179634,1,2,0:0:0:0:
256,192,179857,1,0,0:0:0:0:
256,192,179969,1,0,0:0:0:0:
256,192,180193,1,0,0:0:0:0:
256,192,180529,1,2,0:0:0:0:
256,192,180753,1,0,0:0:0:0:
256,192,180977,1,0,0:0:0:0:
256,192,181089,1,0,0:0:0:0:
256,192,181201,1,0,0:0:0:0:
256,192,181425,1,2,0:0:0:0:
256,192,181649,1,0,0:0:0:0:
256,192,181760,1,2,0:0:0:0:
256,192,181872,1,0,0:0:0:0:
256,192,181984,1,2,0:0:0:0:
256,192,182320,1,2,0:0:0:0:
256,192,182544,1,2,0:0:0:0:
256,192,182768,1,0,0:0:0:0:
256,192,183216,1,2,0:0:0:0:
256,192,183439,1,0,0:0:0:0:
256,192,183551,1,0,0:0:0:0:
256,192,183775,1,0,0:0:0:0:
256,192,184111,1,2,0:0:0:0:
256,192,184335,1,0,0:0:0:0:
256,192,184559,1,0,0:0:0:0:
256,192,184671,1,0,0:0:0:0:
256,192,184783,1,0,0:0:0:0:
256,192,185007,1,2,0:0:0:0:
256,192,185231,1,0,0:0:0:0:
256,192,185343,1,2,0:0:0:0:
256,192,185454,1,0,0:0:0:0:
256,192,185566,1,2,0:0:0:0:
256,192,185790,1,2,0:0:0:0:
256,192,185902,1,0,0:0:0:0:
256,192,186126,1,2,0:0:0:0:
256,192,186350,1,0,0:0:0:0:
256,192,186798,1,2,0:0:0:0:
256,192,187021,1,0,0:0:0:0:
256,192,187133,1,0,0:0:0:0:
256,192,187357,1,0,0:0:0:0:
256,192,187693,1,2,0:0:0:0:
256,192,187917,1,0,0:0:0:0:
256,192,188141,1,0,0:0:0:0:
256,192,188253,1,0,0:0:0:0:
256,192,188365,1,0,0:0:0:0:
256,192,188589,1,2,0:0:0:0:
256,192,188813,1,0,0:0:0:0:
256,192,188925,1,2,0:0:0:0:
256,192,189037,1,0,0:0:0:0:
256,192,189149,1,2,0:0:0:0:
256,192,189484,1,2,0:0:0:0:
256,192,189708,1,2,0:0:0:0:
256,192,189820,1,2,0:0:0:0:
256,192,189932,1,0,0:0:0:0:
256,192,190380,1,2,0:0:0:0:
256,192,190603,1,0,0:0:0:0:
256,192,190715,1,0,0:0:0:0:
256,192,190939,1,0,0:0:0:0:
256,192,191275,1,2,0:0:0:0:
256,192,191499,1,0,0:0:0:0:
256,192,191723,1,0,0:0:0:0:
256,192,191947,1,0,0:0:0:0:
256,192,192171,1,2,0:0:0:0:
256,192,192283,1,0,0:0:0:0:
256,192,192507,1,2,0:0:0:0:
256,192,192731,1,0,0:0:0:0:
256,192,192955,1,0,0:0:0:0:
256,192,193067,1,2,0:0:0:0:
256,192,193514,1,4,0:0:0:0:
256,192,193962,1,2,0:0:0:0:
256,192,194186,1,0,0:0:0:0:
256,192,194298,1,2,0:0:0:0:
256,192,194522,1,2,0:0:0:0:
256,192,194858,1,2,0:0:0:0:
256,192,195081,1,0,0:0:0:0:
256,192,195305,1,0,0:0:0:0:
256,192,195529,1,2,0:0:0:0:
256,192,195753,1,0,0:0:0:0:
256,192,195865,1,2,0:0:0:0:
256,192,196089,1,2,0:0:0:0:
256,192,196313,1,2,0:0:0:0:
256,192,196537,1,2,0:0:0:0:
256,192,196649,1,0,0:0:0:0:
256,192,196873,1,2,0:0:0:0:
256,192,197096,1,0,0:0:0:0:
256,192,197544,1,2,0:0:0:0:
256,192,197768,1,0,0:0:0:0:
256,192,197880,1,2,0:0:0:0:
256,192,198104,1,2,0:0:0:0:
256,192,198440,1,2,0:0:0:0:
256,192,198663,1,2,0:0:0:0:
256,192,198887,1,0,0:0:0:0:
256,192,198999,1,0,0:0:0:0:
256,192,199111,1,2,0:0:0:0:
256,192,199335,1,2,0:0:0:0:
256,192,199559,1,0,0:0:0:0:
256,192,199783,1,2,0:0:0:0:
256,192,200007,1,0,0:0:0:0:
256,192,200119,1,0,0:0:0:0:
256,192,200231,1,2,0:0:0:0:
256,192,200455,1,2,0:0:0:0:
256,192,200678,1,0,0:0:0:0:
256,192,201126,1,2,0:0:0:0:
256,192,201350,1,0,0:0:0:0:
256,192,201462,1,2,0:0:0:0:
256,192,201686,1,2,0:0:0:0:
256,192,202022,1,2,0:0:0:0:
256,192,202245,1,2,0:0:0:0:
256,192,202469,1,0,0:0:0:0:
256,192,202581,1,0,0:0:0:0:
256,192,202693,1,2,0:0:0:0:
256,192,202917,1,2,0:0:0:0:
256,192,203141,1,0,0:0:0:0:
256,192,203365,1,2,0:0:0:0:
256,192,203589,1,2,0:0:0:0:
256,192,203701,1,2,0:0:0:0:
256,192,203813,1,0,0:0:0:0:
256,192,204037,1,2,0:0:0:0:
256,192,204261,1,0,0:0:0:0:
256,192,204708,1,2,0:0:0:0:
256,192,204932,1,0,0:0:0:0:
256,192,205044,1,2,0:0:0:0:
256,192,205268,1,2,0:0:0:0:
256,192,205604,1,2,0:0:0:0:
256,192,205828,1,0,0:0:0:0:
256,192,206052,1,2,0:0:0:0:
256,192,206275,1,0,0:0:0:0:
256,192,206499,1,2,0:0:0:0:
256,192,206611,1,0,0:0:0:0:
256,192,206835,1,2,0:0:0:0:
256,192,207059,1,2,0:0:0:0:
256,192,207283,1,0,0:0:0:0:
256,192,207395,1,2,0:0:0:0:
256,192,207843,1,2,0:0:0:0:
256,192,208290,1,2,0:0:0:0:
256,192,208738,1,2,0:0:0:0:
256,192,209186,1,4,0:0:0:0:
