osu file format v14

[General]
AudioFilename: audio.mp3
AudioLeadIn: 0
PreviewTime: 55492
Countdown: 0
SampleSet: Normal
StackLeniency: 0.7
Mode: 1
LetterboxInBreaks: 0
WidescreenStoryboard: 0

[Editor]
DistanceSpacing: 0.8
BeatDivisor: 4
GridSize: 32
TimelineZoom: 3.899998

[Metadata]
Title:Kantan na Koto
TitleUnicode:カンタンナコト
Artist:THE ORAL CIGARETTES
ArtistUnicode:THE ORAL CIGARETTES
Creator:Chiswell
Version:Inner Oni
Source:
Tags:japanese rock j-rock a-sketch metalstream peaceful hoshikuz wzxxzw
BeatmapID:2227624
BeatmapSetID:1063938

[Difficulty]
HPDrainRate:5.5
CircleSize:5
OverallDifficulty:6
ApproachRate:5
SliderMultiplier:1.4
SliderTickRate:1

[Events]
//Background and Video events
0,0,"bg.png",0,0
//Break Periods
//Storyboard Layer 0 (Background)
//Storyboard Layer 1 (Fail)
//Storyboard Layer 2 (Pass)
//Storyboard Layer 3 (Foreground)
//Storyboard Layer 4 (Overlay)
//Storyboard Sound Samples

[TimingPoints]
1873,447.761194029851,4,1,0,60,1,0
55604,-83.3333333333333,4,1,0,70,0,1
69261,-83.3333333333333,4,1,0,60,0,0
69373,-100,4,1,0,60,0,0
99932,-83.3333333333333,4,1,0,60,0,0
100380,-83.3333333333333,4,1,0,70,0,1
114708,-100,4,1,0,60,0,0
136201,-125,4,1,0,60,0,0
150305,-117.647058823529,4,1,0,60,0,0
150529,-111.111111111111,4,1,0,60,0,0
164858,-100,4,1,0,60,0,0
179186,-83.3333333333333,4,1,0,70,0,1
193514,-83.3333333333333,4,1,0,60,0,0
207843,-86.9565217391304,4,1,0,60,0,0
208290,-90.9090909090909,4,1,0,60,0,0
208738,-95.2380952380952,4,1,0,60,0,0
209186,-100,4,1,0,70,0,0

[HitObjects]
256,192,1873,5,4,0:0:0:0:
256,192,2096,1,0,0:0:0:0:
256,192,2208,1,0,0:0:0:0:
256,192,2320,1,2,0:0:0:0:
256,192,2544,1,0,0:0:0:0:
256,192,2656,1,0,0:0:0:0:
256,192,2880,1,2,0:0:0:0:
256,192,2992,1,2,0:0:0:0:
256,192,3216,1,2,0:0:0:0:
256,192,3440,1,0,0:0:0:0:
256,192,3552,1,0,0:0:0:0:
256,192,3664,1,0,0:0:0:0:
256,192,3887,1,0,0:0:0:0:
256,192,3999,1,0,0:0:0:0:
256,192,4111,1,2,0:0:0:0:
256,192,4335,1,0,0:0:0:0:
256,192,4447,1,0,0:0:0:0:
256,192,4671,1,2,0:0:0:0:
256,192,4783,1,2,0:0:0:0:
256,192,5007,1,0,0:0:0:0:
256,192,5231,1,0,0:0:0:0:
256,192,5343,1,2,0:0:0:0:
256,192,5455,1,0,0:0:0:0:
256,192,5678,1,0,0:0:0:0:
256,192,5790,1,0,0:0:0:0:
256,192,5902,1,2,0:0:0:0:
256,192,6126,1,0,0:0:0:0:
256,192,6238,1,0,0:0:0:0:
256,192,6462,1,2,0:0:0:0:
256,192,6574,1,2,0:0:0:0:
256,192,6798,1,2,0:0:0:0:
256,192,7022,1,0,0:0:0:0:
256,192,7134,1,0,0:0:0:0:
256,192,7246,1,0,0:0:0:0:
256,192,7470,1,0,0:0:0:0:
256,192,7582,1,0,0:0:0:0:
256,192,7694,1,2,0:0:0:0:
256,192,7917,1,0,0:0:0:0:
256,192,8029,1,2,0:0:0:0:
256,192,8141,1,0,0:0:0:0:
256,192,8254,1,0,0:0:0:0:
256,192,8478,1,0,0:0:0:0:
256,192,8590,1,2,0:0:0:0:
256,192,8814,1,2,0:0:0:0:
256,192,8926,1,2,0:0:0:0:
256,192,9037,1,0,0:0:0:0:
256,192,9261,1,0,0:0:0:0:
256,192,9373,1,0,0:0:0:0:
256,192,9485,1,2,0:0:0:0:
256,192,9709,1,0,0:0:0:0:
256,192,9821,1,0,0:0:0:0:
256,192,10044,1,2,0:0:0:0:
256,192,10156,1,2,0:0:0:0:
256,192,10380,1,2,0:0:0:0:
256,192,10605,1,0,0:0:0:0:
256,192,10717,1,0,0:0:0:0:
256,192,10828,1,0,0:0:0:0:
256,192,11052,1,0,0:0:0:0:
256,192,11164,1,0,0:0:0:0:
256,192,11276,1,2,0:0:0:0:
256,192,11500,1,0,0:0:0:0:
256,192,11612,1,0,0:0:0:0:
256,192,11836,1,2,0:0:0:0:
256,192,11947,1,2,0:0:0:0:
256,192,12171,1,0,0:0:0:0:
256,192,12396,1,0,0:0:0:0:
256,192,12508,1,2,0:0:0:0:
256,192,12619,1,0,0:0:0:0:
256,192,12843,1,0,0:0:0:0:
256,192,12955,1,0,0:0:0:0:
256,192,13067,1,2,0:0:0:0:
256,192,13291,1,0,0:0:0:0:
256,192,13403,1,0,0:0:0:0:
256,192,13626,1,2,0:0:0:0:
256,192,13738,1,2,0:0:0:0:
256,192,13962,1,2,0:0:0:0:
256,192,14187,1,0,0:0:0:0:
256,192,14298,1,0,0:0:0:0:
256,192,14410,1,0,0:0:0:0:
256,192,14634,1,0,0:0:0:0:
256,192,14746,1,0,0:0:0:0:
256,192,14858,1,2,0:0:0:0:
256,192,15081,1,0,0:0:0:0:
256,192,15194,1,2,0:0:0:0:
256,192,15305,1,0,0:0:0:0:
256,192,15529,1,2,0:0:0:0:
256,192,15642,1,2,0:0:0:0:
256,192,15754,1,2,0:0:0:0:
256,192,15865,1,2,0:0:0:0:
256,192,15978,1,2,0:0:0:0:
256,192,16090,1,2,0:0:0:0:
256,192,16201,1,0,0:0:0:0:
256,192,16537,1,0,0:0:0:0:
256,192,16649,1,2,0:0:0:0:
256,192,16761,1,0,0:0:0:0:
256,192,16873,1,0,0:0:0:0:
256,192,16984,1,0,0:0:0:0:
256,192,17096,1,2,0:0:0:0:
256,192,17208,1,2,0:0:0:0:
256,192,17320,1,2,0:0:0:0:
256,192,17432,1,0,0:0:0:0:
256,192,17544,1,2,0:0:0:0:
256,192,17656,1,0,0:0:0:0:
256,192,17768,1,0,0:0:0:0:
256,192,17880,1,2,0:0:0:0:
256,192,17992,1,2,0:0:0:0:
256,192,18216,1,0,0:0:0:0:
256,192,18328,1,0,0:0:0:0:
256,192,18440,1,2,0:0:0:0:
256,192,18664,1,0,0:0:0:0:
256,192,18887,1,2,0:0:0:0:
256,192,19111,1,0,0:0:0:0:
256,192,19335,1,2,0:0:0:0:
256,192,19447,1,2,0:0:0:0:
256,192,19559,1,0,0:0:0:0:
256,192,19783,1,0,0:0:0:0:
256,192,20119,1,0,0:0:0:0:
256,192,20231,1,2,0:0:0:0:
256,192,20343,1,0,0:0:0:0:
256,192,20455,1,0,0:0:0:0:
256,192,20567,1,0,0:0:0:0:
256,192,20678,1,2,0:0:0:0:
256,192,20790,1,2,0:0:0:0:
256,192,20902,1,0,0:0:0:0:
256,192,21014,1,0,0:0:0:0:
256,192,21126,1,2,0:0:0:0:
256,192,21350,1,2,0:0:0:0:
256,192,21462,1,0,0:0:0:0:
256,192,21574,1,2,0:0:0:0:
256,192,21798,1,0,0:0:0:0:
256,192,22022,1,2,0:0:0:0:
256,192,22134,1,2,0:0:0:0:
256,192,22246,1,0,0:0:0:0:
256,192,22358,1,0,0:0:0:0:
256,192,22470,1,2,0:0:0:0:
256,192,22581,1,2,0:0:0:0:
256,192,22693,1,2,0:0:0:0:
256,192,22805,1,0,0:0:0:0:
256,192,22917,1,2,0:0:0:0:
256,192,23141,1,0,0:0:0:0:
256,192,23365,1,2,0:0:0:0:
256,192,23701,1,0,0:0:0:0:
256,192,23813,1,2,0:0:0:0:
256,192,23925,1,0,0:0:0:0:
256,192,24037,1,0,0:0:0:0:
256,192,24149,1,0,0:0:0:0:
256,192,24261,1,2,0:0:0:0:
256,192,24373,1,0,0:0:0:0:
256,192,24484,1,2,0:0:0:0:
256,192,24596,1,2,0:0:0:0:
256,192,24708,1,2,0:0:0:0:
256,192,24932,1,0,0:0:0:0:
256,192,25156,1,2,0:0:0:0:
256,192,25380,1,0,0:0:0:0:
256,192,25492,1,0,0:0:0:0:
256,192,25604,1,2,0:0:0:0:
256,192,25828,1,0,0:0:0:0:
256,192,26052,1,0,0:0:0:0:
256,192,26164,1,2,0:0:0:0:
256,192,26275,1,0,0:0:0:0:
256,192,26387,1,2,0:0:0:0:
256,192,26499,1,2,0:0:0:0:
256,192,26611,1,0,0:0:0:0:
256,192,26723,1,0,0:0:0:0:
256,192,26835,1,0,0:0:0:0:
256,192,26947,1,2,0:0:0:0:
256,192,27283,1,0,0:0:0:0:
256,192,27395,1,2,0:0:0:0:
256,192,27619,1,0,0:0:0:0:
256,192,27843,1,0,0:0:0:0:
256,192,27955,1,0,0:0:0:0:
256,192,28178,1,0,0:0:0:0:
256,192,28290,1,2,0:0:0:0:
256,192,28514,1,0,0:0:0:0:
256,192,28626,1,0,0:0:0:0:
256,192,28738,1,2,0:0:0:0:
256,192,28962,1,0,0:0:0:0:
256,192,29074,1,0,0:0:0:0:
256,192,29185,1,2,0:0:0:0:
256,192,29298,1,0,0:0:0:0:
256,192,29634,1,6,0:0:0:0:
256,192,29858,1,6,0:0:0:0:
256,192,30081,1,2,0:0:0:0:
256,192,30305,1,2,0:0:0:0:
256,192,30417,1,2,0:0:0:0:
256,192,30529,1,0,0:0:0:0:
256,192,30753,1,0,0:0:0:0:
256,192,30865,1,0,0:0:0:0:
256,192,30977,1,2,0:0:0:0:
256,192,31201,1,0,0:0:0:0:
256,192,31313,1,0,0:0:0:0:
256,192,31537,1,2,0:0:0:0:
256,192,31649,1,2,0:0:0:0:
256,192,31873,1,2,0:0:0:0:
256,192,32096,1,0,0:0:0:0:
256,192,32208,1,0,0:0:0:0:
256,192,32320,1,0,0:0:0:0:
256,192,32544,1,0,0:0:0:0:
256,192,32656,1,0,0:0:0:0:
256,192,32768,1,2,0:0:0:0:
256,192,32992,1,0,0:0:0:0:
256,192,33104,1,0,0:0:0:0:
256,192,33328,1,2,0:0:0:0:
256,192,33440,1,2,0:0:0:0:
256,192,33664,1,2,0:0:0:0:
256,192,33887,1,0,0:0:0:0:
256,192,33999,1,2,0:0:0:0:
256,192,34111,1,0,0:0:0:0:
256,192,34335,1,0,0:0:0:0:
256,192,34447,1,0,0:0:0:0:
256,192,34559,1,2,0:0:0:0:
256,192,34783,1,0,0:0:0:0:
256,192,34895,1,0,0:0:0:0:
256,192,35119,1,2,0:0:0:0:
256,192,35231,1,2,0:0:0:0:
256,192,35455,1,2,0:0:0:0:
256,192,35678,1,0,0:0:0:0:
256,192,35790,1,0,0:0:0:0:
256,192,35902,1,0,0:0:0:0:
256,192,36126,1,0,0:0:0:0:
256,192,36238,1,0,0:0:0:0:
256,192,36350,1,2,0:0:0:0:
256,192,36574,1,0,0:0:0:0:
256,192,36686,1,2,0:0:0:0:
256,192,36798,1,0,0:0:0:0:
256,192,37022,1,2,0:0:0:0:
256,192,37134,1,2,0:0:0:0:
256,192,37246,1,2,0:0:0:0:
256,192,37358,1,2,0:0:0:0:
256,192,37470,1,2,0:0:0:0:
256,192,37581,1,2,0:0:0:0:
256,192,37693,1,0,0:0:0:0:
256,192,37805,1,0,0:0:0:0:
256,192,37917,1,0,0:0:0:0:
256,192,38141,1,2,0:0:0:0:
256,192,38365,1,0,0:0:0:0:
256,192,38477,1,0,0:0:0:0:
256,192,38589,1,2,0:0:0:0:
256,192,38925,1,0,0:0:0:0:
256,192,39037,1,0,0:0:0:0:
256,192,39149,1,0,0:0:0:0:
256,192,39261,1,2,0:0:0:0:
256,192,39373,1,2,0:0:0:0:
256,192,39484,1,0,0:0:0:0:
256,192,39708,1,2,0:0:0:0:
256,192,39820,1,0,0:0:0:0:
256,192,39932,1,2,0:0:0:0:
256,192,40156,1,0,0:0:0:0:
256,192,40268,1,0,0:0:0:0:
256,192,40380,1,2,0:0:0:0:
256,192,40604,1,0,0:0:0:0:
256,192,40828,1,0,0:0:0:0:
256,192,41052,1,0,0:0:0:0:
256,192,41275,1,2,0:0:0:0:
256,192,41499,1,2,0:0:0:0:
256,192,41611,1,0,0:0:0:0:
256,192,41723,1,2,0:0:0:0:
256,192,41835,1,2,0:0:0:0:
256,192,41947,1,0,0:0:0:0:
256,192,42059,1,0,0:0:0:0:
256,192,42171,1,2,0:0:0:0:
256,192,42507,1,0,0:0:0:0:
256,192,42619,1,0,0:0:0:0:
256,192,42731,1,0,0:0:0:0:
256,192,42843,1,2,0:0:0:0:
256,192,42955,1,2,0:0:0:0:
256,192,43067,1,0,0:0:0:0:
256,192,43290,1,0,0:0:0:0:
256,192,43514,1,2,0:0:0:0:
256,192,43626,1,2,0:0:0:0:
256,192,43738,1,0,0:0:0:0:
256,192,43962,1,2,0:0:0:0:
256,192,44074,1,0,0:0:0:0:
256,192,44186,1,2,0:0:0:0:
256,192,44298,1,2,0:0:0:0:
256,192,44410,1,2,0:0:0:0:
256,192,44522,1,0,0:0:0:0:
256,192,44634,1,2,0:0:0:0:
256,192,44858,1,2,0:0:0:0:
256,192,44970,1,2,0:0:0:0:
256,192,45081,1,2,0:0:0:0:
256,192,45193,1,2,0:0:0:0:
256,192,45417,1,0,0:0:0:0:
256,192,45529,1,2,0:0:0:0:
256,192,45641,1,0,0:0:0:0:
256,192,45753,1,2,0:0:0:0:
256,192,45865,1,2,0:0:0:0:
256,192,45977,1,2,0:0:0:0:
256,192,46089,1,2,0:0:0:0:
256,192,46201,1,0,0:0:0:0:
256,192,46649,1,2,0:0:0:0:
256,192,46761,1,0,0:0:0:0:
256,192,46873,1,0,0:0:0:0:
256,192,46984,1,0,0:0:0:0:
256,192,47096,1,2,0:0:0:0:
256,192,47320,1,2,0:0:0:0:
256,192,47432,1,0,0:0:0:0:
256,192,47544,1,2,0:0:0:0:
256,192,47768,1,0,0:0:0:0:
256,192,47880,1,0,0:0:0:0:
256,192,47992,1,2,0:0:0:0:
256,192,48104,1,2,0:0:0:0:
256,192,48216,1,0,0:0:0:0:
256,192,48440,1,0,0:0:0:0:
256,192,48775,1,0,0:0:0:0:
256,192,48887,1,2,0:0:0:0:
256,192,49111,1,0,0:0:0:0:
256,192,49335,1,0,0:0:0:0:
256,192,49447,1,0,0:0:0:0:
256,192,49671,1,0,0:0:0:0:
256,192,49783,1,2,0:0:0:0:
256,192,50007,1,0,0:0:0:0:
256,192,50119,1,0,0:0:0:0:
256,192,50231,1,2,0:0:0:0:
256,192,50455,1,2,0:0:0:0:
256,192,50678,1,2,0:0:0:0:
256,192,50790,1,2,0:0:0:0:
256,192,51014,1,2,0:0:0:0:
256,192,51126,1,2,0:0:0:0:
256,192,51238,1,0,0:0:0:0:
256,192,51350,1,0,0:0:0:0:
256,192,51462,1,0,0:0:0:0:
256,192,51574,1,2,0:0:0:0:
256,192,51798,1,0,0:0:0:0:
256,192,52022,1,6,0:0:0:0:
256,192,52470,1,6,0:0:0:0:
256,192,52917,1,6,0:0:0:0:
256,192,53365,1,6,0:0:0:0:
256,192,53813,1,6,0:0:0:0:
256,192,54037,1,4,0:0:0:0:
256,192,54261,1,6,0:0:0:0:
256,192,54484,1,4,0:0:0:0:
256,192,54708,1,6,0:0:0:0:
256,192,54932,1,0,0:0:0:0:
256,192,55044,1,0,0:0:0:0:
256,192,55156,1,2,0:0:0:0:
256,192,55604,1,4,0:0:0:0:
256,192,55828,1,2,0:0:0:0:
256,192,56052,1,0,0:0:0:0:
256,192,56275,1,2,0:0:0:0:
256,192,56387,1,0,0:0:0:0:
256,192,56611,1,0,0:0:0:0:
256,192,56835,1,2,0:0:0:0:
256,192,56947,1,2,0:0:0:0:
256,192,57171,1,0,0:0:0:0:
256,192,57395,1,0,0:0:0:0:
256,192,57507,1,0,0:0:0:0:
256,192,57619,1,0,0:0:0:0:
256,192,57731,1,0,0:0:0:0:
256,192,57843,1,2,0:0:0:0:
256,192,57955,1,0,0:0:0:0:
256,192,58067,1,2,0:0:0:0:
256,192,58178,1,2,0:0:0:0:
256,192,58290,1,0,0:0:0:0:
256,192,58402,1,2,0:0:0:0:
256,192,58626,1,0,0:0:0:0:
256,192,58738,1,2,0:0:0:0:
256,192,58962,1,2,0:0:0:0:
256,192,59074,1,2,0:0:0:0:
256,192,59186,1,0,0:0:0:0:
256,192,59410,1,0,0:0:0:0:
256,192,59634,1,2,0:0:0:0:
256,192,59858,1,2,0:0:0:0:
256,192,59970,1,0,0:0:0:0:
256,192,60193,1,0,0:0:0:0:
256,192,60417,1,2,0:0:0:0:
256,192,60529,1,2,0:0:0:0:
256,192,60753,1,0,0:0:0:0:
256,192,60977,1,0,0:0:0:0:
256,192,61089,1,2,0:0:0:0:
256,192,61201,1,0,0:0:0:0:
256,192,61313,1,0,0:0:0:0:
256,192,61425,1,2,0:0:0:0:
256,192,61537,1,0,0:0:0:0:
256,192,61649,1,2,0:0:0:0:
256,192,61761,1,2,0:0:0:0:
256,192,61873,1,0,0:0:0:0:
256,192,61984,1,2,0:0:0:0:
256,192,62096,1,2,0:0:0:0:
256,192,62208,1,0,0:0:0:0:
256,192,62320,1,2,0:0:0:0:
256,192,62544,1,2,0:0:0:0:
256,192,62656,1,2,0:0:0:0:
256,192,62768,1,0,0:0:0:0:
256,192,62992,1,0,0:0:0:0:
256,192,63216,1,2,0:0:0:0:
256,192,63440,1,2,0:0:0:0:
256,192,63552,1,0,0:0:0:0:
256,192,63775,1,0,0:0:0:0:
256,192,63999,1,2,0:0:0:0:
256,192,64111,1,2,0:0:0:0:
256,192,64335,1,0,0:0:0:0:
256,192,64559,1,0,0:0:0:0:
256,192,64671,1,0,0:0:0:0:
256,192,64783,1,0,0:0:0:0:
256,192,64895,1,2,0:0:0:0:
256,192,65007,1,2,0:0:0:0:
256,192,65119,1,0,0:0:0:0:
256,192,65231,1,2,0:0:0:0:
256,192,65343,1,2,0:0:0:0:
256,192,65455,1,0,0:0:0:0:
256,192,65567,1,2,0:0:0:0:
256,192,65790,1,2,0:0:0:0:
256,192,65902,1,2,0:0:0:0:
256,192,66126,1,2,0:0:0:0:
256,192,66238,1,2,0:0:0:0:
256,192,66350,1,0,0:0:0:0:
256,192,66574,1,0,0:0:0:0:
256,192,66798,1,2,0:0:0:0:
256,192,67022,1,2,0:0:0:0:
256,192,67134,1,0,0:0:0:0:
256,192,67358,1,0,0:0:0:0:
256,192,67581,1,2,0:0:0:0:
256,192,67693,1,2,0:0:0:0:
256,192,67917,1,2,0:0:0:0:
256,192,68141,1,4,0:0:0:0:
256,192,68365,1,4,0:0:0:0:
256,192,68589,1,4,0:0:0:0:
256,192,68813,1,4,0:0:0:0:
256,192,69037,1,4,0:0:0:0:
256,192,69261,1,4,0:0:0:0:
256,192,71723,1,4,0:0:0:0:
256,192,71946,1,0,0:0:0:0:
256,192,72058,1,0,0:0:0:0:
256,192,72170,1,2,0:0:0:0:
256,192,72394,1,0,0:0:0:0:
256,192,72506,1,0,0:0:0:0:
256,192,72730,1,2,0:0:0:0:
256,192,72842,1,2,0:0:0:0:
256,192,73066,1,2,0:0:0:0:
256,192,73290,1,0,0:0:0:0:
256,192,73402,1,0,0:0:0:0:
256,192,73514,1,0,0:0:0:0:
256,192,73737,1,0,0:0:0:0:
256,192,73849,1,0,0:0:0:0:
256,192,73961,1,2,0:0:0:0:
256,192,74185,1,0,0:0:0:0:
256,192,74297,1,0,0:0:0:0:
256,192,74521,1,2,0:0:0:0:
256,192,74633,1,2,0:0:0:0:
256,192,74858,1,0,0:0:0:0:
256,192,75081,1,0,0:0:0:0:
256,192,75193,1,2,0:0:0:0:
256,192,75305,1,0,0:0:0:0:
256,192,75528,1,0,0:0:0:0:
256,192,75640,1,0,0:0:0:0:
256,192,75752,1,2,0:0:0:0:
256,192,75976,1,0,0:0:0:0:
256,192,76088,1,0,0:0:0:0:
256,192,76312,1,2,0:0:0:0:
256,192,76424,1,2,0:0:0:0:
256,192,76648,1,2,0:0:0:0:
256,192,76872,1,0,0:0:0:0:
256,192,76984,1,0,0:0:0:0:
256,192,77096,1,0,0:0:0:0:
256,192,77320,1,0,0:0:0:0:
256,192,77432,1,0,0:0:0:0:
256,192,77544,1,2,0:0:0:0:
256,192,77768,1,0,0:0:0:0:
256,192,77879,1,0,0:0:0:0:
256,192,77991,1,2,0:0:0:0:
256,192,78104,1,0,0:0:0:0:
256,192,78328,1,0,0:0:0:0:
256,192,78440,1,2,0:0:0:0:
256,192,78664,1,2,0:0:0:0:
256,192,78776,1,2,0:0:0:0:
256,192,78887,1,0,0:0:0:0:
256,192,79111,1,0,0:0:0:0:
256,192,79223,1,0,0:0:0:0:
256,192,79335,1,2,0:0:0:0:
256,192,79559,1,0,0:0:0:0:
256,192,79671,1,0,0:0:0:0:
256,192,79894,1,2,0:0:0:0:
256,192,80006,1,2,0:0:0:0:
256,192,80230,1,2,0:0:0:0:
256,192,80455,1,0,0:0:0:0:
256,192,80567,1,0,0:0:0:0:
256,192,80678,1,0,0:0:0:0:
256,192,80902,1,0,0:0:0:0:
256,192,81014,1,0,0:0:0:0:
256,192,81126,1,2,0:0:0:0:
256,192,81350,1,0,0:0:0:0:
256,192,81462,1,0,0:0:0:0:
256,192,81686,1,2,0:0:0:0:
256,192,81797,1,2,0:0:0:0:
256,192,82021,1,0,0:0:0:0:
256,192,82246,1,0,0:0:0:0:
256,192,82358,1,2,0:0:0:0:
256,192,82469,1,0,0:0:0:0:
256,192,82693,1,0,0:0:0:0:
256,192,82805,1,0,0:0:0:0:
256,192,82917,1,2,0:0:0:0:
256,192,83141,1,0,0:0:0:0:
256,192,83253,1,0,0:0:0:0:
256,192,83476,1,2,0:0:0:0:
256,192,83588,1,2,0:0:0:0:
256,192,83812,1,2,0:0:0:0:
256,192,84037,1,0,0:0:0:0:
256,192,84148,1,0,0:0:0:0:
256,192,84260,1,0,0:0:0:0:
256,192,84484,1,0,0:0:0:0:
256,192,84596,1,0,0:0:0:0:
256,192,84708,1,2,0:0:0:0:
256,192,84932,1,0,0:0:0:0:
256,192,85044,1,0,0:0:0:0:
256,192,85268,1,0,0:0:0:0:
256,192,85379,1,2,0:0:0:0:
256,192,85492,1,2,0:0:0:0:
256,192,85604,1,2,0:0:0:0:
256,192,85715,1,2,0:0:0:0:
256,192,85828,1,2,0:0:0:0:
256,192,85940,1,2,0:0:0:0:
256,192,86051,1,0,0:0:0:0:
256,192,86387,1,0,0:0:0:0:
256,192,86611,1,0,0:0:0:0:
256,192,86723,1,2,0:0:0:0:
256,192,86834,1,0,0:0:0:0:
256,192,86946,1,2,0:0:0:0:
256,192,87058,1,2,0:0:0:0:
256,192,87170,1,0,0:0:0:0:
256,192,87282,1,0,0:0:0:0:
256,192,87394,1,2,0:0:0:0:
256,192,87507,1,0,0:0:0:0:
256,192,87618,1,2,0:0:0:0:
256,192,87842,1,2,0:0:0:0:
256,192,87955,1,2,0:0:0:0:
256,192,88066,1,0,0:0:0:0:
256,192,88290,1,2,0:0:0:0:
256,192,88514,1,2,0:0:0:0:
256,192,88626,1,0,0:0:0:0:
256,192,88737,1,0,0:0:0:0:
256,192,88961,1,2,0:0:0:0:
256,192,89185,1,0,0:0:0:0:
256,192,89297,1,2,0:0:0:0:
256,192,89522,1,2,0:0:0:0:
256,192,89633,1,0,0:0:0:0:
256,192,89969,1,0,0:0:0:0:
256,192,90193,1,0,0:0:0:0:
256,192,90305,1,2,0:0:0:0:
256,192,90417,1,0,0:0:0:0:
256,192,90528,1,2,0:0:0:0:
256,192,90640,1,2,0:0:0:0:
256,192,90752,1,0,0:0:0:0:
256,192,90864,1,0,0:0:0:0:
256,192,90976,1,0,0:0:0:0:
256,192,91200,1,2,0:0:0:0:
256,192,91424,1,0,0:0:0:0:
256,192,91648,1,0,0:0:0:0:
256,192,91761,1,2,0:0:0:0:
256,192,91873,1,0,0:0:0:0:
256,192,91984,1,0,0:0:0:0:
256,192,92096,1,2,0:0:0:0:
256,192,92208,1,2,0:0:0:0:
256,192,92320,1,0,0:0:0:0:
256,192,92432,1,0,0:0:0:0:
256,192,92544,1,2,0:0:0:0:
256,192,92656,1,0,0:0:0:0:
256,192,92768,1,0,0:0:0:0:
256,192,92880,1,2,0:0:0:0:
256,192,93104,1,2,0:0:0:0:
256,192,93215,1,0,0:0:0:0:
256,192,93551,1,0,0:0:0:0:
256,192,93775,1,0,0:0:0:0:
256,192,93887,1,2,0:0:0:0:
256,192,93999,1,0,0:0:0:0:
256,192,94111,1,2,0:0:0:0:
256,192,94223,1,2,0:0:0:0:
256,192,94335,1,0,0:0:0:0:
256,192,94446,1,0,0:0:0:0:
256,192,94558,1,0,0:0:0:0:
256,192,94782,1,2,0:0:0:0:
256,192,95006,1,0,0:0:0:0:
256,192,95119,1,2,0:0:0:0:
256,192,95230,1,0,0:0:0:0:
256,192,95342,1,0,0:0:0:0:
256,192,95454,1,2,0:0:0:0:
256,192,95567,1,0,0:0:0:0:
256,192,95678,1,2,0:0:0:0:
256,192,95790,1,2,0:0:0:0:
256,192,95902,1,0,0:0:0:0:
256,192,96014,1,2,0:0:0:0:
256,192,96125,1,2,0:0:0:0:
256,192,96349,1,2,0:0:0:0:
256,192,96462,1,2,0:0:0:0:
256,192,96573,1,0,0:0:0:0:
256,192,96685,1,2,0:0:0:0:
256,192,96798,1,2,0:0:0:0:
256,192,97133,1,2,0:0:0:0:
256,192,97245,1,0,0:0:0:0:
256,192,97469,1,2,0:0:0:0:
256,192,97693,1,0,0:0:0:0:
256,192,97805,1,2,0:0:0:0:
256,192,97917,1,2,0:0:0:0:
256,192,98141,1,12,0:0:0:0:
256,192,98365,1,12,0:0:0:0:
256,192,98589,1,12,0:0:0:0:
256,192,99932,1,2,0:0:0:0:
256,192,100044,1,2,0:0:0:0:
256,192,100156,1,2,0:0:0:0:
256,192,100268,1,2,0:0:0:0:
256,192,100380,1,0,0:0:0:0:
256,192,100604,1,0,0:0:0:0:
256,192,100828,1,2,0:0:0:0:
256,192,101051,1,2,0:0:0:0:
256,192,101163,1,0,0:0:0:0:
256,192,101387,1,0,0:0:0:0:
256,192,101611,1,2,0:0:0:0:
256,192,101723,1,2,0:0:0:0:
256,192,101947,1,0,0:0:0:0:
256,192,102171,1,2,0:0:0:0:
256,192,102283,1,0,0:0:0:0:
256,192,102395,1,0,0:0:0:0:
256,192,102507,1,0,0:0:0:0:
256,192,102619,1,2,0:0:0:0:
256,192,102731,1,0,0:0:0:0:
256,192,102843,1,2,0:0:0:0:
256,192,102954,1,2,0:0:0:0:
256,192,103066,1,0,0:0:0:0:
256,192,103178,1,2,0:0:0:0:
256,192,103402,1,0,0:0:0:0:
256,192,103514,1,2,0:0:0:0:
256,192,103738,1,2,0:0:0:0:
256,192,103850,1,2,0:0:0:0:
256,192,103962,1,0,0:0:0:0:
256,192,104186,1,0,0:0:0:0:
256,192,104410,1,2,0:0:0:0:
256,192,104634,1,2,0:0:0:0:
256,192,104746,1,0,0:0:0:0:
256,192,104969,1,0,0:0:0:0:
256,192,105193,1,2,0:0:0:0:
256,192,105305,1,2,0:0:0:0:
256,192,105529,1,0,0:0:0:0:
256,192,105753,1,0,0:0:0:0:
256,192,105865,1,2,0:0:0:0:
256,192,105977,1,0,0:0:0:0:
256,192,106089,1,0,0:0:0:0:
256,192,106201,1,2,0:0:0:0:
256,192,106313,1,0,0:0:0:0:
256,192,106425,1,2,0:0:0:0:
256,192,106537,1,2,0:0:0:0:
256,192,106649,1,0,0:0:0:0:
256,192,106760,1,2,0:0:0:0:
256,192,106872,1,0,0:0:0:0:
256,192,106984,1,0,0:0:0:0:
256,192,107096,1,2,0:0:0:0:
256,192,107320,1,2,0:0:0:0:
256,192,107432,1,2,0:0:0:0:
256,192,107544,1,0,0:0:0:0:
256,192,107768,1,0,0:0:0:0:
256,192,107992,1,2,0:0:0:0:
256,192,108216,1,0,0:0:0:0:
256,192,108328,1,0,0:0:0:0:
256,192,108551,1,0,0:0:0:0:
256,192,108775,1,2,0:0:0:0:
256,192,108887,1,2,0:0:0:0:
256,192,109111,1,0,0:0:0:0:
256,192,109335,1,2,0:0:0:0:
256,192,109447,1,0,0:0:0:0:
256,192,109559,1,0,0:0:0:0:
256,192,109671,1,2,0:0:0:0:
256,192,109783,1,2,0:0:0:0:
256,192,109895,1,0,0:0:0:0:
256,192,110007,1,2,0:0:0:0:
256,192,110119,1,2,0:0:0:0:
256,192,110231,1,0,0:0:0:0:
256,192,110343,1,2,0:0:0:0:
256,192,110566,1,2,0:0:0:0:
256,192,110678,1,2,0:0:0:0:
256,192,110902,1,2,0:0:0:0:
256,192,111014,1,2,0:0:0:0:
256,192,111126,1,0,0:0:0:0:
256,192,111350,1,0,0:0:0:0:
256,192,111574,1,2,0:0:0:0:
256,192,111798,1,0,0:0:0:0:
256,192,111910,1,0,0:0:0:0:
256,192,112134,1,0,0:0:0:0:
256,192,112357,1,2,0:0:0:0:
256,192,112469,1,2,0:0:0:0:
256,192,112693,1,2,0:0:0:0:
256,192,113141,1,0,0:0:0:0:
256,192,113365,1,2,0:0:0:0:
256,192,113477,1,0,0:0:0:0:
256,192,113701,1,2,0:0:0:0:
256,192,113925,1,0,0:0:0:0:
256,192,114149,1,0,0:0:0:0:
256,192,114261,1,2,0:0:0:0:
256,192,114708,1,4,0:0:0:0:
256,192,115156,1,0,0:0:0:0:
256,192,115604,1,0,0:0:0:0:
256,192,116052,1,0,0:0:0:0:
256,192,116499,1,0,0:0:0:0:
256,192,116947,1,0,0:0:0:0:
256,192,117395,1,0,0:0:0:0:
256,192,117842,1,0,0:0:0:0:
256,192,118290,1,0,0:0:0:0:
256,192,118738,1,0,0:0:0:0:
256,192,119185,1,0,0:0:0:0:
256,192,119634,1,2,0:0:0:0:
256,192,120081,1,6,0:0:0:0:
256,192,120305,1,6,0:0:0:0:
256,192,120529,1,6,0:0:0:0:
256,192,120753,1,6,0:0:0:0:
256,192,120977,1,2,0:0:0:0:
256,192,121089,1,0,0:0:0:0:
256,192,121313,1,0,0:0:0:0:
256,192,121425,1,0,0:0:0:0:
256,192,121873,1,0,0:0:0:0:
256,192,122096,1,0,0:0:0:0:
256,192,122320,1,0,0:0:0:0:
256,192,122544,1,0,0:0:0:0:
256,192,122768,1,2,0:0:0:0:
256,192,123216,1,0,0:0:0:0:
256,192,123440,1,0,0:0:0:0:
256,192,123887,1,0,0:0:0:0:
256,192,124111,1,0,0:0:0:0:
256,192,124559,1,0,0:0:0:0:
256,192,124783,1,0,0:0:0:0:
256,192,125007,1,2,0:0:0:0:
256,192,125455,1,0,0:0:0:0:
256,192,125678,1,0,0:0:0:0:
256,192,125902,1,0,0:0:0:0:
256,192,126126,1,0,0:0:0:0:
256,192,126350,1,2,0:0:0:0:
256,192,126798,1,0,0:0:0:0:
256,192,127022,1,0,0:0:0:0:
256,192,127470,1,0,0:0:0:0:
256,192,127693,1,0,0:0:0:0:
256,192,128141,1,0,0:0:0:0:
256,192,128365,1,0,0:0:0:0:
256,192,128589,1,2,0:0:0:0:
256,192,129037,1,0,0:0:0:0:
256,192,129149,1,0,0:0:0:0:
256,192,129261,1,0,0:0:0:0:
256,192,129373,1,2,0:0:0:0:
256,192,129484,1,2,0:0:0:0:
256,192,129596,1,0,0:0:0:0:
256,192,129708,1,2,0:0:0:0:
256,192,129820,1,2,0:0:0:0:
256,192,129932,1,2,0:0:0:0:
256,192,130044,1,0,0:0:0:0:
256,192,130156,1,0,0:0:0:0:
256,192,130268,1,0,0:0:0:0:
256,192,130380,1,2,0:0:0:0:
256,192,130492,1,2,0:0:0:0:
256,192,130604,1,0,0:0:0:0:
256,192,130828,1,0,0:0:0:0:
256,192,130940,1,0,0:0:0:0:
256,192,131052,1,0,0:0:0:0:
256,192,131164,1,2,0:0:0:0:
256,192,131275,1,2,0:0:0:0:
256,192,131387,1,2,0:0:0:0:
256,192,131499,1,0,0:0:0:0:
256,192,131611,1,0,0:0:0:0:
256,192,131723,1,0,0:0:0:0:
256,192,131835,1,2,0:0:0:0:
256,192,131947,1,0,0:0:0:0:
256,192,132059,1,0,0:0:0:0:
256,192,132171,1,2,0:0:0:0:
256,192,132283,1,2,0:0:0:0:
256,192,132395,1,0,0:0:0:0:
256,192,132619,1,0,0:0:0:0:
256,192,132731,1,0,0:0:0:0:
256,192,132843,1,0,0:0:0:0:
256,192,132955,1,0,0:0:0:0:
256,192,133067,1,2,0:0:0:0:
256,192,133178,1,0,0:0:0:0:
256,192,133290,1,2,0:0:0:0:
256,192,133402,1,2,0:0:0:0:
256,192,133514,1,0,0:0:0:0:
256,192,133626,1,0,0:0:0:0:
256,192,133738,1,2,0:0:0:0:
256,192,133850,1,0,0:0:0:0:
256,192,133962,1,2,0:0:0:0:
256,192,134074,1,0,0:0:0:0:
256,192,134186,1,2,0:0:0:0:
256,192,134298,1,0,0:0:0:0:
256,192,134410,1,2,0:0:0:0:
256,192,134522,1,2,0:0:0:0:
256,192,134634,1,0,0:0:0:0:
256,192,134746,1,0,0:0:0:0:
256,192,134858,1,2,0:0:0:0:
256,192,135081,1,0,0:0:0:0:
256,192,135305,1,2,0:0:0:0:
256,192,135417,1,0,0:0:0:0:
256,192,135529,1,0,0:0:0:0:
256,192,135641,1,0,0:0:0:0:
256,192,135753,1,2,0:0:0:0:
256,192,136201,1,4,0:0:0:0:
256,192,136649,1,2,0:0:0:0:
256,192,137096,1,0,0:0:0:0:
256,192,137208,1,0,0:0:0:0:
256,192,137320,1,0,0:0:0:0:
256,192,137544,1,2,0:0:0:0:
256,192,137992,1,0,0:0:0:0:
256,192,138440,1,2,0:0:0:0:
256,192,138775,1,2,0:0:0:0:
256,192,138887,1,0,0:0:0:0:
256,192,138999,1,2,0:0:0:0:
256,192,139335,1,2,0:0:0:0:
256,192,139783,1,0,0:0:0:0:
256,192,140231,1,2,0:0:0:0:
256,192,140567,1,2,0:0:0:0:
256,192,140678,1,0,0:0:0:0:
256,192,140790,1,2,0:0:0:0:
256,192,141126,1,2,0:0:0:0:
256,192,141574,1,0,0:0:0:0:
256,192,142022,1,2,0:0:0:0:
256,192,142358,1,2,0:0:0:0:
256,192,142470,1,0,0:0:0:0:
256,192,142581,1,2,0:0:0:0:
256,192,142917,1,2,0:0:0:0:
256,192,143141,1,2,0:0:0:0:
256,192,143365,1,0,0:0:0:0:
256,192,143813,1,2,0:0:0:0:
256,192,144149,1,2,0:0:0:0:
256,192,144261,1,0,0:0:0:0:
256,192,144373,1,2,0:0:0:0:
256,192,144708,1,2,0:0:0:0:
256,192,145156,1,0,0:0:0:0:
256,192,145604,1,2,0:0:0:0:
256,192,145940,1,2,0:0:0:0:
256,192,146052,1,0,0:0:0:0:
256,192,146164,1,2,0:0:0:0:
256,192,146499,1,2,0:0:0:0:
256,192,146947,1,0,0:0:0:0:
256,192,147395,1,2,0:0:0:0:
256,192,147731,1,2,0:0:0:0:
256,192,147843,1,0,0:0:0:0:
256,192,147955,1,2,0:0:0:0:
256,192,148290,1,2,0:0:0:0:
256,192,148738,1,0,0:0:0:0:
256,192,149186,1,2,0:0:0:0:
256,192,149522,1,2,0:0:0:0:
256,192,149634,1,0,0:0:0:0:
256,192,149970,1,0,0:0:0:0:
256,192,150305,1,0,0:0:0:0:
256,192,150529,1,4,0:0:0:0:
256,192,150977,1,2,0:0:0:0:
256,192,151425,1,0,0:0:0:0:
256,192,151873,1,2,0:0:0:0:
256,192,152320,1,0,0:0:0:0:
256,192,152768,1,2,0:0:0:0:
256,192,153216,1,0,0:0:0:0:
256,192,153664,1,2,0:0:0:0:
256,192,154111,1,0,0:0:0:0:
256,192,154559,1,2,0:0:0:0:
256,192,155007,1,0,0:0:0:0:
256,192,155455,1,2,0:0:0:0:
256,192,155902,1,0,0:0:0:0:
256,192,156350,1,2,0:0:0:0:
256,192,156798,1,0,0:0:0:0:
256,192,157246,1,2,0:0:0:0:
256,192,157693,1,2,0:0:0:0:
256,192,157917,1,2,0:0:0:0:
256,192,158141,1,2,0:0:0:0:
256,192,158365,1,2,0:0:0:0:
256,192,158589,1,2,0:0:0:0:
256,192,158813,1,2,0:0:0:0:
256,192,159037,1,2,0:0:0:0:
256,192,159261,1,2,0:0:0:0:
256,192,159484,1,2,0:0:0:0:
256,192,159708,1,2,0:0:0:0:
256,192,159932,1,2,0:0:0:0:
256,192,160156,1,2,0:0:0:0:
256,192,160380,1,2,0:0:0:0:
256,192,160604,1,2,0:0:0:0:
256,192,160828,1,2,0:0:0:0:
256,192,161052,1,2,0:0:0:0:
256,192,161275,1,2,0:0:0:0:
256,192,161611,1,2,0:0:0:0:
256,192,161723,1,0,0:0:0:0:
256,192,161947,1,2,0:0:0:0:
256,192,162171,1,2,0:0:0:0:
256,192,162507,1,2,0:0:0:0:
256,192,162619,1,0,0:0:0:0:
256,192,162843,1,2,0:0:0:0:
256,192,163067,1,2,0:0:0:0:
256,192,163402,1,2,0:0:0:0:
256,192,163514,1,0,0:0:0:0:
256,192,163738,1,2,0:0:0:0:
256,192,163962,1,2,0:0:0:0:
256,192,164074,1,0,0:0:0:0:
256,192,164186,1,0,0:0:0:0:
256,192,164298,1,0,0:0:0:0:
256,192,164410,1,2,0:0:0:0:
256,192,164858,1,2,0:0:0:0:
256,192,165305,1,2,0:0:0:0:
256,192,165753,1,2,0:0:0:0:
256,192,166201,1,2,0:0:0:0:
256,192,166649,1,2,0:0:0:0:
256,192,167096,1,2,0:0:0:0:
256,192,167544,1,2,0:0:0:0:
256,192,167992,1,2,0:0:0:0:
256,192,168440,1,2,0:0:0:0:
256,192,168887,1,2,0:0:0:0:
256,192,169335,1,2,0:0:0:0:
256,192,169783,1,2,0:0:0:0:
256,192,170231,1,2,0:0:0:0:
256,192,170678,1,2,0:0:0:0:
256,192,171126,1,2,0:0:0:0:
256,192,171574,1,2,0:0:0:0:
256,192,172022,1,6,0:0:0:0:
256,192,172358,1,2,0:0:0:0:
256,192,172470,1,0,0:0:0:0:
256,192,172693,1,2,0:0:0:0:
256,192,172917,1,0,0:0:0:0:
256,192,173029,1,2,0:0:0:0:
256,192,173141,1,0,0:0:0:0:
256,192,173365,1,6,0:0:0:0:
256,192,173589,1,6,0:0:0:0:
256,192,173813,1,6,0:0:0:0:
256,192,174037,1,0,0:0:0:0:
256,192,174149,1,2,0:0:0:0:
256,192,174261,1,0,0:0:0:0:
256,192,174484,1,2,0:0:0:0:
256,192,174708,1,0,0:0:0:0:
256,192,174820,1,2,0:0:0:0:
256,192,174932,1,0,0:0:0:0:
256,192,175156,1,6,0:0:0:0:
256,192,175380,1,6,0:0:0:0:
256,192,175604,1,6,0:0:0:0:
256,192,175828,1,0,0:0:0:0:
256,192,175940,1,2,0:0:0:0:
256,192,176052,1,0,0:0:0:0:
256,192,176276,1,2,0:0:0:0:
256,192,176499,1,0,0:0:0:0:
256,192,176611,1,2,0:0:0:0:
256,192,176723,1,0,0:0:0:0:
256,192,176947,1,2,0:0:0:0:
256,192,177171,1,2,0:0:0:0:
256,192,177395,12,0,178738,0:0:0:0:
256,192,179186,5,4,0:0:0:0:
256,192,179410,1,2,0:0:0:0:
256,192,179634,1,0,0:0:0:0:
256,192,179857,1,2,0:0:0:0:
256,192,179969,1,0,0:0:0:0:
256,192,180193,1,0,0:0:0:0:
256,192,180417,1,2,0:0:0:0:
256,192,180529,1,2,0:0:0:0:
256,192,180753,1,0,0:0:0:0:
256,192,180977,1,2,0:0:0:0:
256,192,181089,1,0,0:0:0:0:
256,192,181201,1,0,0:0:0:0:
256,192,181313,1,0,0:0:0:0:
256,192,181425,1,2,0:0:0:0:
256,192,181537,1,0,0:0:0:0:
256,192,181649,1,2,0:0:0:0:
256,192,181760,1,2,0:0:0:0:
256,192,181872,1,0,0:0:0:0:
256,192,181984,1,2,0:0:0:0:
256,192,182208,1,0,0:0:0:0:
256,192,182320,1,2,0:0:0:0:
256,192,182544,1,2,0:0:0:0:
256,192,182656,1,2,0:0:0:0:
256,192,182768,1,0,0:0:0:0:
256,192,182992,1,0,0:0:0:0:
256,192,183216,1,2,0:0:0:0:
256,192,183440,1,2,0:0:0:0:
256,192,183552,1,0,0:0:0:0:
256,192,183775,1,0,0:0:0:0:
256,192,183999,1,2,0:0:0:0:
256,192,184111,1,2,0:0:0:0:
256,192,184335,1,0,0:0:0:0:
256,192,184559,1,0,0:0:0:0:
256,192,184671,1,0,0:0:0:0:
256,192,184783,1,2,0:0:0:0:
256,192,184895,1,0,0:0:0:0:
256,192,185007,1,2,0:0:0:0:
256,192,185119,1,0,0:0:0:0:
256,192,185231,1,2,0:0:0:0:
256,192,185343,1,2,0:0:0:0:
256,192,185455,1,0,0:0:0:0:
256,192,185566,1,2,0:0:0:0:
256,192,185678,1,2,0:0:0:0:
256,192,185790,1,0,0:0:0:0:
256,192,185902,1,2,0:0:0:0:
256,192,186126,1,2,0:0:0:0:
256,192,186238,1,2,0:0:0:0:
256,192,186350,1,0,0:0:0:0:
256,192,186574,1,0,0:0:0:0:
256,192,186798,1,2,0:0:0:0:
256,192,187022,1,2,0:0:0:0:
256,192,187134,1,0,0:0:0:0:
256,192,187357,1,0,0:0:0:0:
256,192,187581,1,2,0:0:0:0:
256,192,187693,1,2,0:0:0:0:
256,192,187917,1,0,0:0:0:0:
256,192,188141,1,2,0:0:0:0:
256,192,188253,1,0,0:0:0:0:
256,192,188365,1,0,0:0:0:0:
256,192,188477,1,2,0:0:0:0:
256,192,188589,1,2,0:0:0:0:
256,192,188701,1,0,0:0:0:0:
256,192,188813,1,2,0:0:0:0:
256,192,188925,1,2,0:0:0:0:
256,192,189037,1,0,0:0:0:0:
256,192,189149,1,2,0:0:0:0:
256,192,189372,1,2,0:0:0:0:
256,192,189484,1,2,0:0:0:0:
256,192,189708,1,2,0:0:0:0:
256,192,189820,1,2,0:0:0:0:
256,192,189932,1,0,0:0:0:0:
256,192,190156,1,0,0:0:0:0:
256,192,190380,1,2,0:0:0:0:
256,192,190604,1,2,0:0:0:0:
256,192,190716,1,0,0:0:0:0:
256,192,190940,1,0,0:0:0:0:
256,192,191163,1,2,0:0:0:0:
256,192,191275,1,2,0:0:0:0:
256,192,191499,1,2,0:0:0:0:
256,192,191947,1,0,0:0:0:0:
256,192,192171,1,2,0:0:0:0:
256,192,192283,1,0,0:0:0:0:
256,192,192507,1,2,0:0:0:0:
256,192,192619,1,2,0:0:0:0:
256,192,192731,1,0,0:0:0:0:
256,192,192843,1,2,0:0:0:0:
256,192,192955,1,0,0:0:0:0:
256,192,193067,1,2,0:0:0:0:
256,192,193178,1,2,0:0:0:0:
256,192,193290,1,0,0:0:0:0:
256,192,193402,1,0,0:0:0:0:
256,192,193514,1,2,0:0:0:0:
256,192,193738,1,0,0:0:0:0:
256,192,193962,1,2,0:0:0:0:
256,192,194185,1,0,0:0:0:0:
256,192,194297,1,2,0:0:0:0:
256,192,194521,1,2,0:0:0:0:
256,192,194746,1,0,0:0:0:0:
256,192,194857,1,2,0:0:0:0:
256,192,195081,1,0,0:0:0:0:
256,192,195305,1,0,0:0:0:0:
256,192,195529,1,2,0:0:0:0:
256,192,195753,1,2,0:0:0:0:
256,192,195865,1,0,0:0:0:0:
256,192,196089,1,2,0:0:0:0:
256,192,196313,1,2,0:0:0:0:
256,192,196537,1,0,0:0:0:0:
256,192,196648,1,2,0:0:0:0:
256,192,196872,1,2,0:0:0:0:
256,192,196984,1,2,0:0:0:0:
256,192,197096,1,0,0:0:0:0:
256,192,197320,1,0,0:0:0:0:
256,192,197544,1,2,0:0:0:0:
256,192,197768,1,0,0:0:0:0:
256,192,197880,1,2,0:0:0:0:
256,192,198103,1,2,0:0:0:0:
256,192,198327,1,0,0:0:0:0:
256,192,198439,1,2,0:0:0:0:
256,192,198663,1,2,0:0:0:0:
256,192,198775,1,2,0:0:0:0:
256,192,198887,1,2,0:0:0:0:
256,192,198999,1,0,0:0:0:0:
256,192,199111,1,0,0:0:0:0:
256,192,199223,1,0,0:0:0:0:
256,192,199335,1,2,0:0:0:0:
256,192,199447,1,0,0:0:0:0:
256,192,199559,1,2,0:0:0:0:
256,192,199671,1,2,0:0:0:0:
256,192,199783,1,0,0:0:0:0:
256,192,199894,1,2,0:0:0:0:
256,192,200006,1,2,0:0:0:0:
256,192,200118,1,0,0:0:0:0:
256,192,200230,1,2,0:0:0:0:
256,192,200454,1,2,0:0:0:0:
256,192,200566,1,2,0:0:0:0:
256,192,200678,1,0,0:0:0:0:
256,192,200902,1,0,0:0:0:0:
256,192,201126,1,2,0:0:0:0:
256,192,201350,1,0,0:0:0:0:
256,192,201462,1,2,0:0:0:0:
256,192,201686,1,2,0:0:0:0:
256,192,201909,1,0,0:0:0:0:
256,192,202021,1,2,0:0:0:0:
256,192,202245,1,2,0:0:0:0:
256,192,202358,1,2,0:0:0:0:
256,192,202469,1,2,0:0:0:0:
256,192,202581,1,0,0:0:0:0:
256,192,202693,1,0,0:0:0:0:
256,192,202805,1,2,0:0:0:0:
256,192,202917,1,2,0:0:0:0:
256,192,203029,1,0,0:0:0:0:
256,192,203141,1,2,0:0:0:0:
256,192,203253,1,2,0:0:0:0:
256,192,203365,1,0,0:0:0:0:
256,192,203477,1,2,0:0:0:0:
256,192,203700,1,2,0:0:0:0:
256,192,203812,1,2,0:0:0:0:
256,192,204036,1,2,0:0:0:0:
256,192,204148,1,2,0:0:0:0:
256,192,204260,1,0,0:0:0:0:
256,192,204484,1,0,0:0:0:0:
256,192,204708,1,2,0:0:0:0:
256,192,204932,1,0,0:0:0:0:
256,192,205044,1,2,0:0:0:0:
256,192,205268,1,2,0:0:0:0:
256,192,205491,1,0,0:0:0:0:
256,192,205603,1,2,0:0:0:0:
256,192,205828,1,2,0:0:0:0:
256,192,206052,1,0,0:0:0:0:
256,192,206275,1,2,0:0:0:0:
256,192,206499,1,2,0:0:0:0:
256,192,206611,1,0,0:0:0:0:
256,192,206835,1,2,0:0:0:0:
256,192,207059,1,2,0:0:0:0:
256,192,207283,1,0,0:0:0:0:
256,192,207395,1,2,0:0:0:0:
256,192,207843,1,2,0:0:0:0:
256,192,208290,1,2,0:0:0:0:
256,192,208738,1,2,0:0:0:0:
256,192,209186,1,4,0:0:0:0:
